VERSION	0.00.00	1.04.00
FES_MODE	1
BPM_DEF	200.000	200.000	200.000	 80.000
MET_DEF	4	4
RESOLUTION	384
CLK_DEF	384
COMPATIBLE_CODE	MA2

BPM	0	0	200.000
BPM	33	0	188.000
BPM	34	0	177.000
BPM	34	192	169.000
BPM	34	288	165.000
BPM	35	0	160.000
BPM	35	96	155.000
BPM	35	192	150.000
BPM	35	288	145.000
BPM	36	0	140.000
BPM	36	96	135.000
BPM	36	192	132.000
BPM	45	0	140.000
BPM	49	0	150.000
BPM	69	0	160.000
BPM	77	0	 80.000
BPM	79	0	170.000
BPM	83	0	180.000
BPM	87	0	200.000
MET	0	0	4	4

NMTAP	1	288	4
NMTAP	1	288	5
NMHLD	1	336	4	336
NMHLD	1	336	5	336
NMTAP	2	48	0
NMTAP	2	48	1
NMHLD	2	96	0	192
NMHLD	2	96	1	192
NMHLD	3	0	2	672
NMHLD	3	0	3	672
NMTAP	3	96	6
NMTAP	3	96	7
NMHLD	3	192	6	480
NMHLD	3	192	7	480
NMHLD	5	0	2	96
NMHLD	5	0	5	96
NMTAP	5	96	3
NMTAP	5	96	4
NMHLD	5	192	1	96
NMHLD	5	192	6	96
NMTAP	5	288	0
NMTAP	5	288	7
NMTAP	5	336	0
NMTAP	5	336	7
NMTAP	6	48	2
NMTAP	6	48	3
NMTAP	6	48	4
NMTAP	6	48	5
NMTAP	6	96	2
NMTAP	6	96	3
NMTAP	6	96	4
NMTAP	6	96	5
NMTAP	6	192	1
NMTAP	6	192	2
NMTAP	6	192	5
NMTAP	6	192	6
NMTAP	6	288	0
NMTAP	6	288	1
NMTAP	6	288	6
NMTAP	6	288	7
NMTAP	7	0	2
NMTAP	7	0	5
NMTAP	7	48	2
NMTAP	7	48	5
NMTAP	7	96	3
NMTAP	7	96	4
NMTAP	7	144	3
NMTAP	7	144	4
NMTAP	7	192	1
NMTAP	7	192	6
NMTAP	7	240	1
NMTAP	7	240	6
NMSTR	7	288	0
NMSI_	7	288	0	96	48	3
NMSTR	7	288	7
NMSI_	7	288	7	96	48	4
NMHLD	8	192	4	4608
NMHLD	8	192	5	4608
BRTAP	8	288	0
BRTAP	8	288	1
NMTAP	9	0	1
NMTAP	9	0	2
NMTTP	9	0	5	D	1	M1
NMTAP	9	48	0
NMTAP	9	96	1
NMTAP	9	96	2
NMTAP	9	144	0
NMTAP	9	192	1
NMTAP	9	192	2
NMTAP	9	240	3
NMTAP	9	288	1
NMTAP	9	288	2
NMTAP	9	336	3
NMTAP	10	0	1
NMTAP	10	0	2
NMTAP	10	48	0
NMTAP	10	96	1
NMTAP	10	96	2
NMTAP	10	144	0
NMTAP	10	192	1
NMTAP	10	192	2
NMTAP	10	240	3
NMTAP	10	288	1
NMTAP	10	288	2
NMTAP	10	336	3
BXTAP	11	0	1
BXTAP	11	0	2
BXTAP	11	48	1
BXTAP	11	48	2
BXTAP	11	96	1
BXTAP	11	96	2
NMTAP	11	144	0
NMTAP	11	192	1
NMTAP	11	192	2
NMTAP	11	240	3
NMTAP	11	288	1
NMTAP	11	288	2
NMTAP	11	336	3
NMTAP	12	0	1
NMTAP	12	0	2
NMTAP	12	48	0
NMTAP	12	96	2
NMTAP	12	144	2
NMTAP	12	192	1
NMTAP	12	216	3
NMTAP	12	240	1
NMTAP	12	264	3
NMTAP	12	288	2
NMHLD	13	0	2	4416
NMHLD	13	0	3	4416
NMTTP	13	0	5	D	1	M1
NMTTP	17	0	3	D	1	M1
NMSTR	20	288	5
NMSI_	20	288	5	96	48	7
NMTTP	21	0	3	D	1	M1
NMSTR	21	0	4
NMSI_	21	0	4	96	48	0
NMTAP	21	0	5
NMTAP	21	96	4
NMSTR	21	96	5
NMSI_	21	96	5	96	48	7
NMSTR	21	192	4
NMSI_	21	192	4	96	48	0
NMTAP	21	192	5
NMTAP	21	288	6
NMHLD	21	336	6	96
NMTAP	22	48	4
NMTAP	22	96	5
NMSTR	22	144	7
NMSI_	22	144	7	96	48	4
NMSTR	22	192	4
NMSI_	22	192	4	96	48	0
NMTAP	23	0	7
NMTAP	23	48	7
NMTAP	23	96	4
NMTAP	23	144	4
NMTAP	23	192	6
NMTAP	23	240	6
NMTAP	23	264	5
NMTAP	23	288	4
NMTAP	23	336	4
NMTAP	23	336	5
NMTAP	24	0	4
NMTAP	24	0	5
NMTAP	24	48	4
NMTAP	24	48	6
NMTAP	24	96	4
NMTAP	24	96	6
NMTAP	24	192	6
NMTAP	24	216	5
NMTAP	24	240	6
NMTAP	24	288	4
NMSTR	24	288	7
NMSI_	24	288	7	96	48	4
NMSI_	24	288	7	96	48	5
NMTAP	25	0	1
BRTAP	25	0	7
NMTAP	25	48	1
NMTAP	25	96	1
NMTAP	25	144	1
NMTAP	25	192	1
NMTAP	25	240	1
NMTAP	25	288	1
NMTAP	25	336	1
NMTAP	26	0	3
NMTAP	26	48	3
NMTAP	26	96	3
NMTAP	26	144	3
NMTAP	26	192	3
NMTAP	26	240	3
NMTAP	26	288	3
NMTAP	26	336	3
NMTAP	27	0	1
NMTAP	27	0	7
NMTAP	27	32	2
NMTAP	27	48	7
NMTAP	27	64	3
NMTAP	27	96	1
NMTAP	27	96	7
NMTAP	27	128	2
NMTAP	27	144	7
NMTAP	27	160	3
NMTAP	27	192	1
NMTAP	27	192	7
NMTAP	27	224	2
NMTAP	27	240	7
NMTAP	27	256	3
NMTAP	27	288	1
NMTAP	27	288	7
NMTAP	27	320	2
NMTAP	27	336	7
NMTAP	27	352	3
NMTAP	28	0	1
NMTAP	28	0	5
NMTAP	28	32	2
NMTAP	28	48	5
NMTAP	28	64	3
NMTAP	28	96	1
NMTAP	28	96	5
NMTAP	28	128	2
NMTAP	28	144	5
NMTAP	28	160	3
NMTAP	28	192	1
NMTAP	28	192	5
NMTAP	28	224	2
NMTAP	28	240	5
NMTAP	28	256	3
NMTAP	28	288	1
NMTAP	28	288	5
NMTAP	28	320	2
NMTAP	28	352	3
NMTAP	29	0	1
NMTAP	29	0	6
NMTAP	29	32	5
NMTAP	29	48	1
NMTAP	29	64	4
NMTAP	29	96	1
NMTAP	29	96	6
NMTAP	29	128	5
NMTAP	29	144	1
NMTAP	29	160	4
NMTAP	29	192	1
NMTAP	29	192	6
NMTAP	29	224	5
NMTAP	29	240	1
NMTAP	29	256	4
NMTAP	29	288	1
NMTAP	29	288	6
NMTAP	29	320	5
NMTAP	29	336	1
NMTAP	29	352	4
NMTAP	30	0	3
NMTAP	30	0	6
NMTAP	30	32	5
NMTAP	30	48	3
NMTAP	30	64	4
NMTAP	30	96	3
NMTAP	30	96	6
NMTAP	30	128	5
NMTAP	30	144	3
NMTAP	30	160	4
NMTAP	30	192	3
NMHLD	30	192	6	96
NMTAP	30	240	3
NMTAP	30	288	3
NMTAP	30	320	5
NMTAP	30	336	3
NMTAP	30	352	4
NMTAP	31	0	1
NMTAP	31	0	7
NMTAP	31	32	2
NMTAP	31	48	7
NMTAP	31	64	3
NMTAP	31	96	1
NMTAP	31	96	7
NMTAP	31	128	2
NMTAP	31	144	7
NMTAP	31	160	3
NMTAP	31	192	1
NMTAP	31	192	7
NMTAP	31	224	2
NMTAP	31	240	7
NMTAP	31	256	3
NMTAP	31	288	1
NMTAP	31	288	7
NMTAP	31	320	2
NMTAP	31	336	7
NMTAP	31	352	3
NMTAP	32	0	1
NMTAP	32	0	5
NMTAP	32	32	2
NMTAP	32	48	5
NMTAP	32	64	3
NMTAP	32	96	1
NMTAP	32	96	5
NMTAP	32	128	2
NMTAP	32	144	5
NMTAP	32	160	3
NMTAP	32	192	1
NMTAP	32	192	3
NMTAP	32	192	5
NMTAP	32	192	7
NMTAP	32	256	1
NMTAP	32	256	3
NMTAP	32	256	5
NMTAP	32	256	7
NMTAP	32	320	0
NMTAP	32	320	2
NMTAP	32	320	4
NMTAP	32	320	6
NMTAP	33	0	0
NMSTR	33	0	2
NMSXL	33	0	2	96	1056	0
NMTAP	33	0	4
NMSTR	33	0	6
NMSXL	33	0	6	96	1056	4
NMHLD	36	288	4	2976
NMHLD	36	288	5	2976
NMSTR	37	0	0
NMSCR	37	0	0	96	48	2
NMTTP	37	0	5	D	1	M1
NMSTR	37	96	0
NMSCL	37	96	0	96	48	6
NMTAP	37	144	3
NMTAP	37	168	3
NMSTR	37	192	0
NMSI_	37	192	0	96	48	2
NMTAP	37	240	3
NMTAP	37	264	3
NMSTR	37	288	0
NMSI_	37	288	0	96	48	6
NMTAP	37	336	3
NMTAP	37	360	3
NMSTR	38	0	0
NMSCR	38	0	0	96	48	2
NMTAP	38	48	3
NMTAP	38	72	3
NMSTR	38	96	0
NMSCL	38	96	0	96	48	6
NMTAP	38	192	0
BRTAP	38	192	3
NMSTR	38	288	1
BRSI_	38	288	1	96	48	3
BRTAP	38	288	3
BRTAP	39	0	3
NMSTR	39	96	0
NMSCR	39	96	0	96	48	2
NMTAP	39	144	3
NMTAP	39	168	3
NMSTR	39	192	0
NMSCL	39	192	0	96	48	6
NMTAP	39	240	3
NMTAP	39	264	3
NMSTR	39	288	0
NMSI_	39	288	0	96	48	2
NMTAP	39	336	3
NMTAP	39	360	3
NMSTR	40	0	0
NMSI_	40	0	0	96	48	6
NMTAP	40	48	3
NMTAP	40	72	3
NMSTR	40	96	0
NMSI_	40	96	0	96	48	3
NMTAP	40	192	0
BRTAP	40	192	3
NMHLD	40	288	0	2976
NMHLD	40	288	1	2976
NMTTP	41	0	5	D	1	M1
NMTTP	45	0	1	D	1	M1
NMTAP	45	0	4
NMTAP	45	24	5
NMTAP	45	48	4
NMTAP	45	72	5
NMTAP	45	96	3
NMTAP	45	120	4
NMTAP	45	144	3
NMTAP	45	168	4
NMTAP	45	192	3
NMTAP	45	216	5
NMTAP	45	240	3
NMTAP	45	264	5
NMTAP	45	288	4
NMTAP	45	312	5
NMTAP	45	336	4
NMTAP	45	360	5
NMTAP	46	0	3
NMTAP	46	24	6
NMTAP	46	48	3
NMTAP	46	72	6
NMTAP	46	96	4
NMTAP	46	120	5
NMTAP	46	144	4
NMTAP	46	168	5
NMTAP	46	192	3
NMTAP	46	216	6
NMTAP	46	240	3
NMTAP	46	264	6
NMTAP	46	288	2
NMTAP	46	312	5
NMTAP	46	336	2
NMTAP	46	360	5
NMTAP	47	0	3
NMTAP	47	24	6
NMTAP	47	48	4
NMTAP	47	72	7
NMTAP	47	96	4
NMTAP	47	120	7
NMTAP	47	144	4
NMTAP	47	168	7
NMTAP	47	192	3
NMTAP	47	216	6
NMTAP	47	240	2
NMTAP	47	264	5
NMTAP	47	288	2
NMTAP	47	312	5
NMTAP	47	336	2
NMTAP	47	360	5
NMTAP	48	0	3
NMTAP	48	24	6
NMTAP	48	48	3
NMTAP	48	72	6
NMTAP	48	96	4
NMTAP	48	120	5
NMTAP	48	144	4
NMTAP	48	168	5
NMTAP	48	192	4
NMSTR	48	288	1
NMSI_	48	288	1	96	48	7
NMTAP	48	288	2
NMHLD	48	288	5	2976
NMHLD	48	288	6	2976
NMTAP	48	336	3
NMTAP	49	0	1
NMSTR	49	0	2
NMSI_	49	0	2	96	48	4
NMTTP	49	0	6	D	1	M1
NMSTR	49	96	1
NMSI_	49	96	1	96	48	7
NMTAP	49	96	2
NMTAP	49	192	1
NMSTR	49	192	2
NMSI_	49	192	2	96	48	4
NMSTR	49	288	1
NMSI_	49	288	1	96	48	7
NMTAP	49	288	2
NMTAP	50	0	1
NMSTR	50	0	2
NMSI_	50	0	2	96	48	4
NMSTR	50	96	1
NMSI_	50	96	1	96	48	7
NMTAP	50	96	2
NMTAP	50	192	1
NMTAP	50	192	2
NMTAP	50	288	2
NMSTR	51	0	1
NMSI_	51	0	1	96	48	4
NMSTR	51	96	2
NMSI_	51	96	2	96	48	7
NMSTR	51	192	1
NMSI_	51	192	1	96	48	4
NMSTR	51	288	2
NMSI_	51	288	2	96	48	7
NMSTR	52	0	1
NMSI_	52	0	1	96	48	4
NMSTR	52	96	2
NMSI_	52	96	2	96	48	7
NMTAP	52	192	1
BRTAP	52	288	0
NMHLD	53	0	2	5952
NMHLD	53	0	3	5952
NMTTP	53	0	6	D	1	M1
NMTTP	57	0	3	D	1	M1
EXTAP	57	0	7
NMTAP	57	24	6
NMTAP	57	48	5
NMTAP	57	72	6
EXTAP	57	96	7
NMTAP	57	120	6
NMTAP	57	144	5
NMTAP	57	168	6
EXTAP	57	192	7
NMTAP	57	216	6
NMTAP	57	240	5
NMTAP	57	264	6
EXTAP	57	288	7
NMTAP	57	312	6
NMTAP	57	336	5
NMTAP	57	360	6
EXTAP	58	0	0
NMTAP	58	24	6
NMTAP	58	48	4
NMTAP	58	72	6
EXTAP	58	96	0
NMTAP	58	120	6
NMTAP	58	144	4
NMTAP	58	168	6
EXSTR	58	192	0
NMSI_	58	192	0	96	48	4
EXTAP	58	240	0
EXTAP	58	288	0
NMTAP	59	0	0
NMTAP	59	48	4
NMTAP	59	96	5
NMTAP	59	144	6
NMTAP	59	192	4
NMTAP	59	192	5
NMTAP	59	240	6
NMTAP	59	264	5
NMTAP	59	288	4
NMTAP	59	336	4
NMTAP	60	0	7
NMTAP	60	48	6
NMTAP	60	96	5
NMTAP	60	144	4
NMSTR	60	192	4
NMSI_	60	192	4	96	48	6
NMSI_	60	192	4	96	48	7
NMTAP	60	288	4
NMTTP	61	0	3	D	1	M1
NMHLD	61	0	6	6816
NMHLD	61	0	7	6816
NMTTP	65	0	3	D	1	M1
NMHLD	69	0	1	96
NMHLD	69	0	4	96
NMTTP	69	0	7	D	1	M1
NMTAP	69	144	2
NMTAP	69	168	2
NMTAP	69	192	3
NMTAP	69	240	4
NMTAP	69	264	4
NMTAP	69	288	3
NMTAP	69	336	1
NMTAP	69	360	1
NMTAP	70	0	3
NMTAP	70	48	5
NMTAP	70	72	5
NMTAP	70	96	3
NMTAP	70	144	2
NMTAP	70	168	2
NMSTR	70	192	3
NMSCL	70	192	3	96	48	0
NMTAP	70	240	4
NMTAP	70	264	4
NMTAP	70	288	3
BRSTR	71	0	0
NMSI_	71	0	0	96	48	4
BRSTR	71	0	1
NMSI_	71	0	1	96	48	3
BRTAP	71	96	0
BRTAP	71	96	1
NMTAP	71	192	2
NMTAP	71	192	5
NMTAP	71	240	3
NMTAP	71	264	3
NMTAP	71	288	4
NMTAP	71	336	3
NMTAP	71	360	3
NMTAP	72	0	2
NMTAP	72	48	3
NMTAP	72	72	3
NMTAP	72	96	5
NMTAP	72	144	2
NMTAP	72	144	4
NMTAP	72	168	2
NMTAP	72	168	4
NMTAP	72	240	0
NMTAP	72	240	2
NMTAP	72	312	3
NMTAP	72	312	5
NMHLD	73	0	1	3648
NMHLD	73	0	2	3648
NMTTP	73	0	7	D	1	M1
NMTTP	77	0	7	D	1	M1
NMSTR	79	0	0
NMSV_	79	0	0	96	96	3
NMTTP	79	0	2	D	1	M1
NMSTR	79	96	3
NMSV_	79	96	3	96	96	0
NMTAP	79	192	4
NMSTR	79	240	4
NMSCR	79	240	4	96	96	7
NMSTR	79	336	7
NMSI_	79	336	7	96	96	3
NMTAP	80	48	0
NMSTR	80	96	0
NMSI_	80	96	0	96	48	4
NMSTR	80	192	0
NMSI_	80	192	0	96	48	3
NMSI_	80	192	0	96	48	5
NMSTR	81	0	6
NMSV_	81	0	6	96	96	3
NMSTR	81	96	3
NMSI_	81	96	3	96	96	7
NMTAP	81	192	0
NMSTR	81	240	0
NMSXR	81	240	0	96	144	4
NMSXR	81	240	0	96	144	5
NMHLD	82	192	5	1536
NMHLD	82	192	7	1536
NMTAP	83	0	1
NMTAP	83	0	3
NMTTP	83	0	6	D	1	M1
NMTTP	83	96	2	A	0	M1
NMTTP	83	112	3	E	0	M1
NMTTP	83	128	4	E	0	M1
NMTTP	83	144	4	A	0	M1
NMTAP	83	192	1
NMTAP	83	240	1
NMTTP	83	288	0	A	0	M1
NMTTP	83	304	0	E	0	M1
NMTTP	83	320	7	E	0	M1
NMTTP	83	336	6	A	0	M1
NMHLD	84	0	1	48
NMTTP	84	96	2	A	0	M1
NMTTP	84	112	3	E	0	M1
NMTTP	84	128	4	E	0	M1
NMTTP	84	144	4	A	0	M1
NMTAP	84	192	1
NMTAP	84	240	1
NMTTP	84	288	0	A	0	M1
NMTTP	84	304	0	E	0	M1
NMTTP	84	320	7	E	0	M1
NMTTP	84	336	6	A	0	M1
NMTAP	85	0	2
NMTAP	85	48	2
NMTAP	85	96	1
NMTAP	85	144	1
NMTAP	85	192	0
NMTTP	85	240	1	A	0	M1
NMTTP	85	256	2	E	0	M1
NMTTP	85	272	3	E	0	M1
NMTTP	85	288	3	A	0	M1
NMTAP	85	336	1
NMTAP	86	0	1
NMTAP	86	96	0
NMTAP	86	96	2
NMTAP	86	168	1
NMTAP	86	192	3
NMTAP	86	240	3
NMSTR	86	288	0
NMSCR	86	288	0	96	1152	7
NMTAP	86	288	4
NMTTP	87	0	0	C	1	M1
NMTAP	91	192	5
NMTAP	91	240	4
NMTAP	91	288	3
NMTAP	91	336	2
NMTAP	92	0	2
NMTAP	92	48	3
NMTAP	92	96	4
NMTAP	92	144	5
NMTAP	92	192	5
NMTAP	92	240	4
NMTAP	92	288	3
NMTAP	92	336	2
NMTAP	93	0	5
NMTAP	93	48	4
NMTAP	93	96	3
NMTAP	93	144	2
NMTAP	93	192	5
NMTAP	93	240	4
NMTAP	93	288	3
NMTAP	93	336	2
NMTAP	94	0	0
NMTAP	94	0	1
NMTAP	94	0	4
NMTAP	94	0	5
NMTAP	94	72	1
NMTAP	94	72	2
NMTAP	94	72	5
NMTAP	94	72	6
NMTAP	94	144	2
NMTAP	94	144	3
NMTAP	94	144	6
NMTAP	94	144	7
NMTAP	94	192	2
NMTAP	94	192	3
NMTAP	94	192	6
NMTAP	94	192	7
BRSTR	94	288	0
NMSI_	94	288	0	96	48	3
BRSTR	94	288	1
NMSI_	94	288	1	96	48	3
BRTAP	94	288	4
BRTAP	94	288	5
BRTAP	95	0	0
BRTAP	95	0	1
NMHLD	95	0	4	48
NMHLD	95	0	5	48
NMSTR	95	96	0
NMSI_	95	96	0	96	48	3
NMSTR	95	96	1
NMSI_	95	96	1	96	48	3
NMHLD	95	96	4	48
NMHLD	95	96	5	48
BRTAP	95	192	0
BRTAP	95	192	1
NMHLD	95	192	4	48
NMHLD	95	192	5	48
NMTAP	95	288	0
NMHLD	95	288	4	48
NMHLD	95	288	5	48
NMHLD	95	336	0	96
NMHLD	96	0	5	48
NMHLD	96	0	6	48
NMTAP	96	48	2
NMTAP	96	96	2
NMHLD	96	96	5	48
NMHLD	96	96	6	48
NMSTR	96	192	2
NMSI_	96	192	2	96	48	0
NMSTR	96	192	3
NMSI_	96	192	3	96	48	0
NMHLD	96	192	5	48
NMHLD	96	192	6	48
NMTAP	96	288	2
NMTAP	96	288	3
NMHLD	96	288	5	48
NMHLD	96	288	6	48
NMTAP	97	0	1
NMHLD	97	0	4	48
NMHLD	97	0	5	48
NMTAP	97	48	1
NMTAP	97	96	3
NMHLD	97	96	4	48
NMHLD	97	96	5	48
NMTAP	97	144	3
NMTAP	97	192	0
NMHLD	97	192	4	48
NMHLD	97	192	5	48
NMTAP	97	240	0
NMSTR	97	288	0
NMSI_	97	288	0	96	48	3
NMSTR	97	288	1
NMSI_	97	288	1	96	48	3
NMHLD	97	288	4	48
NMHLD	97	288	5	48
NMSTR	98	0	0
NMSI_	98	0	0	96	48	6
NMSTR	98	0	1
NMSI_	98	0	1	96	48	6
NMHLD	98	0	4	48
NMHLD	98	0	5	48
NMSTR	98	96	0
NMSI_	98	96	0	96	48	3
NMSTR	98	96	1
NMSI_	98	96	1	96	48	3
NMHLD	98	96	4	48
NMHLD	98	96	5	48
NMTAP	98	192	0
NMTAP	98	192	1
NMHLD	98	192	4	48
NMHLD	98	192	5	48
EXTAP	98	288	0
EXTAP	98	288	1
NMSTR	98	288	6
NMSI_	98	288	6	96	48	4
NMSTR	98	288	7
NMSI_	98	288	7	96	48	4
NMHLD	99	0	2	48
NMHLD	99	0	3	48
BRTAP	99	0	6
BRTAP	99	0	7
NMHLD	99	96	2	48
NMHLD	99	96	3	48
NMSTR	99	96	6
NMSI_	99	96	6	96	48	4
NMSTR	99	96	7
NMSI_	99	96	7	96	48	4
NMHLD	99	192	2	48
NMHLD	99	192	3	48
BRTAP	99	192	6
BRTAP	99	192	7
NMHLD	99	288	2	48
NMHLD	99	288	3	48
NMTAP	99	288	7
NMHLD	99	336	7	96
NMHLD	100	0	1	48
NMHLD	100	0	2	48
NMTAP	100	48	5
NMHLD	100	96	1	48
NMHLD	100	96	2	48
NMTAP	100	96	5
NMHLD	100	192	1	48
NMHLD	100	192	2	48
NMSTR	100	192	4
NMSI_	100	192	4	96	48	7
NMSTR	100	192	5
NMSI_	100	192	5	96	48	7
NMHLD	100	288	1	48
NMHLD	100	288	2	48
NMTAP	100	288	4
NMTAP	100	288	5
NMHLD	101	0	2	48
NMHLD	101	0	3	48
NMTAP	101	0	6
NMTAP	101	48	6
NMHLD	101	96	2	48
NMHLD	101	96	3	48
NMTAP	101	96	4
NMTAP	101	144	4
NMHLD	101	192	2	48
NMHLD	101	192	3	48
NMTAP	101	192	7
NMTAP	101	240	7
NMHLD	101	288	2	48
NMHLD	101	288	3	48
NMSTR	101	288	6
NMSI_	101	288	6	96	96	0
NMSTR	101	288	7
NMSI_	101	288	7	96	96	1
NMHLD	102	0	2	48
NMHLD	102	0	3	48
CNSI_	102	96	0	0	96	5
CNSI_	102	96	1	0	96	4
NMHLD	102	96	2	48
NMHLD	102	96	3	48
NMHLD	102	192	2	48
NMHLD	102	192	3	48
NMSTR	102	288	6
NMSI_	102	288	6	96	48	4
NMSTR	102	288	7
NMSI_	102	288	7	96	48	4
NMHLD	103	0	2	48
NMHLD	103	0	3	48
BRTAP	103	0	6
BRTAP	103	0	7
NMHLD	103	96	2	48
NMHLD	103	96	3	48
NMSTR	103	96	6
NMSI_	103	96	6	96	48	4
NMSTR	103	96	7
NMSI_	103	96	7	96	48	4
NMHLD	103	192	2	48
NMHLD	103	192	3	48
BRTAP	103	192	6
BRTAP	103	192	7
NMHLD	103	288	2	48
NMHLD	103	288	3	48
NMTAP	103	288	7
NMHLD	103	336	7	96
NMHLD	104	0	1	48
NMHLD	104	0	2	48
NMTAP	104	48	5
NMHLD	104	96	1	48
NMHLD	104	96	2	48
NMTAP	104	96	5
NMHLD	104	192	1	48
NMHLD	104	192	2	48
NMSTR	104	192	4
NMSI_	104	192	4	96	48	7
NMSTR	104	192	5
NMSI_	104	192	5	96	48	7
NMHLD	104	288	1	48
NMHLD	104	288	2	48
NMTAP	104	288	4
NMTAP	104	288	5
NMHLD	105	0	2	48
NMHLD	105	0	3	48
NMTAP	105	0	6
NMTAP	105	48	6
NMHLD	105	96	2	48
NMHLD	105	96	3	48
NMTAP	105	96	4
NMTAP	105	144	4
NMHLD	105	192	2	48
NMHLD	105	192	3	48
NMTAP	105	192	7
NMTAP	105	240	7
NMHLD	105	288	2	48
NMHLD	105	288	3	48
NMSTR	105	288	6
NMSI_	105	288	6	96	48	4
NMSTR	105	288	7
NMSI_	105	288	7	96	48	4
NMHLD	106	0	2	48
NMHLD	106	0	3	48
NMSTR	106	0	6
NMSI_	106	0	6	96	48	1
NMSTR	106	0	7
NMSI_	106	0	7	96	48	1
NMHLD	106	96	2	48
NMHLD	106	96	3	48
NMSTR	106	96	6
NMSI_	106	96	6	96	48	4
NMSTR	106	96	7
NMSI_	106	96	7	96	48	4
NMHLD	106	192	2	48
NMHLD	106	192	3	48
NMTAP	106	192	6
NMTAP	106	192	7
NMSTR	106	288	0
NMSI_	106	288	0	96	48	3
NMSTR	106	288	1
NMSI_	106	288	1	96	48	3
EXTAP	106	288	6
EXTAP	106	288	7
BRTAP	107	0	0
BRTAP	107	0	1
NMHLD	107	0	4	48
NMHLD	107	0	5	48
NMSTR	107	96	0
NMSI_	107	96	0	96	48	3
NMSTR	107	96	1
NMSI_	107	96	1	96	48	3
NMHLD	107	96	4	48
NMHLD	107	96	5	48
BRTAP	107	192	0
BRTAP	107	192	1
NMHLD	107	192	4	48
NMHLD	107	192	5	48
NMTAP	107	288	0
NMHLD	107	288	4	48
NMHLD	107	288	5	48
NMHLD	107	336	0	96
NMHLD	108	0	5	48
NMHLD	108	0	6	48
NMTAP	108	48	2
NMTAP	108	96	2
NMHLD	108	96	5	48
NMHLD	108	96	6	48
NMSTR	108	192	2
NMSI_	108	192	2	96	48	0
NMSTR	108	192	3
NMSI_	108	192	3	96	48	0
NMHLD	108	192	5	48
NMHLD	108	192	6	48
NMTAP	108	288	2
NMTAP	108	288	3
NMHLD	108	288	5	48
NMHLD	108	288	6	48
NMTAP	109	0	1
NMHLD	109	0	4	48
NMHLD	109	0	5	48
NMTAP	109	48	1
NMTAP	109	96	3
NMHLD	109	96	4	48
NMHLD	109	96	5	48
NMTAP	109	144	3
NMTAP	109	192	0
NMHLD	109	192	4	48
NMHLD	109	192	5	48
NMTAP	109	240	0
NMSTR	109	288	0
NMSI_	109	288	0	96	96	6
NMSTR	109	288	1
NMSI_	109	288	1	96	96	7
NMHLD	109	288	4	48
NMHLD	109	288	5	48
NMHLD	110	0	4	48
NMHLD	110	0	5	48
NMHLD	110	96	4	48
NMHLD	110	96	5	48
CNSI_	110	96	6	0	96	3
CNSI_	110	96	7	0	96	2
NMHLD	110	192	4	48
NMHLD	110	192	5	48
NMSTR	110	288	2
NMSI_	110	288	2	96	48	0
NMSTR	110	288	3
NMSI_	110	288	3	96	48	0
NMTAP	110	288	4
NMTAP	110	288	5
BRTAP	111	0	2
BRTAP	111	0	3
NMTAP	111	0	6
NMTAP	111	48	6
NMTAP	111	96	6
NMTAP	111	144	6
NMTAP	111	192	6
NMTAP	111	240	6
NMTAP	111	288	6
NMTAP	111	336	6
NMTAP	112	0	2
NMHLD	112	0	6	384
NMTAP	112	48	2
NMTAP	112	96	2
NMTAP	112	144	2
NMTAP	112	192	2
NMTAP	112	240	2
NMTAP	112	288	2
NMTAP	112	336	2
NMHLD	113	0	2	384
NMTAP	113	0	4
NMTAP	113	48	4
NMTAP	113	96	4
NMTAP	113	144	4
NMTAP	113	192	4
NMTAP	113	240	4
NMTAP	113	288	4
NMTAP	113	336	4
NMTAP	114	0	0
NMSTR	114	0	4
NMSCR	114	0	4	96	336	7
NMTAP	114	48	0
NMTAP	114	96	0
NMTAP	114	144	0
NMTAP	114	192	0
NMTAP	114	240	0
NMSTR	114	288	0
NMSCR	114	288	0	96	48	3
NMTAP	114	336	0
NMTTP	115	0	6	E	1	M1

T_REC_TAP	537
T_REC_BRK	30
T_REC_XTP	12
T_REC_BXX	6
T_REC_HLD	161
T_REC_XHO	0
T_REC_BHO	0
T_REC_BXH	0
T_REC_STR	90
T_REC_BST	4
T_REC_XST	1
T_REC_XBS	0
T_REC_TTP	39
T_REC_THO	0
T_REC_SLD	98
T_REC_BSL	1
T_REC_ALL	979
T_NUM_TAP	679
T_NUM_BRK	41
T_NUM_HLD	161
T_NUM_SLD	98
T_NUM_ALL	979
T_JUDGE_TAP	719
T_JUDGE_HLD	1787
T_JUDGE_SLD	99
T_JUDGE_ALL	2605
TTM_EACHPAIRS	176
TTM_SCR_TAP	339500
TTM_SCR_BRK	106600
TTM_SCR_HLD	161000
TTM_SCR_SLD	147000
TTM_SCR_ALL	754100
TTM_SCR_S	727500
TTM_SCR_SS	750000
TTM_RAT_ACV	10054

