VERSION	0.00.00	1.04.00
FES_MODE	1
BPM_DEF	200.000	200.000	200.000	 80.000
MET_DEF	4	4
RESOLUTION	384
CLK_DEF	384
COMPATIBLE_CODE	MA2

BPM	0	0	200.000
BPM	33	0	188.000
BPM	34	0	177.000
BPM	34	192	169.000
BPM	34	288	165.000
BPM	35	0	160.000
BPM	35	96	155.000
BPM	35	192	150.000
BPM	35	288	145.000
BPM	36	0	140.000
BPM	36	96	135.000
BPM	36	192	132.000
BPM	45	0	140.000
BPM	49	0	150.000
BPM	69	0	160.000
BPM	77	0	 80.000
BPM	79	0	170.000
BPM	83	0	180.000
BPM	87	0	200.000
MET	0	0	4	4

NMHLD	1	0	6	672
NMHLD	1	0	7	672
NMTAP	1	96	2
NMTAP	1	96	3
NMHLD	1	192	2	480
NMHLD	1	192	3	480
NMTAP	3	288	0
NMTAP	3	288	1
NMHLD	3	336	0	336
NMHLD	3	336	1	336
NMTAP	4	48	4
NMTAP	4	48	5
NMHLD	4	96	4	192
NMHLD	4	96	5	192
NMHLD	5	0	2	96
NMHLD	5	0	5	96
NMTAP	5	96	3
NMTAP	5	96	4
NMHLD	5	192	1	96
NMHLD	5	192	6	96
NMTAP	5	288	0
NMTAP	5	288	7
NMTAP	5	336	0
NMTAP	5	336	7
NMTAP	6	48	2
NMTAP	6	48	3
NMTAP	6	48	4
NMTAP	6	48	5
NMTAP	6	96	2
NMTAP	6	96	3
NMTAP	6	96	4
NMTAP	6	96	5
NMTAP	6	192	1
NMTAP	6	192	2
NMTAP	6	192	5
NMTAP	6	192	6
NMTAP	6	288	0
NMTAP	6	288	1
NMTAP	6	288	6
NMTAP	6	288	7
NMTAP	7	0	2
NMTAP	7	0	5
NMTAP	7	48	2
NMTAP	7	48	5
NMTAP	7	96	3
NMTAP	7	96	4
NMTAP	7	144	3
NMTAP	7	144	4
NMTAP	7	192	1
NMTAP	7	192	6
NMTAP	7	240	1
NMTAP	7	240	6
NMSTR	7	288	0
NMSI_	7	288	0	96	48	3
NMSTR	7	288	7
NMSI_	7	288	7	96	48	4
NMHLD	8	192	2	3072
NMHLD	8	192	3	3072
NMHLD	8	192	4	1536
NMHLD	8	192	5	1536
NMTTP	9	0	3	D	1	M1
NMSTR	12	288	7
NMSI_	12	288	7	96	48	5
NMSTR	13	0	0
NMSI_	13	0	0	96	48	4
NMTTP	13	0	3	D	1	M1
NMTAP	13	0	7
NMTAP	13	96	0
NMSTR	13	96	7
NMSI_	13	96	7	96	48	5
NMSTR	13	192	0
NMSI_	13	192	0	96	48	4
NMTAP	13	192	7
NMTAP	13	288	0
NMSTR	13	288	7
NMSI_	13	288	7	96	48	5
NMSTR	14	0	0
NMSI_	14	0	0	96	48	4
NMTAP	14	0	7
NMTAP	14	96	0
NMTAP	14	96	7
NMTAP	14	192	5
NMTAP	14	192	7
NMTAP	14	240	5
NMTAP	14	240	7
NMSTR	14	288	4
NMSI_	14	288	4	96	48	0
NMTAP	14	288	6
NMTAP	14	336	4
NMTAP	14	336	6
NMSTR	15	0	5
NMSI_	15	0	5	96	48	7
NMTAP	15	96	4
NMTAP	15	96	5
NMTAP	15	192	4
NMTAP	15	240	4
NMTAP	15	288	5
NMSTR	15	288	6
NMSCR	15	288	6	96	96	1
NMTAP	16	192	6
NMTAP	16	192	7
NMHLD	16	288	4	2976
NMHLD	16	288	5	2976
NMHLD	17	0	1	96
NMHLD	17	0	3	96
NMTTP	17	0	5	D	1	M1
NMTAP	17	144	1
NMTAP	17	144	3
NMTAP	17	240	2
NMTAP	17	336	1
NMTAP	18	48	0
NMTAP	18	96	0
NMTTP	18	192	3	B	0	M1
NMTTP	18	192	4	E	0	M1
NMTTP	18	288	0	B	0	M1
NMTTP	18	288	0	E	0	M1
NMTAP	19	0	2
NMTAP	19	48	2
NMTAP	19	96	1
NMTAP	19	144	1
NMTAP	19	192	0
NMTTP	19	240	2	E	0	M1
NMTTP	19	264	2	B	0	M1
NMTTP	19	288	3	B	0	M1
NMTTP	19	336	1	E	0	M1
NMTTP	20	0	0	E	0	M1
NMTTP	20	48	7	E	0	M1
NMTTP	20	96	6	E	0	M1
NMTTP	20	144	5	E	0	M1
NMTTP	20	192	4	E	0	M1
NMHLD	20	288	2	1440
NMHLD	20	288	3	1440
NMTTP	21	0	5	D	1	M1
NMSTR	24	288	4
NMSI_	24	288	4	96	48	6
NMSI_	24	288	4	96	48	7
NMTAP	25	0	1
BRTAP	25	0	4
NMTAP	25	48	1
NMTAP	25	96	1
NMTAP	25	144	1
NMTAP	25	192	1
NMTAP	25	240	1
NMTAP	25	288	1
NMTAP	25	336	1
NMTAP	26	0	3
NMTAP	26	48	3
NMTAP	26	96	3
NMTAP	26	144	3
NMTAP	26	192	3
NMTAP	26	240	3
NMTAP	26	288	3
NMTAP	26	336	3
NMTAP	27	0	1
NMTAP	27	0	7
NMTAP	27	32	2
NMTAP	27	48	7
NMTAP	27	64	3
NMTAP	27	96	1
NMTAP	27	96	7
NMTAP	27	128	2
NMTAP	27	144	7
NMTAP	27	160	3
NMTAP	27	192	1
NMTAP	27	192	7
NMTAP	27	224	2
NMTAP	27	240	7
NMTAP	27	256	3
NMTAP	27	288	1
NMTAP	27	288	7
NMTAP	27	320	2
NMTAP	27	336	7
NMTAP	27	352	3
NMTAP	28	0	1
NMTAP	28	0	5
NMTAP	28	32	2
NMTAP	28	48	5
NMTAP	28	64	3
NMTAP	28	96	1
NMTAP	28	96	5
NMTAP	28	128	2
NMTAP	28	144	5
NMTAP	28	160	3
NMTAP	28	192	1
NMTAP	28	192	5
NMTAP	28	224	2
NMTAP	28	240	5
NMTAP	28	256	3
NMTAP	28	288	1
NMTAP	28	288	5
NMTAP	28	320	2
NMTAP	28	352	3
NMTAP	29	0	1
NMTAP	29	0	6
NMTAP	29	32	5
NMTAP	29	48	1
NMTAP	29	64	4
NMTAP	29	96	1
NMTAP	29	96	6
NMTAP	29	128	5
NMTAP	29	144	1
NMTAP	29	160	4
NMTAP	29	192	1
NMTAP	29	192	6
NMTAP	29	224	5
NMTAP	29	240	1
NMTAP	29	256	4
NMTAP	29	288	1
NMTAP	29	288	6
NMTAP	29	320	5
NMTAP	29	336	1
NMTAP	29	352	4
NMTAP	30	0	3
NMTAP	30	0	6
NMTAP	30	32	5
NMTAP	30	48	3
NMTAP	30	64	4
NMTAP	30	96	3
NMTAP	30	96	6
NMTAP	30	128	5
NMTAP	30	144	3
NMTAP	30	160	4
NMTAP	30	192	3
NMHLD	30	192	6	96
NMTAP	30	240	3
NMTAP	30	288	3
NMTAP	30	320	5
NMTAP	30	336	3
NMTAP	30	352	4
NMTAP	31	0	1
NMTAP	31	0	7
NMTAP	31	32	2
NMTAP	31	48	7
NMTAP	31	64	3
NMTAP	31	96	1
NMTAP	31	96	7
NMTAP	31	128	2
NMTAP	31	144	7
NMTAP	31	160	3
NMTAP	31	192	1
NMTAP	31	192	7
NMTAP	31	224	2
NMTAP	31	240	7
NMTAP	31	256	3
NMTAP	31	288	1
NMTAP	31	288	7
NMTAP	31	320	2
NMTAP	31	336	7
NMTAP	31	352	3
NMTAP	32	0	1
NMTAP	32	0	5
NMTAP	32	32	2
NMTAP	32	48	5
NMTAP	32	64	3
NMTAP	32	96	1
NMTAP	32	96	5
NMTAP	32	128	2
NMTAP	32	144	5
NMTAP	32	160	3
NMTAP	32	192	1
NMTAP	32	192	3
NMTAP	32	192	5
NMTAP	32	192	7
NMTAP	32	256	1
NMTAP	32	256	3
NMTAP	32	256	5
NMTAP	32	256	7
NMTAP	32	320	0
NMTAP	32	320	2
NMTAP	32	320	4
NMTAP	32	320	6
NMTAP	33	0	0
NMSTR	33	0	2
NMSXL	33	0	2	96	1056	0
NMTAP	33	0	4
NMSTR	33	0	6
NMSXL	33	0	6	96	1056	4
NMHLD	36	288	2	1440
NMHLD	36	288	3	1440
NMHLD	36	288	6	6048
NMHLD	36	288	7	6048
NMTTP	37	0	3	D	1	M1
NMTAP	41	0	3
NMTTP	41	0	7	D	1	M1
NMTTP	41	48	2	E	0	M1
NMTAP	41	96	3
NMTTP	41	120	1	E	0	M1
NMTTP	41	168	0	A	0	M1
NMTAP	41	192	3
NMTTP	41	240	2	B	0	M1
NMTAP	41	288	3
NMTTP	41	336	1	E	0	M1
NMTAP	42	0	3
NMTTP	42	48	2	E	0	M1
NMTAP	42	96	3
NMTTP	42	120	1	E	0	M1
NMTTP	42	168	0	A	0	M1
NMTAP	42	192	3
NMTTP	42	240	2	B	0	M1
NMTAP	42	288	3
NMTTP	42	336	1	E	0	M1
NMTAP	43	0	3
NMTTP	43	48	2	E	0	M1
NMTAP	43	96	3
NMTTP	43	120	1	E	0	M1
NMTTP	43	168	0	A	0	M1
NMTAP	43	192	3
NMTTP	43	240	2	B	0	M1
NMTAP	43	288	3
NMTTP	43	336	1	E	0	M1
NMTTP	44	48	2	E	0	M1
NMTTP	44	120	1	E	0	M1
NMTTP	44	168	0	A	0	M1
NMTTP	44	240	2	B	0	M1
NMTTP	44	336	1	E	0	M1
NMHLD	45	0	0	7488
NMHLD	45	0	1	7488
NMTTP	45	0	7	D	1	M1
NMTTP	49	0	1	D	1	M1
NMTTP	53	0	1	D	1	M1
NMTTP	53	0	3	A	0	M1
NMTTP	53	0	3	D	0	M1
NMTTP	53	0	4	A	0	M1
NMTTP	53	0	4	D	0	M1
NMTTP	53	0	5	D	0	M1
NMTTP	53	96	5	A	0	M1
NMTTP	53	96	6	A	0	M1
NMTTP	53	96	6	D	0	M1
NMTTP	53	96	7	A	0	M1
NMTTP	53	96	7	D	0	M1
NMTTP	53	192	3	A	0	M1
NMTTP	53	192	3	D	0	M1
NMTTP	53	192	4	A	0	M1
NMTTP	53	192	4	D	0	M1
NMTTP	53	192	5	D	0	M1
NMTTP	53	288	5	A	0	M1
NMTTP	53	288	6	A	0	M1
NMTTP	53	288	6	D	0	M1
NMTTP	53	288	7	A	0	M1
NMTTP	53	288	7	D	0	M1
NMTTP	54	0	3	A	0	M1
NMTTP	54	0	3	D	0	M1
NMTTP	54	0	4	A	0	M1
NMTTP	54	0	4	D	0	M1
NMTTP	54	0	5	D	0	M1
NMTTP	54	96	5	A	0	M1
NMTTP	54	96	6	A	0	M1
NMTTP	54	96	6	D	0	M1
NMTTP	54	96	7	A	0	M1
NMTTP	54	96	7	D	0	M1
NMTTP	54	192	3	B	0	M1
NMTTP	54	192	3	E	0	M1
NMTTP	54	192	3	A	0	M1
NMTTP	54	240	4	B	0	M1
NMTTP	54	240	4	E	0	M1
NMTTP	54	240	4	A	0	M1
NMTTP	54	288	5	B	0	M1
NMTTP	54	288	5	E	0	M1
NMTTP	54	288	5	A	0	M1
NMTTP	54	336	6	B	0	M1
NMTTP	54	336	6	E	0	M1
NMTTP	54	336	6	A	0	M1
NMTTP	55	0	7	B	0	M1
NMTTP	55	0	7	E	0	M1
NMTTP	55	0	7	A	0	M1
NMTTP	55	96	3	A	0	M1
NMTTP	55	96	3	D	0	M1
NMTTP	55	96	4	A	0	M1
NMTTP	55	96	4	D	0	M1
NMTTP	55	96	5	D	0	M1
NMTTP	55	192	5	A	0	M1
NMTTP	55	192	6	A	0	M1
NMTTP	55	192	6	D	0	M1
NMTTP	55	192	7	A	0	M1
NMTTP	55	192	7	D	0	M1
NMTTP	55	288	3	A	0	M1
NMTTP	55	288	3	D	0	M1
NMTTP	55	288	4	A	0	M1
NMTTP	55	288	4	D	0	M1
NMTTP	55	288	5	D	0	M1
NMTTP	56	0	7	B	0	M1
NMTTP	56	0	7	E	0	M1
NMTTP	56	0	7	A	0	M1
NMTTP	56	48	6	B	0	M1
NMTTP	56	48	6	E	0	M1
NMTTP	56	48	6	A	0	M1
NMTTP	56	96	5	B	0	M1
NMTTP	56	96	5	E	0	M1
NMTTP	56	96	5	A	0	M1
NMTTP	56	192	3	B	0	M1
NMTTP	56	192	3	E	0	M1
NMTTP	56	192	3	A	0	M1
NMTTP	56	240	4	B	0	M1
NMTTP	56	240	4	E	0	M1
NMTTP	56	240	4	A	0	M1
NMTTP	56	288	5	B	0	M1
NMTTP	56	288	5	E	0	M1
NMTTP	56	288	5	A	0	M1
NMTTP	57	0	1	D	1	M1
NMHLD	57	0	6	672
NMHLD	57	0	7	672
NMTTP	59	0	3	A	0	M1
NMTTP	59	0	3	D	0	M1
NMTTP	59	0	4	A	0	M1
NMTTP	59	0	4	D	0	M1
NMTTP	59	0	5	D	0	M1
NMTTP	59	96	5	A	0	M1
NMTTP	59	96	6	A	0	M1
NMTTP	59	96	6	D	0	M1
NMTTP	59	96	7	A	0	M1
NMTTP	59	96	7	D	0	M1
NMTTP	59	192	3	A	0	M1
NMTTP	59	192	3	D	0	M1
NMTTP	59	192	4	A	0	M1
NMTTP	59	192	4	D	0	M1
NMTTP	59	192	5	D	0	M1
NMTTP	59	288	5	A	0	M1
NMTTP	59	288	6	A	0	M1
NMTTP	59	288	6	D	0	M1
NMTTP	59	288	7	A	0	M1
NMTTP	59	288	7	D	0	M1
NMTTP	60	0	3	A	0	M1
NMTTP	60	0	3	D	0	M1
NMTTP	60	0	4	A	0	M1
NMTTP	60	0	4	D	0	M1
NMTTP	60	0	5	D	0	M1
NMTTP	60	96	5	A	0	M1
NMTTP	60	96	6	A	0	M1
NMTTP	60	96	6	D	0	M1
NMTTP	60	96	7	A	0	M1
NMTTP	60	96	7	D	0	M1
NMTTP	60	192	3	A	0	M1
NMTTP	60	192	3	D	0	M1
NMTTP	60	192	4	A	0	M1
NMTTP	60	192	4	D	0	M1
NMTTP	60	192	5	D	0	M1
NMTTP	61	0	1	D	1	M1
NMTAP	61	0	6
NMTAP	61	16	5
NMTAP	61	32	6
NMTAP	61	48	5
NMTAP	61	64	6
NMTAP	61	80	5
NMSTR	61	96	6
NMSI_	61	96	6	96	48	3
NMTAP	61	112	5
NMTAP	61	128	6
NMTAP	61	144	5
NMTAP	61	160	6
NMTAP	61	176	5
NMTAP	61	192	6
NMTAP	62	0	2
NMTAP	62	16	3
NMTAP	62	32	2
NMTAP	62	48	3
NMTAP	62	64	2
NMTAP	62	80	3
NMSTR	62	96	2
NMSI_	62	96	2	96	48	7
NMTAP	62	112	3
NMTAP	62	128	2
NMTAP	62	144	3
NMTAP	62	160	2
NMTAP	62	176	3
NMTAP	62	192	2
NMTAP	63	0	6
NMTAP	63	16	7
NMTAP	63	32	6
NMTAP	63	48	7
NMTAP	63	64	6
NMTAP	63	80	7
NMSTR	63	96	6
NMSI_	63	96	6	96	48	2
NMTAP	63	112	7
NMTAP	63	128	6
NMTAP	63	144	7
NMTAP	63	160	6
NMTAP	63	176	7
NMTAP	63	192	6
NMTAP	63	288	2
NMTAP	63	304	3
NMTAP	63	320	4
NMTAP	63	336	5
NMTAP	63	352	6
NMTAP	63	368	7
NMTAP	64	0	3
NMTAP	64	96	2
NMTAP	64	96	4
NMTAP	64	192	6
NMTAP	64	192	7
NMHLD	64	288	4	2976
NMHLD	64	288	5	2976
NMSTR	65	0	3
NMSCL	65	0	3	96	48	0
NMTTP	65	0	5	D	1	M1
NMSTR	65	192	2
NMSI_	65	192	2	96	48	7
NMTAP	65	192	3
NMSTR	66	0	1
NMSCL	66	0	1	96	48	6
NMTAP	66	0	2
NMSTR	66	192	0
BRSI_	66	192	0	96	48	2
BRSI_	66	192	0	96	48	3
NMTAP	66	192	1
NMTAP	67	0	2
NMSTR	67	0	3
NMSCL	67	0	3	96	48	0
NMSTR	67	192	2
NMSI_	67	192	2	96	48	7
NMTAP	67	192	3
NMTAP	67	288	3
NMSTR	68	0	3
NMSLL	68	0	3	96	96	7
NMSTR	68	96	7
NMSLR	68	96	7	96	96	3
NMHLD	69	0	2	2880
NMHLD	69	0	3	2880
NMTTP	69	0	5	D	1	M1
NMTTP	73	0	3	D	1	M1
EXTAP	73	0	4
NMTAP	73	24	5
NMTAP	73	48	5
EXTAP	73	72	6
NMTAP	73	96	5
NMTAP	73	120	5
EXTAP	73	144	4
NMTAP	73	168	5
EXTAP	73	192	4
EXTAP	73	216	6
NMTAP	73	240	5
EXTAP	73	264	6
NMTAP	73	288	5
NMTAP	73	312	5
EXTAP	73	336	4
NMTAP	73	360	5
EXTAP	74	0	4
NMTAP	74	24	5
NMTAP	74	48	5
EXTAP	74	72	6
NMTAP	74	96	5
NMTAP	74	120	5
EXTAP	74	144	4
NMTAP	74	168	5
EXTAP	74	192	4
EXTAP	74	216	6
NMTAP	74	240	5
EXTAP	74	264	6
NMTAP	74	288	5
NMTAP	74	312	5
EXTAP	74	336	4
NMTAP	74	360	5
EXTAP	75	0	4
NMTAP	75	24	5
NMTAP	75	48	5
EXTAP	75	72	6
NMTAP	75	96	5
NMTAP	75	120	5
EXTAP	75	144	4
NMTAP	75	168	5
EXTAP	75	192	4
EXTAP	75	216	6
NMTAP	75	240	5
EXTAP	75	264	6
NMTAP	75	288	5
NMTAP	75	312	5
EXTAP	75	336	4
NMTAP	75	360	5
EXTAP	76	0	4
NMTAP	76	24	5
NMTAP	76	48	5
EXTAP	76	72	6
NMTAP	76	96	5
NMTAP	76	120	5
EXTAP	76	144	4
NMTAP	76	168	5
EXTAP	76	192	4
EXTAP	76	216	6
NMTAP	76	240	5
EXTAP	76	264	6
NMHLD	76	288	4	3744
NMHLD	76	288	5	3744
NMSTR	77	0	2
NMSCL	77	0	2	96	288	6
NMTTP	77	0	5	D	1	M1
NMTAP	77	48	2
NMTAP	77	96	3
NMTAP	77	128	3
NMTAP	77	176	2
NMTAP	77	224	3
NMTAP	77	240	2
NMTAP	77	256	1
NMTAP	77	272	3
NMTAP	77	288	2
NMTAP	77	320	2
NMTAP	78	0	3
CNSCR	78	0	6	0	192	1
NMTAP	78	32	3
NMTAP	78	48	2
NMTAP	78	80	2
NMTAP	78	96	3
NMTAP	78	128	3
NMTAP	78	160	3
NMHLD	78	192	3	48
NMTAP	78	288	2
NMTAP	78	288	3
BRTAP	78	336	1
NMHLD	79	0	1	2880
NMHLD	79	0	2	2880
NMTTP	79	0	5	D	1	M1
NMTTP	83	0	5	D	1	M1
NMSTR	86	288	7
NMSCL	86	288	7	96	1152	0
NMTAP	91	0	5
NMTAP	91	48	4
NMTAP	91	96	3
NMTAP	91	144	2
NMTAP	92	192	2
NMTAP	92	240	3
NMTAP	92	288	4
NMTAP	92	336	5
NMTAP	93	0	5
NMTAP	93	48	4
NMTAP	93	96	3
NMTAP	93	144	2
NMTAP	93	192	5
NMTAP	93	240	4
NMTAP	93	288	3
NMTAP	93	336	2
NMTAP	94	0	2
NMTAP	94	0	3
NMTAP	94	0	6
NMTAP	94	0	7
NMTAP	94	72	1
NMTAP	94	72	2
NMTAP	94	72	5
NMTAP	94	72	6
NMTAP	94	144	0
NMTAP	94	144	1
NMTAP	94	144	4
NMTAP	94	144	5
NMTAP	94	192	0
NMTAP	94	192	1
NMTAP	94	192	4
NMTAP	94	192	5
BRTAP	94	288	2
BRTAP	94	288	3
BRSTR	94	288	6
NMSI_	94	288	6	96	48	4
BRSTR	94	288	7
NMSI_	94	288	7	96	48	4
NMHLD	95	0	2	48
NMHLD	95	0	3	48
BRTAP	95	0	6
BRTAP	95	0	7
NMHLD	95	96	2	48
NMHLD	95	96	3	48
NMSTR	95	96	6
NMSI_	95	96	6	96	48	4
NMSTR	95	96	7
NMSI_	95	96	7	96	48	4
NMHLD	95	192	2	48
NMHLD	95	192	3	48
BRTAP	95	192	6
BRTAP	95	192	7
NMHLD	95	288	2	48
NMHLD	95	288	3	48
NMTAP	95	288	7
NMHLD	95	336	7	96
NMHLD	96	0	1	48
NMHLD	96	0	2	48
NMTAP	96	48	5
NMHLD	96	96	1	48
NMHLD	96	96	2	48
NMTAP	96	96	5
NMHLD	96	192	1	48
NMHLD	96	192	2	48
NMSTR	96	192	4
NMSI_	96	192	4	96	48	7
NMSTR	96	192	5
NMSI_	96	192	5	96	48	7
NMHLD	96	288	1	48
NMHLD	96	288	2	48
NMTAP	96	288	4
NMTAP	96	288	5
NMHLD	97	0	2	48
NMHLD	97	0	3	48
NMTAP	97	0	6
NMTAP	97	48	6
NMHLD	97	96	2	48
NMHLD	97	96	3	48
NMTAP	97	96	4
NMTAP	97	144	4
NMHLD	97	192	2	48
NMHLD	97	192	3	48
NMTAP	97	192	7
NMTAP	97	240	7
NMHLD	97	288	2	48
NMHLD	97	288	3	48
NMSTR	97	288	6
NMSI_	97	288	6	96	48	4
NMSTR	97	288	7
NMSI_	97	288	7	96	48	4
NMHLD	98	0	2	48
NMHLD	98	0	3	48
NMSTR	98	0	6
NMSI_	98	0	6	96	48	1
NMSTR	98	0	7
NMSI_	98	0	7	96	48	1
NMHLD	98	96	2	48
NMHLD	98	96	3	48
NMSTR	98	96	6
NMSI_	98	96	6	96	48	4
NMSTR	98	96	7
NMSI_	98	96	7	96	48	4
NMHLD	98	192	2	48
NMHLD	98	192	3	48
NMTAP	98	192	6
NMTAP	98	192	7
NMSTR	98	288	0
NMSI_	98	288	0	96	48	3
NMSTR	98	288	1
NMSI_	98	288	1	96	48	3
EXTAP	98	288	6
EXTAP	98	288	7
BRTAP	99	0	0
BRTAP	99	0	1
NMHLD	99	0	4	48
NMHLD	99	0	5	48
NMSTR	99	96	0
NMSI_	99	96	0	96	48	3
NMSTR	99	96	1
NMSI_	99	96	1	96	48	3
NMHLD	99	96	4	48
NMHLD	99	96	5	48
BRTAP	99	192	0
BRTAP	99	192	1
NMHLD	99	192	4	48
NMHLD	99	192	5	48
NMTAP	99	288	0
NMHLD	99	288	4	48
NMHLD	99	288	5	48
NMHLD	99	336	0	96
NMHLD	100	0	5	48
NMHLD	100	0	6	48
NMTAP	100	48	2
NMTAP	100	96	2
NMHLD	100	96	5	48
NMHLD	100	96	6	48
NMSTR	100	192	2
NMSI_	100	192	2	96	48	0
NMSTR	100	192	3
NMSI_	100	192	3	96	48	0
NMHLD	100	192	5	48
NMHLD	100	192	6	48
NMTAP	100	288	2
NMTAP	100	288	3
NMHLD	100	288	5	48
NMHLD	100	288	6	48
NMTAP	101	0	1
NMHLD	101	0	4	48
NMHLD	101	0	5	48
NMTAP	101	48	1
NMTAP	101	96	3
NMHLD	101	96	4	48
NMHLD	101	96	5	48
NMTAP	101	144	3
NMTAP	101	192	0
NMHLD	101	192	4	48
NMHLD	101	192	5	48
NMTAP	101	240	0
NMSTR	101	288	0
NMSI_	101	288	0	96	96	6
NMSTR	101	288	1
NMSI_	101	288	1	96	96	7
NMHLD	101	288	4	48
NMHLD	101	288	5	48
NMHLD	102	0	4	48
NMHLD	102	0	5	48
NMHLD	102	96	4	48
NMHLD	102	96	5	48
CNSI_	102	96	6	0	96	3
CNSI_	102	96	7	0	96	2
NMHLD	102	192	4	48
NMHLD	102	192	5	48
NMSTR	102	288	0
NMSI_	102	288	0	96	48	3
NMSTR	102	288	1
NMSI_	102	288	1	96	48	3
BRTAP	103	0	0
BRTAP	103	0	1
NMHLD	103	0	4	48
NMHLD	103	0	5	48
NMSTR	103	96	0
NMSI_	103	96	0	96	48	3
NMSTR	103	96	1
NMSI_	103	96	1	96	48	3
NMHLD	103	96	4	48
NMHLD	103	96	5	48
BRTAP	103	192	0
BRTAP	103	192	1
NMHLD	103	192	4	48
NMHLD	103	192	5	48
NMTAP	103	288	0
NMHLD	103	288	4	48
NMHLD	103	288	5	48
NMHLD	103	336	0	96
NMHLD	104	0	5	48
NMHLD	104	0	6	48
NMTAP	104	48	2
NMTAP	104	96	2
NMHLD	104	96	5	48
NMHLD	104	96	6	48
NMSTR	104	192	2
NMSI_	104	192	2	96	48	0
NMSTR	104	192	3
NMSI_	104	192	3	96	48	0
NMHLD	104	192	5	48
NMHLD	104	192	6	48
NMTAP	104	288	2
NMTAP	104	288	3
NMHLD	104	288	5	48
NMHLD	104	288	6	48
NMTAP	105	0	1
NMHLD	105	0	4	48
NMHLD	105	0	5	48
NMTAP	105	48	1
NMTAP	105	96	3
NMHLD	105	96	4	48
NMHLD	105	96	5	48
NMTAP	105	144	3
NMTAP	105	192	0
NMHLD	105	192	4	48
NMHLD	105	192	5	48
NMTAP	105	240	0
NMSTR	105	288	0
NMSI_	105	288	0	96	48	3
NMSTR	105	288	1
NMSI_	105	288	1	96	48	3
NMHLD	105	288	4	48
NMHLD	105	288	5	48
NMSTR	106	0	0
NMSI_	106	0	0	96	48	6
NMSTR	106	0	1
NMSI_	106	0	1	96	48	6
NMHLD	106	0	4	48
NMHLD	106	0	5	48
NMSTR	106	96	0
NMSI_	106	96	0	96	48	3
NMSTR	106	96	1
NMSI_	106	96	1	96	48	3
NMHLD	106	96	4	48
NMHLD	106	96	5	48
NMTAP	106	192	0
NMTAP	106	192	1
NMHLD	106	192	4	48
NMHLD	106	192	5	48
EXTAP	106	288	0
EXTAP	106	288	1
NMSTR	106	288	6
NMSI_	106	288	6	96	48	4
NMSTR	106	288	7
NMSI_	106	288	7	96	48	4
NMHLD	107	0	2	48
NMHLD	107	0	3	48
BRTAP	107	0	6
BRTAP	107	0	7
NMHLD	107	96	2	48
NMHLD	107	96	3	48
NMSTR	107	96	6
NMSI_	107	96	6	96	48	4
NMSTR	107	96	7
NMSI_	107	96	7	96	48	4
NMHLD	107	192	2	48
NMHLD	107	192	3	48
BRTAP	107	192	6
BRTAP	107	192	7
NMHLD	107	288	2	48
NMHLD	107	288	3	48
NMTAP	107	288	7
NMHLD	107	336	7	96
NMHLD	108	0	1	48
NMHLD	108	0	2	48
NMTAP	108	48	5
NMHLD	108	96	1	48
NMHLD	108	96	2	48
NMTAP	108	96	5
NMHLD	108	192	1	48
NMHLD	108	192	2	48
NMSTR	108	192	4
NMSI_	108	192	4	96	48	7
NMSTR	108	192	5
NMSI_	108	192	5	96	48	7
NMHLD	108	288	1	48
NMHLD	108	288	2	48
NMTAP	108	288	4
NMTAP	108	288	5
NMHLD	109	0	2	48
NMHLD	109	0	3	48
NMTAP	109	0	6
NMTAP	109	48	6
NMHLD	109	96	2	48
NMHLD	109	96	3	48
NMTAP	109	96	4
NMTAP	109	144	4
NMHLD	109	192	2	48
NMHLD	109	192	3	48
NMTAP	109	192	7
NMTAP	109	240	7
NMHLD	109	288	2	48
NMHLD	109	288	3	48
NMSTR	109	288	6
NMSI_	109	288	6	96	96	0
NMSTR	109	288	7
NMSI_	109	288	7	96	96	1
NMHLD	110	0	2	48
NMHLD	110	0	3	48
CNSI_	110	96	0	0	96	5
CNSI_	110	96	1	0	96	4
NMHLD	110	96	2	48
NMHLD	110	96	3	48
NMHLD	110	192	2	48
NMHLD	110	192	3	48
NMTAP	110	288	2
NMTAP	110	288	3
NMSTR	110	288	4
NMSI_	110	288	4	96	48	7
NMSTR	110	288	5
NMSI_	110	288	5	96	48	7
NMTAP	111	0	1
BRTAP	111	0	4
BRTAP	111	0	5
NMTAP	111	48	1
NMTAP	111	96	1
NMTAP	111	144	1
NMTAP	111	192	1
NMTAP	111	240	1
NMTAP	111	288	1
NMTAP	111	336	1
NMHLD	112	0	1	384
NMTAP	112	0	5
NMTAP	112	48	5
NMTAP	112	96	5
NMTAP	112	144	5
NMTAP	112	192	5
NMTAP	112	240	5
NMTAP	112	288	5
NMTAP	112	336	5
NMTAP	113	0	3
NMHLD	113	0	5	384
NMTAP	113	48	3
NMTAP	113	96	3
NMTAP	113	144	3
NMTAP	113	192	3
NMTAP	113	240	3
NMTAP	113	288	3
NMTAP	113	336	3
NMSTR	114	0	3
NMSCL	114	0	3	96	336	0
NMTAP	114	0	7
NMTAP	114	48	7
NMTAP	114	96	7
NMTAP	114	144	7
NMTAP	114	192	7
NMTAP	114	240	7
NMSTR	114	288	7
NMSCL	114	288	7	96	48	4
NMTAP	114	336	7
NMTTP	115	0	2	E	1	M1

T_REC_TAP	437
T_REC_BRK	22
T_REC_XTP	31
T_REC_BXX	0
T_REC_HLD	166
T_REC_XHO	0
T_REC_BHO	0
T_REC_BXH	0
T_REC_STR	69
T_REC_BST	2
T_REC_XST	0
T_REC_XBS	0
T_REC_TTP	164
T_REC_THO	0
T_REC_SLD	71
T_REC_BSL	2
T_REC_ALL	964
T_NUM_TAP	701
T_NUM_BRK	26
T_NUM_HLD	166
T_NUM_SLD	71
T_NUM_ALL	964
T_JUDGE_TAP	725
T_JUDGE_HLD	1810
T_JUDGE_SLD	73
T_JUDGE_ALL	2608
TTM_EACHPAIRS	155
TTM_SCR_TAP	350500
TTM_SCR_BRK	67600
TTM_SCR_HLD	166000
TTM_SCR_SLD	106500
TTM_SCR_ALL	690600
TTM_SCR_S	667400
TTM_SCR_SS	688000
TTM_RAT_ACV	10037

