VERSION	0.00.00	1.04.00
FES_MODE	1
BPM_DEF	170.000	170.000	170.000	170.000
MET_DEF	4	4
RESOLUTION	384
CLK_DEF	384
COMPATIBLE_CODE	MA2

BPM	0	0	170.000
MET	0	0	4	4
MET	68	0	4	2
MET	68	192	4	4

NMSXR	2	0	3	96	480	0
NMSTR	2	0	4
NMSTR	4	0	3
NMSXL	4	0	4	96	480	7
NMSTR	6	0	0
NMSXR	6	0	7	96	480	4
BRSXL	8	0	0	96	480	3
BRSTR	8	0	7
NMSTR	10	0	0
NMSI_	10	0	7	96	96	4
NMSI_	11	0	3	96	96	0
NMSTR	11	0	4
NMSTR	12	0	0
NMSI_	12	0	7	96	96	4
NMSI_	13	0	3	96	96	0
NMSTR	13	0	4
NMSTR	14	0	0
NMSI_	14	0	7	96	96	3
NMSTR	15	0	2
NMSI_	15	0	3	96	96	7
NMSTR	16	0	6
NMSI_	16	0	7	96	96	3
NMSI_	17	0	3	96	96	7
NMSTR	17	0	4
NMSCR	18	0	0	96	144	3
NMSTR	18	0	1
NMSTR	18	0	6
NMSCL	18	0	7	96	144	4
NMSI_	19	0	1	96	96	6
NMSTR	19	0	2
CNSI_	19	192	6	0	96	3
CNSI_	19	288	3	0	96	0
NMSI_	20	0	5	96	96	2
NMSTR	20	0	6
CNSI_	20	192	2	0	96	7
CNSI_	20	288	7	0	96	4
NMSTR	21	0	0
NMSI_	21	0	1	96	96	4
CNSI_	21	192	4	0	96	7
CNSI_	21	288	7	0	96	2
NMSTR	22	0	4
NMSI_	22	0	5	96	96	0
CNSI_	22	192	0	0	96	3
CNSI_	22	288	3	0	96	6
BRSCL	23	0	2	96	96	7
BRSTR	23	0	3
CNSI_	23	192	7	0	96	3
CNSI_	23	288	3	0	96	1
BRSTR	24	0	4
BRSCR	24	0	5	96	96	0
CNSI_	24	192	0	0	96	4
CNSI_	24	288	4	0	96	6
NMSI_	25	0	2	96	144	7
NMSTR	25	0	3
NMSI_	25	0	4	96	144	7
NMSI_	26	0	3	96	144	0
NMSTR	26	0	4
NMSI_	26	0	5	96	144	0
NMSI_	27	0	2	96	96	0
NMSTR	27	0	3
NMSTR	27	192	3
NMSI_	27	192	4	96	96	6
NMSI_	28	0	2	96	96	0
NMSTR	28	0	3
NMSTR	28	192	4
NMSI_	28	192	5	96	96	7
NMSI_	29	0	3	96	96	1
NMSTR	29	0	4
NMSTR	29	192	4
NMSI_	29	192	5	96	96	7
NMSI_	30	0	3	96	96	0
NMSTR	30	0	4
NMSTR	30	192	4
NMSI_	30	192	5	96	96	7
NMSTR	31	0	0
NMSI_	31	0	1	96	96	4
NMSTR	31	192	0
NMSI_	31	192	7	96	96	4
NMSTR	32	0	0
NMSI_	32	0	1	96	96	4
NMSTR	32	192	0
NMSI_	32	192	7	96	96	4
NMSCL	33	0	2	96	96	7
NMSTR	33	0	3
NMSTR	33	192	3
NMSCR	33	192	4	96	96	7
NMSCL	34	0	2	96	96	7
NMSTR	34	0	3
NMSTR	34	192	3
NMSCR	34	192	4	96	96	7
BRSLL	35	0	1	96	192	4
BRSTR	35	0	2
BRSTR	36	0	5
BRSLR	36	0	6	96	192	3
BRSI_	37	0	2	96	96	0
BRSTR	37	0	3
BRSI_	37	0	4	96	96	6
CNSI_	37	192	0	0	192	5
CNSI_	37	192	6	0	192	1
NMSCL	38	192	1	96	96	7
NMSTR	38	192	2
NMSCL	39	0	5	96	96	3
NMSTR	39	0	6
NMSCL	39	192	1	96	96	7
NMSTR	39	192	2
NMSCL	40	0	5	96	96	3
NMSTR	40	0	6
NMSCL	40	192	1	96	96	7
NMSTR	40	192	2
NMSCL	41	0	5	96	96	3
NMSTR	41	0	6
NMSI_	41	192	0	96	96	6
NMSTR	41	192	1
CNSI_	42	0	6	0	96	1
CNSI_	42	96	1	0	96	5
CNSI_	42	192	5	0	96	2
NMSI_	43	0	0	96	96	3
NMSTR	43	0	1
NMSTR	43	0	6
NMSI_	43	0	7	96	96	4
NMSCL	43	288	2	96	192	5
NMSTR	43	288	3
NMSTR	44	96	4
NMSCR	44	96	5	96	192	2
NMSCL	44	288	2	96	192	5
NMSTR	44	288	3
NMSTR	45	96	4
NMSCR	45	96	5	96	192	2
NMSCL	45	288	2	96	192	5
NMSTR	45	288	3
NMSTR	46	96	4
NMSCR	46	96	5	96	192	2
NMSUR	46	288	2	96	240	4
NMSTR	46	288	3
NMSCL	47	288	6	96	192	1
NMSTR	47	288	7
NMSTR	48	96	0
NMSCR	48	96	1	96	192	6
NMSCL	48	288	6	96	192	1
NMSTR	48	288	7
NMSTR	49	96	0
NMSCR	49	96	1	96	192	6
NMSCL	49	288	6	96	192	1
NMSTR	49	288	7
NMSTR	50	96	0
NMSCR	50	96	1	96	192	6
NMSUR	50	288	6	96	240	0
NMSTR	50	288	7
NMSTR	52	0	0
NMSTR	52	0	1
NMSI_	52	0	2	96	48	4
NMSI_	52	0	7	96	48	5
NMSI_	52	192	0	96	48	2
NMSI_	52	192	5	96	48	3
NMSTR	52	192	6
NMSTR	52	192	7
NMSTR	53	0	0
NMSTR	53	0	1
NMSI_	53	0	2	96	48	4
NMSI_	53	0	7	96	48	5
NMSI_	53	192	0	96	48	2
NMSI_	53	192	5	96	48	3
NMSTR	53	192	6
NMSTR	53	192	7
NMSTR	54	0	0
NMSTR	54	0	1
NMSI_	54	0	2	96	48	4
NMSI_	54	0	7	96	48	5
NMSI_	54	192	0	96	48	2
NMSI_	54	192	5	96	48	3
NMSTR	54	192	6
NMSTR	54	192	7
NMSTR	55	0	0
NMSTR	55	0	1
NMSI_	55	0	2	96	48	4
NMSI_	55	0	7	96	48	5
NMSI_	55	192	0	96	48	2
NMSI_	55	192	5	96	48	3
NMSTR	55	192	6
NMSTR	55	192	7
NMSTR	56	0	0
NMSTR	56	0	1
NMSI_	56	0	2	96	48	5
NMSI_	56	0	7	96	48	4
NMSI_	56	192	0	96	48	3
NMSI_	56	192	5	96	48	2
NMSTR	56	192	6
NMSTR	56	192	7
NMSTR	57	0	0
NMSTR	57	0	1
NMSI_	57	0	2	96	48	5
NMSI_	57	0	7	96	48	4
NMSI_	57	192	0	96	48	3
NMSI_	57	192	5	96	48	2
NMSTR	57	192	6
NMSTR	57	192	7
BRSXR	58	0	6	96	192	3
BRSTR	58	0	7
CNSXR	58	288	3	0	288	0
NMSTR	60	0	0
NMSCR	60	0	1	96	96	4
NMSTR	60	96	3
NMSCR	60	96	4	96	96	7
NMSCL	61	0	6	96	96	3
NMSTR	61	0	7
NMSCL	61	96	3	96	96	0
NMSTR	61	96	4
NMSTR	62	0	0
NMSCR	62	0	1	96	96	4
NMSTR	62	96	3
NMSCR	62	96	4	96	96	7
NMSCL	63	0	6	96	96	3
NMSTR	63	0	7
NMSCL	63	96	3	96	96	0
NMSTR	63	96	4
BRSTR	64	0	0
BRSCR	64	0	1	96	96	4
BRSTR	64	96	3
BRSCR	64	96	4	96	96	7
BRSTR	65	0	0
BRSCL	65	0	7	96	96	4
BRSCL	65	96	4	96	96	1
BRSTR	65	96	5
BRSTR	66	0	0
BRSCR	66	0	1	96	96	4
BRSTR	66	96	3
BRSCR	66	96	4	96	96	7
BRSUR	67	0	6	96	192	3
BRSTR	67	0	7
CNSUR	67	288	3	0	192	0
BRSTR	68	192	0
BRSI_	68	192	1	96	96	6
BRSI_	68	192	7	96	96	2
CNSI_	69	0	2	0	96	4
CNSI_	69	0	6	0	96	4
BRSI_	69	192	2	96	96	5
BRSTR	69	192	3
BRSI_	69	192	4	96	96	1
CNSI_	70	0	1	0	96	7
CNSI_	70	0	5	0	96	7
BRSTR	70	192	0
BRSI_	70	192	1	96	144	6
BRSI_	70	192	7	96	144	2
CNSI_	71	48	2	0	144	5
CNSI_	71	48	6	0	144	3
NMSTR	72	96	4
NMSI_	72	96	5	96	96	0
NMSI_	72	288	2	96	96	7
NMSTR	72	288	3
NMSTR	73	96	4
NMSI_	73	96	5	96	96	0
NMSI_	73	288	2	96	96	7
NMSTR	73	288	3
NMSTR	74	96	4
NMSI_	74	96	5	96	96	0
NMSI_	74	288	2	96	96	4
NMSTR	74	288	3
CNSI_	75	96	4	0	96	1
CNSI_	75	192	1	0	96	5
CNSI_	75	288	5	0	96	0
CNSI_	76	0	0	0	96	6
NMSI_	77	192	2	96	144	0
NMSTR	77	192	3
CNSI_	78	48	0	0	144	6
CNSI_	78	192	6	0	192	4
BRSTR	79	192	3
BRSI_	79	192	4	96	96	6
CNSI_	80	0	6	0	96	2
CNSI_	80	96	2	0	96	0
NMSLL	81	96	2	96	192	5
NMSTR	81	96	3
NMSTR	81	288	4
NMSLR	81	288	5	96	192	2
NMSLL	82	96	2	96	192	5
NMSTR	82	96	3
NMSTR	82	288	4
NMSLR	82	288	5	96	192	2
BRSI_	83	96	2	96	96	0
BRSTR	83	96	3
CNSI_	83	288	0	0	96	3
CNSI_	84	0	3	0	96	7
CNSI_	84	96	7	0	96	4
CNSI_	84	192	4	0	96	6
NMSCL	85	96	2	96	192	4
NMSTR	85	96	3
NMSTR	85	288	3
NMSCR	85	288	4	96	192	2
NMSCL	86	96	2	96	192	4
NMSTR	86	96	3
NMSTR	86	288	3
NMSCR	86	288	4	96	192	2
NMSCL	87	96	2	96	192	4
NMSTR	87	96	3
NMSTR	87	288	3
NMSCR	87	288	4	96	192	2
NMSUR	88	96	2	96	192	5
NMSTR	88	96	3
NMSCL	89	96	6	96	192	0
NMSTR	89	96	7
NMSCR	89	288	0	96	192	6
NMSTR	89	288	7
NMSCL	90	96	6	96	192	0
NMSTR	90	96	7
NMSCR	90	288	0	96	192	6
NMSTR	90	288	7
NMSCL	91	96	6	96	192	0
NMSTR	91	96	7
NMSCR	91	288	0	96	192	6
NMSTR	91	288	7
NMSUR	92	96	6	96	240	0
NMSTR	92	96	7
NMSI_	93	192	1	96	48	7
NMSTR	93	192	2
NMSTR	93	192	3
NMSI_	93	192	4	96	48	6
NMSI_	94	0	3	96	48	1
NMSTR	94	0	4
NMSTR	94	0	5
NMSI_	94	0	6	96	48	0
NMSI_	94	192	1	96	48	7
NMSTR	94	192	2
NMSTR	94	192	3
NMSI_	94	192	4	96	48	6
NMSI_	95	0	3	96	48	1
NMSTR	95	0	4
NMSTR	95	0	5
NMSI_	95	0	6	96	48	0
NMSI_	95	192	1	96	48	7
NMSTR	95	192	2
NMSTR	95	192	3
NMSI_	95	192	4	96	48	6
NMSI_	96	0	3	96	48	1
NMSTR	96	0	4
NMSTR	96	0	5
NMSI_	96	0	6	96	48	0
NMSI_	96	192	1	96	48	7
NMSTR	96	192	2
NMSTR	96	192	3
NMSI_	96	192	4	96	48	6
NMSI_	97	0	3	96	48	1
NMSTR	97	0	4
NMSTR	97	0	5
NMSI_	97	0	6	96	48	0
NMSI_	97	192	1	96	48	6
NMSTR	97	192	2
NMSTR	97	192	3
NMSI_	97	192	4	96	48	7
NMSI_	98	0	3	96	48	0
NMSTR	98	0	4
NMSTR	98	0	5
NMSI_	98	0	6	96	48	1
NMSI_	98	192	1	96	48	6
NMSTR	98	192	2
NMSTR	98	192	3
NMSI_	98	192	4	96	48	7
NMSI_	99	0	3	96	48	0
NMSTR	99	0	4
NMSTR	99	0	5
NMSI_	99	0	6	96	48	1
BRSXR	99	192	2	96	192	7
BRSTR	99	192	3
CNSXR	100	96	7	0	288	4
NMSI_	101	192	2	96	96	0
NMSTR	101	192	3
NMSTR	101	192	5
NMSI_	101	192	6	96	96	0
CNSI_	102	0	0	0	96	4
CNSI_	102	0	0	0	96	4
NMSI_	102	192	1	96	96	7
NMSTR	102	192	2
NMSTR	102	192	4
NMSI_	102	192	5	96	96	7
CNSI_	103	0	7	0	96	3
CNSI_	103	0	7	0	96	3
NMSI_	103	192	2	96	96	0
NMSTR	103	192	3
NMSTR	103	192	5
NMSI_	103	192	6	96	96	0
CNSI_	104	0	0	0	96	4
CNSI_	104	0	0	0	96	4
NMSI_	104	192	1	96	96	7
NMSTR	104	192	2
NMSTR	104	192	4
NMSI_	104	192	5	96	96	7
CNSI_	105	0	7	0	96	3
CNSI_	105	0	7	0	96	3
NMSI_	105	192	2	96	96	0
NMSTR	105	192	3
NMSTR	105	192	6
NMSI_	105	192	7	96	96	1
CNSI_	106	0	0	0	96	4
CNSI_	106	0	1	0	96	5
NMSI_	106	192	0	96	96	6
NMSTR	106	192	1
NMSTR	106	192	4
NMSI_	106	192	5	96	96	7
CNSI_	107	0	6	0	96	2
CNSI_	107	0	7	0	96	3
NMSI_	107	192	2	96	96	0
NMSTR	107	192	3
NMSTR	107	192	6
NMSI_	107	192	7	96	96	1
CNSI_	108	0	0	0	96	4
CNSI_	108	0	1	0	96	5
NMSI_	108	192	0	96	96	6
NMSTR	108	192	1
NMSTR	108	192	4
NMSI_	108	192	5	96	96	7
CNSI_	109	0	6	0	96	2
CNSI_	109	0	7	0	96	3
NMSF_	109	192	0	96	48	4
NMSTR	109	192	1
NMSTR	109	192	7
BRSTR	110	0	0
BRSTR	110	0	6
BRSF_	110	0	7	96	48	3

T_REC_TAP	0
T_REC_BRK	0
T_REC_XTP	0
T_REC_BXX	0
T_REC_HLD	0
T_REC_XHO	0
T_REC_BHO	0
T_REC_BXH	0
T_REC_STR	157
T_REC_BST	22
T_REC_XST	0
T_REC_XBS	0
T_REC_TTP	0
T_REC_THO	0
T_REC_SLD	158
T_REC_BSL	25
T_REC_ALL	362
T_NUM_TAP	157
T_NUM_BRK	47
T_NUM_HLD	0
T_NUM_SLD	158
T_NUM_ALL	362
T_JUDGE_TAP	179
T_JUDGE_HLD	0
T_JUDGE_SLD	183
T_JUDGE_ALL	362
TTM_EACHPAIRS	36
TTM_SCR_TAP	78500
TTM_SCR_BRK	122200
TTM_SCR_HLD	0
TTM_SCR_SLD	237000
TTM_SCR_ALL	437700
TTM_SCR_S	420050
TTM_SCR_SS	433000
TTM_RAT_ACV	10108

