VERSION	0.00.00	1.04.00
FES_MODE	1
BPM_DEF	140.000	140.000	140.000	140.000
MET_DEF	4	4
RESOLUTION	384
CLK_DEF	384
COMPATIBLE_CODE	MA2

BPM	0	0	140.000
MET	0	0	4	4

NMSTR	3	0	1
NMTTP	3	96	0	B	0	M1
NMTTP	3	120	7	B	0	M1
NMTTP	3	144	1	B	0	M1
NMTTP	3	168	6	B	0	M1
NMTTP	3	192	1	E	0	M1
NMTTP	3	216	7	E	0	M1
NMTTP	3	240	2	E	0	M1
NMTTP	3	264	6	E	0	M1
NMTTP	3	288	0	A	0	M1
NMTTP	3	312	7	A	0	M1
NMTTP	3	336	1	A	0	M1
NMTTP	3	360	6	A	0	M1
NMSTR	5	288	1
NMSTR	5	360	1
NMSTR	6	0	0
NMSTR	6	96	6
NMSTR	6	168	6
NMSTR	6	192	7
NMSTR	6	288	5
NMSTR	6	336	5
NMSTR	6	360	4
NMSTR	7	0	5
NMSTR	7	48	2
NMSTR	7	72	3
NMSTR	7	96	2
NMSTR	7	168	2
NMSTR	7	192	3
NMSTR	7	288	5
NMSTR	8	0	6
NMSTR	8	72	6
NMSTR	8	96	7
NMSTR	8	168	7
NMSTR	8	192	6
NMSTR	8	288	1
NMSTR	8	360	1
NMSTR	9	0	0
NMSTR	9	72	0
NMSTR	9	96	1
NMSTR	9	168	2
NMSTR	9	192	3
NMTTP	9	288	0	E	1	M1
NMSTR	10	240	3
NMSTR	10	288	3
NMSTR	11	0	5
NMSTR	11	48	5
NMSTR	11	96	5
NMSTR	11	120	4
NMSTR	11	144	3
NMSTR	11	168	2
NMSTR	11	192	1
NMSTR	12	240	3
NMSTR	12	288	3
NMSTR	13	0	5
NMSTR	13	48	5
NMSTR	13	96	5
NMSTR	13	120	4
NMSTR	13	144	3
NMSTR	13	168	2
NMSTR	13	192	1
NMSTR	14	192	7
NMSI_	14	192	7	96	48	5
NMSTR	14	240	4
NMSXR	14	240	4	96	192	0
NMSTR	15	0	5
NMSTR	15	48	6
NMSTR	15	96	7
NMSTR	16	0	5
NMSTR	16	48	5
NMSTR	16	96	5
NMSTR	16	120	4
NMSTR	16	144	3
NMSTR	16	168	2
NMSTR	16	192	1
NMSTR	16	288	3
NMSTR	16	312	4
NMSTR	16	336	3
NMSTR	16	360	4
NMSTR	17	0	2
NMSTR	17	48	2
NMSTR	17	96	2
NMSTR	17	120	3
NMSTR	17	144	4
NMSTR	17	168	5
NMSTR	17	192	6
NMTTP	17	288	0	C	1	M1
NMSTR	19	192	1
NMSTR	19	240	3
NMSTR	19	288	5
NMSTR	19	336	7
NMSTR	19	360	7
NMSTR	20	0	0
NMSTR	20	48	2
NMSTR	20	96	4
NMSTR	20	192	5
NMSTR	20	216	5
NMSTR	20	240	3
NMSTR	20	264	3
NMSTR	20	288	4
NMSTR	20	336	2
NMSTR	20	360	2
NMSTR	21	0	4
NMSTR	21	24	4
NMSTR	21	48	3
NMSTR	21	72	3
NMSTR	21	96	5
NMTTP	21	192	6	A	1	M1
NMTTP	21	224	6	B	1	M1
NMTTP	21	256	2	B	1	M1
NMTTP	21	288	2	A	1	M1
NMSTR	21	360	1
NMSTR	22	0	1
NMSTR	22	24	7
NMSTR	22	48	7
NMSTR	22	72	0
NMSTR	22	96	0
NMSTR	22	192	2
NMSTR	22	240	5
NMSTR	22	264	4
NMSTR	22	288	5
NMSTR	22	336	3
NMSTR	23	0	2
NMSUR	23	0	2	96	576	4
NMTTP	25	288	0	E	0	M1
NMTTP	26	0	4	B	0	M1
NMTTP	26	48	3	B	0	M1
NMTTP	26	96	0	C	0	M1
NMTTP	26	192	7	E	0	M1
NMTTP	26	216	1	E	0	M1
NMTTP	26	240	6	B	0	M1
NMTTP	26	264	1	B	0	M1
NMTTP	26	288	5	B	0	M1
NMTTP	26	312	2	B	0	M1
NMTTP	26	336	5	E	0	M1
NMTTP	26	360	3	E	0	M1
NMTTP	27	0	7	A	0	M1
NMTTP	27	24	0	A	0	M1
NMTTP	27	48	7	E	0	M1
NMTTP	27	72	1	E	0	M1
NMTTP	27	96	6	B	0	M1
NMTTP	27	120	1	B	0	M1
NMTTP	27	144	5	B	0	M1
NMTTP	27	168	2	B	0	M1
NMTTP	27	192	5	E	0	M1
NMSTR	27	288	1
NMSTR	27	312	0
NMSTR	27	360	2
NMSTR	28	0	3
NMSTR	28	24	2
NMSTR	28	48	3
NMSTR	28	72	2
NMSTR	28	96	3
NMSTR	28	120	2
NMSTR	28	144	3
NMSTR	28	168	1
NMSTR	28	192	4
NMSTR	28	216	1
NMSTR	28	240	4
NMSTR	28	264	1
NMSTR	28	288	4
NMSTR	28	312	1
NMSTR	28	336	4
NMSTR	28	360	1
NMSTR	29	0	5
NMSTR	29	24	0
NMSTR	29	48	5
NMSTR	29	72	0
NMSTR	29	96	6
NMSTR	29	120	7
NMSTR	29	144	6
NMSTR	29	168	7
NMSTR	29	192	6
NMSTR	29	336	5
NMSTR	29	360	5
NMSTR	30	0	4
NMSTR	30	48	2
NMSTR	30	72	2
NMSTR	30	96	3
NMSTR	30	144	6
NMSTR	30	168	6
NMSTR	30	192	4
NMSTR	30	216	4
NMSI_	30	216	4	96	48	7
NMSTR	30	240	5
NMSTR	30	264	5
NMSTR	30	312	3
NMSTR	31	0	2
NMSTR	31	48	5
NMSTR	31	72	5
NMSTR	31	96	4
NMSTR	31	144	1
NMSTR	31	168	1
NMSTR	31	192	3
NMSTR	31	216	3
NMSI_	31	216	3	96	48	0
NMSTR	31	240	2
NMSTR	31	264	2
NMSTR	31	312	5
NMSTR	32	48	6
NMSTR	32	96	7
NMSTR	32	144	0
NMSTR	32	192	1
NMSTR	32	240	2
NMSTR	32	288	3
NMSTR	32	336	4
NMSTR	33	0	5
NMSTR	33	48	6
NMSTR	33	144	0
NMSTR	33	192	0
NMSCR	33	192	0	96	96	5
NMSTR	33	288	7
NMSTR	34	240	3
NMSTR	34	264	4
NMSTR	34	288	3
NMSTR	34	312	4
NMSTR	34	336	3
NMSTR	34	360	4
NMSTR	35	0	2
NMSTR	35	48	2
NMSTR	35	96	2
NMSTR	35	120	3
NMSTR	35	144	4
NMSTR	35	168	5
NMSTR	35	192	6
NMSTR	36	0	7
NMSI_	36	0	7	96	48	5
NMSTR	36	1	1
NMSI_	36	1	1	96	48	3
NMSTR	36	96	7
NMSI_	36	96	7	96	48	4
NMSTR	36	97	1
NMSI_	36	97	1	96	49	4
EXSTR	36	192	7
EXSTR	36	193	1
NMSTR	36	288	6
NMSTR	36	289	2
NMSTR	36	336	6
NMSTR	36	337	2
NMSTR	37	0	1
NMSCR	37	0	1	96	48	4
NMSTR	37	1	7
NMSTR	37	48	0
NMSTR	37	96	5
EXSTR	37	192	7
NMSTR	37	288	0
NMSCR	37	288	0	96	48	3
NMSTR	37	289	6
NMSTR	37	336	0
NMSTR	37	337	6
NMSTR	38	0	5
NMSCR	38	0	5	96	48	0
NMSTR	38	96	2
EXSTR	38	192	0
NMSTR	38	288	7
NMSTR	38	289	6
NMSTR	38	336	5
NMSTR	39	0	7
NMSTR	39	1	0
NMSTR	39	48	6
NMSTR	39	96	1
NMSI_	39	96	1	96	48	5
NMSTR	39	97	0
NMSTR	39	144	7
EXSTR	39	192	6
NMSI_	39	192	6	96	48	2
NMSTR	40	0	5
NMSTR	40	1	1
NMSTR	40	72	6
NMSTR	40	144	7
NMSTR	40	192	0
NMSTR	40	193	1
NMSTR	40	240	2
NMSTR	40	288	6
NMSTR	40	289	7
NMSTR	40	336	5
NMSTR	41	0	0
NMSTR	41	72	1
NMSTR	41	144	2
NMSTR	41	192	6
NMSTR	41	193	0
NMSTR	41	288	5
NMSLR	41	288	5	96	48	4
NMSTR	42	0	5
NMSTR	42	96	3
NMSLL	42	96	3	96	48	4
NMSTR	42	192	3
NMSTR	42	288	6
NMSTR	42	289	7
EXSTR	43	0	5
EXSTR	43	1	0
NMSTR	43	96	1
NMSTR	43	97	0
EXSTR	43	192	7
EXSTR	43	193	2
NMSTR	43	288	5
NMSI_	43	288	5	96	48	7
NMSTR	44	0	7
NMSV_	44	0	7	96	96	0
NMSTR	44	96	0
NMSI_	44	96	0	96	48	2
NMSTR	44	192	2
NMTTP	44	288	4	E	0	M1
NMSTR	46	192	3
NMSTR	46	240	2
NMSTR	46	288	4
NMSTR	46	336	5
NMSTR	47	0	6
NMSTR	47	24	7
NMSTR	47	48	6
NMSTR	47	72	7
NMSTR	47	192	3
NMSTR	47	240	3
NMSTR	47	288	2
NMSTR	47	312	4
NMSTR	47	336	2
NMSTR	47	360	4
NMSTR	48	0	1
NMSTR	48	24	5
NMSTR	48	48	0
NMSTR	48	72	6
NMSI_	48	72	6	96	48	4
CNSV_	48	216	4	0	120	3
CNSI_	48	336	3	0	48	1
NMSTR	49	48	0
NMSTR	49	96	1
NMSTR	49	144	2
NMSTR	49	168	2
NMSTR	49	192	7
NMSTR	49	240	6
NMSTR	49	288	5
NMSTR	49	312	5
NMSTR	49	336	1
NMSTR	50	0	2
NMSTR	50	48	3
NMSTR	50	96	6
NMSTR	50	144	5
NMSTR	50	192	4
NMSCR	50	192	4	96	96	7
NMSTR	50	240	3
NMTTP	52	288	4	E	0	M1
NMSTR	53	0	5
NMSTR	53	24	4
NMSTR	53	48	3
NMSTR	53	72	2
NMSTR	53	96	5
NMSTR	53	120	4
NMSTR	53	144	3
NMSTR	53	192	5
NMSTR	53	216	4
NMSTR	53	240	3
NMSTR	53	264	2
NMSTR	53	288	5
NMSTR	53	312	4
NMSTR	53	336	3
NMSTR	53	360	2
NMSTR	54	0	2
NMSTR	54	24	3
NMSTR	54	48	4
NMSTR	54	72	5
NMSTR	54	96	2
NMSTR	54	120	3
NMSTR	54	144	4
NMSTR	54	168	5
NMSTR	54	192	2
NMSTR	54	216	3
NMSTR	54	240	4
NMSTR	54	264	5
NMSTR	54	312	3
NMSTR	54	336	4
NMSTR	54	360	5
NMSTR	55	0	0
NMSTR	55	192	5
NMSTR	55	216	4
NMSTR	55	240	3
NMSTR	55	264	2
NMSTR	55	312	4
NMSTR	55	336	3
NMSTR	55	360	2
NMSTR	56	0	7
NMSTR	56	336	1
NMSTR	56	360	0
NMSTR	57	0	7
NMSTR	57	24	6
NMSTR	57	48	1
NMSTR	57	72	0
NMSTR	57	96	7
NMSTR	57	144	1
NMSTR	57	168	0
NMSTR	57	192	7
NMSTR	57	216	6
NMSTR	57	240	1
NMSTR	57	264	0
NMSTR	57	336	6
NMSTR	57	360	7
NMSTR	58	0	0
NMSTR	58	24	1
NMSTR	58	48	6
NMSTR	58	72	7
NMSTR	58	96	0
NMSTR	58	120	1
NMSTR	58	144	6
NMSTR	58	168	7
NMSTR	58	192	0
NMSTR	58	216	1
NMSTR	58	240	6
NMSTR	58	264	7
NMSTR	59	0	2
NMSTR	59	48	1
NMSTR	59	72	1
NMSTR	59	96	0
NMSTR	59	144	5
NMSTR	59	168	5
NMSTR	59	192	4
NMSTR	59	240	6
NMSTR	59	264	6
NMSTR	59	288	7
NMSTR	59	336	2
NMSTR	59	360	2
NMSTR	60	0	3
NMSTR	60	48	5
NMSTR	60	96	6
NMSTR	60	144	7
NMSTR	60	192	0
NMSTR	60	240	1
NMSTR	60	288	2
NMSCL	60	288	2	96	288	5
NMTTP	62	0	0	C	1	M1
NMSTR	63	0	4
NMSTR	63	120	6
NMSTR	63	144	4
NMSTR	63	168	5
NMSTR	63	216	2
NMSTR	63	240	2
NMSTR	63	264	3
NMSTR	63	288	1
NMSTR	63	312	5
NMSTR	63	336	5
NMSTR	63	360	4
NMSTR	64	0	6
NMSTR	64	24	1
NMSTR	64	48	1
NMSTR	64	72	3
NMSTR	64	96	2
NMTTP	66	0	0	E	0	M1
NMTTP	66	96	0	C	0	M1
NMTTP	66	192	4	E	0	M1
NMSTR	66	288	7
NMSI_	66	288	7	96	48	5
NMSTR	66	289	1
NMSI_	66	289	1	96	48	3
EXSTR	67	0	7
NMSI_	67	0	7	96	48	4
EXSTR	67	1	1
NMSI_	67	1	1	96	48	4
NMSTR	67	96	7
NMSTR	67	97	1
EXSTR	67	192	6
EXSTR	67	193	2
NMSTR	67	288	5
NMSTR	67	289	1
NMSTR	67	336	5
NMSTR	67	337	1
NMSTR	68	0	6
NMSI_	68	0	6	96	48	2
NMSTR	68	1	0
NMSTR	68	48	7
NMSTR	68	96	1
EXSTR	68	192	0
NMSTR	68	288	7
NMSCL	68	288	7	96	48	4
NMSTR	68	289	1
NMSTR	68	336	7
NMSTR	68	337	1
NMSTR	69	0	2
NMSI_	69	0	2	96	48	7
NMSTR	69	96	2
EXSTR	69	192	6
NMSTR	69	288	1
NMSTR	69	312	0
NMSTR	69	336	1
NMSTR	70	0	7
NMSTR	70	1	0
NMSTR	70	48	6
NMSTR	70	96	5
NMSCR	70	96	5	96	96	2
NMSTR	70	97	7
EXSTR	70	192	2
NMSCL	70	192	2	96	96	5
NMSTR	71	0	2
NMSTR	71	72	1
NMSTR	71	144	0
NMSTR	71	192	7
NMSTR	71	193	6
NMSTR	71	240	5
NMSTR	71	288	0
NMSTR	71	289	1
NMSTR	71	336	2
NMSTR	72	0	7
NMSTR	72	72	6
NMSTR	72	144	5
NMSTR	72	192	0
NMSI_	72	192	0	96	48	2
NMSTR	72	193	7
NMSTR	72	287	0
NMSTR	72	288	6
NMSI_	72	288	6	96	48	4
NMSTR	72	383	6
NMSTR	73	0	0
NMSI_	73	0	0	96	48	3
NMSTR	73	95	0
NMSTR	73	96	6
NMSI_	73	96	6	96	48	3
NMSTR	73	191	6
NMSTR	73	192	7
NMSTR	73	288	0
NMSTR	73	289	1
NMSTR	73	360	7
NMSTR	73	361	6
EXSTR	74	0	5
NMSTR	74	72	0
NMSTR	74	73	1
EXSTR	74	96	2
NMSTR	74	168	7
NMSTR	74	169	0
EXSTR	74	192	6
EXSTR	74	193	1
NMSTR	74	288	6
NMSI_	74	288	6	96	48	4
NMSTR	74	289	0
NMSI_	74	289	0	96	48	2
NMSTR	75	0	6
NMSI_	75	0	6	96	48	3
NMSTR	75	1	0
NMSI_	75	1	0	96	48	3
NMSTR	75	96	6
NMSTR	75	97	0
EXSTR	75	192	5
EXSTR	75	193	1
NMSTR	75	288	2
NMSTR	75	289	6
NMSTR	75	336	2
NMSTR	75	337	6
NMSTR	76	0	1
NMSUR	76	0	1	96	120	4
NMSTR	76	1	7
NMSTR	76	48	0
NMSTR	76	96	5
EXSTR	76	192	7
NMSTR	76	288	0
NMSI_	76	288	0	96	48	4
NMSTR	76	289	6
NMSTR	76	336	0
NMSTR	76	337	6
NMSTR	77	0	5
NMSCR	77	0	5	96	96	3
NMSTR	77	96	5
EXSTR	77	192	0
NMSTR	77	288	6
NMSTR	77	312	7
NMSTR	77	336	6
NMSTR	78	0	0
NMSTR	78	1	7
NMSTR	78	48	1
NMSTR	78	96	0
NMSTR	78	97	7
NMSTR	78	144	6
NMSTR	78	192	2
NMSLL	78	192	2	96	48	3
NMSTR	78	193	5
EXSTR	78	288	2
CNSXL	78	336	3	0	96	3
NMSTR	79	96	0
NMSTR	79	97	6
NMSTR	79	192	1
NMSTR	79	193	5
NMSTR	79	240	0
NMSTR	79	264	7
NMSTR	79	288	0
NMSTR	79	336	6
NMSTR	79	337	2
NMSTR	80	0	0
NMSTR	80	72	1
NMSTR	80	144	2
NMSTR	80	192	6
NMSCL	80	192	6	96	48	4
NMSTR	80	193	0
NMSCR	80	193	0	96	48	2
NMSTR	80	288	6
NMSV_	80	288	6	96	48	3
NMSTR	80	289	0
NMSV_	80	289	0	96	48	3
NMSTR	81	0	6
NMSI_	81	0	6	96	48	4
NMSTR	81	1	0
NMSI_	81	1	0	96	48	2
NMSTR	81	96	6
NMSI_	81	96	6	96	48	3
NMSTR	81	97	0
NMSI_	81	97	0	96	48	3
EXSTR	81	192	6
EXSTR	81	193	0
NMSTR	81	288	5
NMSTR	81	289	1
NMSTR	81	360	6
NMSTR	81	361	7
EXSTR	82	0	5
EXSTR	82	1	0
NMSTR	82	72	0
NMSTR	82	73	1
EXSTR	82	96	2
EXSTR	82	97	7
NMSTR	82	168	7
NMSTR	82	169	0
EXSTR	82	192	6
EXSTR	82	193	1
NMSTR	82	288	5
NMSI_	82	288	5	96	48	7
NMSTR	83	0	7
NMSV_	83	0	7	96	96	0
NMSTR	83	96	0
NMSI_	83	96	0	96	48	2
NMSTR	83	192	2
NMSTR	85	288	3
NMSTR	85	336	2
NMSTR	85	360	4
NMSTR	86	0	2
NMSTR	86	48	5
NMSTR	86	72	3
NMSTR	86	96	5
NMSTR	86	168	7
NMSTR	86	192	0
NMSTR	86	288	2
NMSLL	86	288	2	96	192	3
CNSI_	87	192	3	0	96	6
CNSI_	87	288	6	0	96	4
NMSTR	89	0	6
NMSTR	89	24	7
NMSTR	89	48	6
NMSTR	89	72	7
NMSTR	89	96	6
NMSTR	89	192	2
NMSTR	89	216	2
NMSTR	89	240	2
BRSTR	89	288	0
BRSTR	89	288	7
NMSTR	90	0	6
NMSTR	90	1	1
NMSTR	90	24	6
NMSTR	90	25	1
NMSTR	90	48	6
NMSTR	90	49	1
EXSTR	90	96	7
NMSI_	90	96	7	96	48	5
EXSTR	90	97	0
NMSI_	90	97	0	96	48	2
EXSTR	90	144	5
EXSTR	90	145	2
EXSTR	90	192	7
NMSV_	90	192	7	96	384	0
EXSTR	90	193	0
NMSV_	90	193	0	96	384	7
CNSI_	91	288	0	0	144	2
CNSI_	91	289	7	0	144	5

T_REC_TAP	0
T_REC_BRK	0
T_REC_XTP	0
T_REC_BXX	0
T_REC_HLD	0
T_REC_XHO	0
T_REC_BHO	0
T_REC_BXH	0
T_REC_STR	510
T_REC_BST	2
T_REC_XST	39
T_REC_XBS	0
T_REC_TTP	45
T_REC_THO	0
T_REC_SLD	60
T_REC_BSL	0
T_REC_ALL	656
T_NUM_TAP	594
T_NUM_BRK	2
T_NUM_HLD	0
T_NUM_SLD	60
T_NUM_ALL	656
T_JUDGE_TAP	596
T_JUDGE_HLD	0
T_JUDGE_SLD	60
T_JUDGE_ALL	656
TTM_EACHPAIRS	1
TTM_SCR_TAP	297000
TTM_SCR_BRK	5200
TTM_SCR_HLD	0
TTM_SCR_SLD	90000
TTM_SCR_ALL	392200
TTM_SCR_S	380250
TTM_SCR_SS	392000
TTM_RAT_ACV	10005

