VERSION	0.00.00	1.04.00
FES_MODE	0
BPM_DEF	140.000	140.000	140.000	140.000
MET_DEF	4	4
RESOLUTION	384
CLK_DEF	384
COMPATIBLE_CODE	MA2

BPM	0	0	140.000
MET	0	0	4	4

NMHLD	1	128	2	112
EXTAP	1	240	4
EXTAP	1	256	2
EXTAP	1	272	4
EXTAP	1	288	2
EXTAP	1	304	4
NMTAP	1	360	1
NMTAP	2	16	0
NMTAP	2	32	0
NMTAP	2	80	5
NMTAP	2	96	3
NMTAP	2	112	5
NMTAP	2	128	3
NMTAP	2	144	5
NMTAP	2	160	3
NMTAP	2	176	5
NMTAP	2	192	3
NMTAP	2	208	5
NMTAP	2	224	3
NMTAP	2	240	5
NMTAP	2	256	3
NMHLD	2	272	5	496
NMHLD	2	288	3	480
NMTAP	4	112	2
NMTAP	4	112	4
NMTAP	4	216	2
NMTAP	4	240	4
NMTAP	4	264	2
NMTAP	4	288	4
NMTAP	4	312	2
NMTAP	4	336	4
NMTAP	4	360	2
NMTAP	5	0	4
NMTAP	5	24	2
NMTAP	5	48	3
NMHLD	5	192	2	1632
NMHLD	5	192	5	1632
NMTAP	10	0	1
NMTAP	10	24	1
NMTAP	10	48	3
NMTAP	10	96	6
NMTAP	10	120	6
NMTAP	10	144	4
NMTAP	10	168	4
NMHLD	10	192	3	480
NMHLD	10	192	5	480
NMTAP	12	0	6
NMTAP	12	24	6
NMTAP	12	48	4
NMTAP	12	96	1
NMTAP	12	120	1
NMTAP	12	144	3
NMTAP	12	168	3
NMHLD	12	192	2	480
NMHLD	12	192	4	480
NMTAP	14	0	2
NMTAP	14	16	3
NMTAP	14	32	2
NMTAP	14	48	3
NMTAP	14	96	1
NMTAP	14	96	4
NMTAP	14	128	1
NMTAP	14	128	4
NMHLD	14	160	1	320
NMHLD	14	160	4	320
EXTAP	15	192	1
EXTAP	15	192	4
EXTAP	15	240	2
EXTAP	15	240	5
EXHLD	15	288	3	864
EXHLD	15	288	6	864
NMTAP	18	96	6
NMTAP	18	112	5
NMTAP	18	128	4
NMTAP	18	160	1
NMTAP	18	176	2
NMTAP	18	192	3
NMTAP	18	336	5
NMTAP	18	360	5
NMTAP	19	0	3
NMTAP	19	24	3
NMTAP	19	48	4
NMTAP	19	64	2
NMTAP	19	80	4
NMTAP	19	96	2
NMHLD	19	120	1	1416
NMHLD	19	120	5	1416
NMTAP	23	192	6
NMTAP	23	216	7
NMTAP	23	240	0
NMTAP	23	264	1
NMHLD	23	336	2	24
NMHLD	23	336	3	24
NMTAP	24	0	2
NMTAP	24	0	3
NMHLD	24	24	1	24
NMHLD	24	24	4	24
NMTAP	24	72	1
NMTAP	24	72	4
NMTAP	24	288	5
NMTAP	24	312	5
NMTAP	24	336	3
NMTAP	24	360	3
NMTAP	25	0	6
NMTAP	25	24	4
NMTAP	25	48	5
NMTAP	25	96	1
NMTAP	25	120	3
NMTAP	25	144	2
NMHLD	25	168	4	792
NMHLD	25	192	1	1536
NMHLD	27	240	5	2352
BRHLD	29	240	2	1584
NMTAP	34	0	2
NMTAP	34	16	3
NMTAP	34	32	4
NMTAP	34	96	5
NMTAP	34	128	4
NMHLD	34	160	2	512
NMHLD	34	192	3	480
NMSTR	36	0	1
NMSI_	36	0	1	96	48	3
NMSTR	36	0	7
NMSI_	36	0	7	96	48	5
NMSTR	36	96	1
NMSI_	36	96	1	96	48	4
NMSTR	36	96	7
NMSI_	36	96	7	96	48	4
EXTAP	36	192	1
EXTAP	36	192	7
NMTAP	36	288	2
NMTAP	36	288	6
NMTAP	36	336	2
NMTAP	36	336	6
NMSTR	37	0	1
NMSCR	37	0	1	96	48	4
NMTAP	37	0	7
NMTAP	37	48	0
NMHLD	37	96	5	96
EXTAP	37	192	7
NMSTR	37	288	0
NMSCR	37	288	0	96	48	3
NMTAP	37	288	6
NMTAP	37	336	0
NMTAP	37	336	6
NMSTR	38	0	5
NMSCR	38	0	5	96	48	0
NMHLD	38	96	2	96
EXTAP	38	192	0
NMTAP	38	288	6
NMTAP	38	288	7
NMTAP	38	336	5
NMTAP	39	0	0
NMTAP	39	0	7
NMTAP	39	48	6
NMTAP	39	96	0
NMSTR	39	96	1
NMSI_	39	96	1	96	48	5
NMTAP	39	144	7
EXSTR	39	192	6
NMSI_	39	192	6	96	48	2
BRTAP	40	0	1
EXHLD	40	0	5	72
NMHLD	40	72	6	72
NMTAP	40	144	7
NMTAP	40	192	0
NMTAP	40	192	1
NMTAP	40	240	2
NMTAP	40	288	6
NMTAP	40	288	7
NMTAP	40	336	5
NMHLD	41	0	0	72
NMHLD	41	72	1	72
NMTAP	41	144	2
BRTAP	41	192	0
BRTAP	41	192	6
NMTAP	41	288	1
NMSTR	41	288	7
NMSI_	41	288	7	96	48	4
NMSI_	41	288	7	96	48	5
NMTAP	42	0	7
NMTAP	42	96	0
NMSTR	42	96	1
NMSI_	42	96	1	96	48	3
NMSI_	42	96	1	96	48	4
NMTAP	42	192	1
NMHLD	42	288	6	72
NMHLD	42	288	7	72
EXTAP	43	0	0
EXTAP	43	0	5
NMHLD	43	96	0	72
NMHLD	43	96	1	72
EXTAP	43	192	2
EXTAP	43	192	7
NMSTR	43	288	5
NMSI_	43	288	5	96	48	7
NMSTR	44	0	7
NMSV_	44	0	7	96	96	0
NMSTR	44	96	0
NMSI_	44	96	0	96	48	2
NMTAP	44	192	2
NMTTP	44	288	4	E	0	M1
NMTAP	45	72	3
NMHLD	45	96	3	1152
NMTAP	45	192	4
NMTAP	45	240	4
NMTAP	45	288	4
NMTAP	45	360	5
NMTAP	46	24	4
NMHLD	46	72	5	792
NMTAP	48	192	7
NMTAP	48	208	6
NMTAP	48	224	5
NMHLD	48	240	4	816
NMTAP	48	272	0
NMTAP	48	288	1
NMHLD	48	304	2	752
NMTAP	51	32	1
NMTAP	51	32	5
NMTAP	51	64	2
NMTAP	51	64	6
NMTAP	51	96	1
NMTAP	51	96	5
NMTAP	51	128	2
NMTAP	51	128	6
NMTAP	51	272	0
NMTAP	51	272	7
NMTAP	51	304	0
NMTAP	51	304	7
NMTAP	51	368	6
NMTAP	52	0	4
NMTAP	52	16	6
NMTAP	52	32	4
NMTAP	52	48	6
NMTAP	52	64	3
NMTAP	52	80	5
NMTAP	52	96	3
NMHLD	52	112	5	1088
NMHLD	52	192	3	1440
NMHLD	55	96	6	384
NMTAP	56	144	5
NMTAP	56	160	4
NMTAP	56	208	2
NMHLD	56	224	3	1696
NMHLD	56	240	1	1680
NMTAP	61	96	5
NMTAP	61	128	1
NMTAP	61	144	7
NMTAP	61	160	1
NMTAP	61	176	7
NMTAP	61	192	1
NMHLD	61	208	7	1040
NMHLD	61	224	1	1024
NMTAP	64	256	6
NMTAP	64	272	5
NMTAP	64	288	4
NMHLD	64	304	3	368
NMHLD	64	320	2	352
NMTTP	66	0	0	E	0	M1
NMTTP	66	96	3	E	0	M1
NMTTP	66	96	5	E	0	M1
NMTTP	66	192	0	C	0	M1
NMTTP	66	192	2	E	0	M1
NMTTP	66	192	6	E	0	M1
NMSTR	66	288	1
NMSI_	66	288	1	96	48	3
NMSTR	66	288	7
NMSI_	66	288	7	96	48	5
BXSTR	67	0	1
NMSI_	67	0	1	96	48	4
BXSTR	67	0	7
NMSI_	67	0	7	96	48	4
NMTAP	67	96	1
NMTAP	67	96	7
EXTAP	67	192	2
EXTAP	67	192	6
NMTAP	67	288	1
NMTAP	67	288	5
NMTAP	67	336	1
NMTAP	67	336	5
NMTAP	68	0	0
NMSTR	68	0	6
NMSI_	68	0	6	96	48	2
NMTAP	68	48	7
NMHLD	68	96	1	96
EXTAP	68	192	0
NMTAP	68	288	1
NMSTR	68	288	7
NMSCL	68	288	7	96	48	4
NMTAP	68	336	1
NMTAP	68	336	7
NMSTR	69	0	2
NMSI_	69	0	2	96	48	7
NMHLD	69	96	2	96
EXTAP	69	192	6
NMTAP	69	288	1
NMTAP	69	312	0
NMTAP	69	336	1
NMTAP	70	0	0
NMTAP	70	0	7
NMTAP	70	48	6
NMSTR	70	96	5
NMSCR	70	96	5	96	96	2
NMTAP	70	96	7
EXSTR	70	192	2
BRSCL	70	192	2	96	96	5
NMHLD	71	0	2	72
NMHLD	71	72	1	72
NMTAP	71	144	0
NMTAP	71	192	6
NMTAP	71	192	7
NMTAP	71	240	5
NMTAP	71	288	0
NMTAP	71	288	1
NMTAP	71	336	2
NMHLD	72	0	7	72
NMHLD	72	72	6	72
NMTAP	72	144	5
NMSTR	72	192	0
NMSI_	72	192	0	96	48	2
NMTAP	72	192	7
NMTAP	72	288	0
NMSTR	72	288	6
NMSI_	72	288	6	96	48	4
NMSTR	73	0	0
NMSI_	73	0	0	96	48	3
NMTAP	73	0	6
NMTAP	73	96	0
NMSTR	73	96	6
NMSI_	73	96	6	96	48	3
NMTAP	73	192	6
NMTAP	73	192	7
NMTAP	73	288	0
NMTAP	73	288	1
NMTAP	73	360	6
NMTAP	73	360	7
EXTAP	74	0	5
NMTAP	74	72	0
NMTAP	74	72	1
EXTAP	74	96	2
NMTAP	74	168	0
NMTAP	74	168	7
EXTAP	74	192	1
EXTAP	74	192	6
NMSTR	74	288	0
NMSI_	74	288	0	96	48	2
NMSTR	74	288	6
NMSI_	74	288	6	96	48	4
BRSTR	75	0	0
NMSI_	75	0	0	96	48	3
BRSTR	75	0	6
NMSI_	75	0	6	96	48	3
NMTAP	75	96	0
NMTAP	75	96	6
EXTAP	75	192	1
EXTAP	75	192	5
NMTAP	75	288	2
NMTAP	75	288	6
NMTAP	75	336	2
NMTAP	75	336	6
NMSTR	76	0	1
NMSUR	76	0	1	96	120	4
NMTAP	76	0	7
NMTAP	76	48	0
NMTAP	76	96	5
EXTAP	76	192	7
NMSTR	76	288	0
NMSI_	76	288	0	96	48	4
NMTAP	76	288	6
NMTAP	76	336	0
NMTAP	76	336	6
NMSTR	77	0	5
NMSCR	77	0	5	96	96	3
NMTAP	77	96	5
EXTAP	77	192	0
NMTAP	77	288	6
NMTAP	77	312	7
NMTAP	77	336	6
NMTAP	78	0	0
NMTAP	78	0	7
NMTAP	78	48	1
NMTAP	78	96	0
NMTAP	78	96	7
NMTAP	78	144	6
NMSTR	78	192	2
NMSXL	78	192	2	96	96	3
NMSLL	78	192	2	96	96	3
NMTAP	78	192	5
EXTAP	78	288	2
BRTAP	79	96	0
BRTAP	79	96	6
NMTAP	79	192	1
NMTAP	79	192	5
NMTAP	79	240	0
NMTAP	79	264	7
NMTAP	79	288	0
NMTAP	79	336	2
NMTAP	79	336	6
NMHLD	80	0	0	72
NMHLD	80	72	1	72
NMTAP	80	144	2
BRSTR	80	192	0
NMSCR	80	192	0	96	48	2
BRSTR	80	192	6
NMSCL	80	192	6	96	48	4
NMSTR	80	288	0
NMSV_	80	288	0	96	48	3
NMSTR	80	288	6
NMSV_	80	288	6	96	48	3
NMSTR	81	0	0
NMSI_	81	0	0	96	48	2
NMSTR	81	0	6
NMSI_	81	0	6	96	48	4
NMSTR	81	96	0
NMSI_	81	96	0	96	48	3
NMSTR	81	96	6
NMSI_	81	96	6	96	48	3
EXTAP	81	192	0
EXTAP	81	192	6
NMTAP	81	288	1
NMTAP	81	288	5
NMTAP	81	360	6
NMTAP	81	360	7
EXTAP	82	0	0
EXTAP	82	0	5
NMTAP	82	72	0
NMTAP	82	72	1
EXTAP	82	96	2
EXTAP	82	96	7
NMTAP	82	168	0
NMTAP	82	168	7
EXTAP	82	192	1
EXTAP	82	192	6
NMSTR	82	288	5
NMSI_	82	288	5	96	48	7
NMSTR	83	0	7
NMSV_	83	0	7	96	96	0
NMSTR	83	96	0
NMSI_	83	96	0	96	48	2
NMTAP	83	192	2
NMTAP	83	336	3
NMTAP	84	32	2
NMTAP	84	48	4
NMTAP	84	64	2
NMTAP	84	80	4
NMTAP	84	96	2
NMTAP	84	160	7
NMTAP	84	176	6
NMTAP	84	192	5
NMTAP	84	208	4
NMTAP	84	240	0
NMTAP	84	256	1
NMTAP	84	272	2
NMTAP	84	288	3
NMTAP	84	368	5
NMTAP	85	0	3
NMTAP	85	16	5
NMTAP	85	32	3
NMTAP	85	48	5
NMTAP	85	64	2
NMTAP	85	80	4
NMTAP	85	96	2
NMTAP	85	112	4
NMHLD	85	128	2	928
NMHLD	85	144	4	912
NMTAP	88	0	6
NMTAP	88	16	0
NMTAP	88	32	6
NMTAP	88	48	0
NMTAP	88	192	1
NMTAP	88	208	7
NMTAP	88	224	1
NMHLD	88	240	7	720
NMHLD	88	256	1	1328
BRHLD	90	288	6	528

T_REC_TAP	269
T_REC_BRK	5
T_REC_XTP	38
T_REC_BXX	0
T_REC_HLD	56
T_REC_XHO	3
T_REC_BHO	2
T_REC_BXH	0
T_REC_STR	38
T_REC_BST	4
T_REC_XST	2
T_REC_XBS	2
T_REC_TTP	7
T_REC_THO	0
T_REC_SLD	48
T_REC_BSL	1
T_REC_ALL	475
T_NUM_TAP	354
T_NUM_BRK	14
T_NUM_HLD	59
T_NUM_SLD	48
T_NUM_ALL	475
T_JUDGE_TAP	365
T_JUDGE_HLD	793
T_JUDGE_SLD	49
T_JUDGE_ALL	1207
TTM_EACHPAIRS	92
TTM_SCR_TAP	177000
TTM_SCR_BRK	36400
TTM_SCR_HLD	59000
TTM_SCR_SLD	72000
TTM_SCR_ALL	344400
TTM_SCR_S	332750
TTM_SCR_SS	343000
TTM_RAT_ACV	10040

