VERSION	0.00.00	1.05.00
FES_MODE	1
BPM_DEF	173.000	173.000	173.000	173.000
MET_DEF	4	4
RESOLUTION	384
CLK_DEF	384
COMPATIBLE_CODE	MA2

BPM	0	0	173.000
MET	0	0	4	4

NMTAP	1	256	5
NMTAP	1	288	3
NMTAP	1	320	6
NMTAP	1	352	1
NMTAP	2	0	4
NMTAP	2	32	2
NMTAP	2	64	5
NMTAP	2	96	3
NMTAP	2	120	4
NMTAP	2	144	3
NMTAP	2	168	4
NMTAP	2	192	3
NMTAP	2	216	4
NMTAP	2	240	3
NMTAP	2	264	4
NMTAP	2	288	3
NMTAP	3	0	0
NMTAP	3	24	7
NMTAP	3	48	0
NMTAP	3	72	7
EXTAP	3	96	1
EXTAP	3	120	6
EXTAP	3	144	1
EXTAP	3	168	6
NMTAP	3	192	2
NMTAP	3	192	5
NMTAP	3	240	3
NMTAP	3	240	4
NMTAP	3	288	2
NMHLD	3	288	5	96
NMSTR	4	0	4
NMSI_	4	0	4	96	48	1
NMSTR	4	96	7
NMSI_	4	96	7	96	48	2
NMSTR	4	192	3
NMSI_	4	192	3	96	48	6
NMSTR	4	288	0
NMSI_	4	288	0	96	48	5
NMSTR	5	0	4
NMSI_	5	0	4	96	48	1
NMSTR	5	96	7
NMSI_	5	96	7	96	48	2
NMSTR	5	192	3
NMSI_	5	192	3	96	48	6
NMSTR	5	288	0
NMSI_	5	288	0	96	48	5
NMSTR	6	0	4
NMSI_	6	0	4	96	48	1
NMSTR	6	96	7
NMSI_	6	96	7	96	48	2
NMSTR	6	192	3
NMSI_	6	192	3	96	48	6
NMSTR	6	288	0
NMSI_	6	288	0	96	48	5
NMSTR	7	0	4
NMSI_	7	0	4	96	48	1
NMSTR	7	96	7
NMSI_	7	96	7	96	48	2
NMSTR	7	192	3
NMSI_	7	192	3	96	48	6
NMTAP	7	288	0
NMTAP	8	48	6
NMTAP	8	96	5
NMSTR	8	144	4
NMSI_	8	144	4	96	48	2
NMSI_	8	144	4	96	48	6
NMTAP	8	192	3
NMTAP	8	240	4
NMTAP	8	336	1
NMTAP	9	0	1
NMTAP	9	48	2
NMSTR	9	96	3
NMSI_	9	96	3	96	48	0
NMTAP	9	144	5
NMTAP	9	192	3
NMSTR	9	192	4
NMSI_	9	192	4	96	48	7
NMTAP	9	288	4
NMTAP	10	48	1
NMTAP	10	96	2
NMTAP	10	144	3
NMTAP	10	192	4
NMTAP	10	240	5
NMTAP	10	336	2
NMTAP	11	0	2
NMTAP	11	48	1
NMSTR	11	96	0
NMSI_	11	96	0	96	48	4
NMTAP	11	144	6
NMTAP	11	192	0
NMSTR	11	192	7
NMSI_	11	192	7	96	48	3
NMTAP	11	288	7
NMHLD	12	0	2	96
NMHLD	12	96	0	96
NMTAP	12	192	7
NMTAP	12	240	7
NMTAP	12	336	6
NMTAP	12	360	4
NMTAP	13	0	5
NMTAP	13	48	5
NMTAP	13	96	7
NMTAP	13	144	7
NMTAP	13	192	0
NMTAP	13	240	0
NMTAP	13	288	2
NMTAP	13	336	2
NMSTR	14	0	4
NMSCR	14	0	4	96	48	7
NMSTR	14	96	3
NMSCL	14	96	3	96	48	0
NMTAP	14	96	4
NMTAP	14	192	3
NMTAP	14	336	7
NMTAP	15	48	6
NMTAP	15	72	4
NMTAP	15	96	5
NMTAP	15	144	1
NMTAP	15	168	3
NMTAP	15	192	2
NMTAP	15	240	5
NMTAP	15	264	4
NMSTR	15	288	6
NMSI_	15	288	6	96	48	2
NMTAP	15	336	6
NMSTR	16	0	7
NMSI_	16	0	7	96	48	3
NMSTR	16	96	0
NMSI_	16	96	0	96	48	4
NMSTR	16	192	1
NMSI_	16	192	1	96	48	5
NMHLD	16	288	7	96
BRTAP	17	0	0
NMTAP	17	48	1
NMTAP	17	72	3
NMTAP	17	96	2
NMTAP	17	120	3
NMTAP	17	144	2
NMTAP	17	168	3
NMTAP	17	192	1
NMTAP	17	216	3
NMTAP	17	240	2
NMTAP	17	264	3
NMTAP	17	288	2
NMTAP	17	312	3
NMTAP	17	336	2
NMTAP	17	360	3
NMTAP	18	0	1
NMTAP	18	48	0
NMTAP	18	96	7
NMTAP	18	144	6
NMTTP	18	240	5	E	0	M1
NMTTP	18	288	3	E	0	M1
NMTTP	18	336	4	E	0	M1
NMTAP	19	0	6
NMTAP	19	48	6
NMTAP	19	72	4
NMTAP	19	96	5
NMTAP	19	120	4
NMTAP	19	144	5
NMTAP	19	168	4
NMTAP	19	192	6
NMTAP	19	216	4
NMTAP	19	240	5
NMTAP	19	264	4
NMTAP	19	288	5
NMTAP	19	312	4
NMTAP	19	336	5
NMTAP	19	360	4
NMTAP	20	0	6
NMTAP	20	48	7
NMTAP	20	96	0
NMTAP	20	144	1
NMTTP	20	240	3	E	0	M1
NMTTP	20	288	5	E	0	M1
NMTTP	20	336	4	E	0	M1
NMHLD	21	0	1	96
NMHLD	21	96	3	96
NMTAP	21	192	4
NMHLD	21	240	4	528
BRTAP	21	336	7
BRTAP	22	0	7
BRTAP	22	48	7
BRTAP	22	96	7
BRTAP	22	144	7
BRTAP	22	192	7
BRTAP	22	240	7
BRTAP	22	288	7
BRTAP	22	336	7
BRTAP	23	0	7
NMSTR	23	96	5
NMSI_	23	96	5	96	48	1
NMSTR	23	96	6
NMSI_	23	96	6	96	48	2
NMTAP	23	192	5
NMTAP	23	192	6
NMHLD	23	336	0	96
NMTAP	24	48	3
NMTAP	24	96	3
NMTAP	24	144	4
NMTAP	24	192	3
NMTAP	24	192	5
NMTAP	24	240	2
NMTAP	24	240	4
NMTAP	24	288	3
NMTAP	24	288	5
NMTAP	24	336	2
NMTAP	24	336	4
NMTAP	25	0	3
NMSTR	25	0	5
NMSI_	25	0	5	96	48	0
NMSTR	25	96	2
NMSI_	25	96	2	96	48	7
NMTAP	25	96	5
NMTAP	25	192	2
NMSTR	25	192	4
NMSI_	25	192	4	96	48	0
NMSTR	25	288	3
NMSCL	25	288	3	96	48	0
NMTAP	25	288	4
NMTAP	26	0	3
NMSTR	26	0	4
NMSCR	26	0	4	96	48	7
NMTAP	26	96	4
BRTAP	26	192	0
NMTAP	26	288	2
NMTAP	26	288	6
BRTAP	27	0	1
BRTAP	27	0	5
NMTAP	27	48	6
NMTAP	27	72	7
NMTAP	27	96	6
NMTAP	27	144	1
NMTAP	27	168	0
NMTAP	27	192	1
NMTAP	27	240	6
NMTAP	27	264	7
NMTAP	27	288	6
NMTAP	27	336	4
NMTAP	27	336	5
NMTAP	28	0	3
NMTAP	28	0	4
NMTAP	28	48	2
NMTAP	28	72	3
NMTAP	28	96	2
NMTAP	28	144	5
NMTAP	28	168	4
NMTAP	28	192	5
NMTAP	28	240	2
NMTAP	28	264	3
NMTAP	28	288	2
NMTAP	28	336	2
NMTAP	28	336	3
NMTAP	29	0	2
NMTAP	29	0	3
NMTAP	29	48	1
NMTAP	29	72	0
NMTAP	29	96	1
NMTAP	29	144	6
NMTAP	29	168	7
NMTAP	29	192	6
NMTAP	29	240	1
NMTAP	29	264	0
NMTAP	29	288	1
NMTAP	29	336	2
NMTAP	29	336	3
BRTAP	30	0	3
BRTAP	30	0	4
BRTAP	30	48	5
BRTAP	30	72	4
BRTAP	30	96	5
BRTAP	30	144	2
BRTAP	30	168	3
BRTAP	30	192	2
BRTAP	30	240	5
BRTAP	30	264	4
BRTAP	30	288	5
BRTAP	30	336	5
NMTAP	31	0	6
NMTAP	31	24	7
NMTAP	31	48	6
NMTAP	31	72	7
NMTAP	31	96	6
NMTAP	31	144	5
NMTAP	31	168	4
NMTAP	31	192	5
NMTAP	31	216	4
NMTAP	31	240	5
NMTAP	31	264	4
NMTAP	31	288	3
NMTAP	31	288	6
NMTAP	31	336	3
NMTAP	31	336	6
NMTAP	32	0	2
NMTAP	32	24	3
NMTAP	32	48	2
NMTAP	32	72	3
NMTAP	32	96	1
NMTAP	32	96	4
NMTAP	32	144	1
NMTAP	32	144	4
NMTAP	32	192	2
NMTAP	32	216	3
NMTAP	32	240	2
NMTAP	32	264	3
NMTAP	32	288	1
NMTAP	32	288	4
NMTAP	32	336	1
NMTAP	32	336	4
NMTAP	33	0	5
NMTAP	33	24	3
NMTAP	33	48	5
NMTAP	33	72	3
NMTAP	33	96	6
NMTAP	33	120	2
NMTAP	33	144	6
NMTAP	33	168	2
NMTAP	33	192	7
NMTAP	33	216	1
NMTAP	33	240	7
NMTAP	33	264	1
NMTAP	33	288	0
NMTAP	33	336	0
NMTAP	34	0	2
NMTAP	34	24	4
NMTAP	34	48	2
NMTAP	34	72	4
NMTAP	34	96	0
NMTAP	34	120	6
NMTAP	34	144	0
NMTAP	34	168	6
EXTAP	34	192	1
EXTAP	34	192	5
EXTAP	34	240	1
EXTAP	34	240	5
EXTAP	34	288	1
EXTAP	34	288	5
BRTAP	35	0	2
BRTAP	35	0	6
NMTAP	35	48	1
NMTAP	35	72	0
NMTAP	35	96	1
NMTAP	35	144	6
NMTAP	35	168	7
NMTAP	35	192	6
NMTAP	35	240	1
NMTAP	35	264	0
NMTAP	35	288	1
NMTAP	35	336	2
NMTAP	35	336	3
NMTAP	36	0	3
NMTAP	36	0	4
NMTAP	36	48	5
NMTAP	36	72	4
NMTAP	36	96	5
NMTAP	36	144	2
NMTAP	36	168	3
NMTAP	36	192	2
NMTAP	36	240	5
NMTAP	36	264	4
NMTAP	36	288	5
NMTAP	36	336	4
NMTAP	36	336	5
NMTAP	37	0	4
NMTAP	37	0	5
NMTAP	37	48	6
NMTAP	37	72	7
NMTAP	37	96	6
NMTAP	37	144	1
NMTAP	37	168	0
NMTAP	37	192	1
NMTAP	37	240	6
NMTAP	37	264	7
NMTAP	37	288	6
NMTAP	37	336	4
NMTAP	37	336	5
NMTAP	38	0	3
NMTAP	38	0	4
NMTAP	38	48	2
NMTAP	38	72	3
NMTAP	38	96	2
NMTAP	38	144	5
NMTAP	38	168	4
NMTAP	38	192	5
NMTAP	38	240	2
NMTAP	38	264	3
NMTAP	38	288	2
NMTAP	38	336	1
NMTAP	38	336	3
NMTAP	39	0	1
NMTAP	39	24	0
NMTAP	39	48	1
NMTAP	39	72	0
NMTAP	39	96	1
NMTAP	39	144	2
NMTAP	39	168	3
NMTAP	39	192	2
NMTAP	39	216	3
NMTAP	39	240	2
NMTAP	39	264	3
NMTAP	39	288	1
NMTAP	39	288	4
NMTAP	39	336	1
NMTAP	39	336	4
NMTAP	40	0	5
NMTAP	40	24	4
NMTAP	40	48	5
NMTAP	40	72	4
NMTAP	40	96	3
NMTAP	40	96	6
NMTAP	40	144	3
NMTAP	40	144	6
NMTAP	40	192	5
NMTAP	40	216	4
NMTAP	40	240	5
NMTAP	40	264	4
NMTAP	40	288	3
NMTAP	40	288	6
NMTAP	40	336	3
NMTAP	40	336	6
NMTAP	41	0	2
NMTAP	41	24	4
NMTAP	41	48	2
NMTAP	41	72	4
NMTAP	41	96	1
NMTAP	41	120	5
NMTAP	41	144	1
NMTAP	41	168	5
NMTAP	41	192	0
NMTAP	41	216	6
NMTAP	41	240	0
NMTAP	41	264	6
NMTAP	41	288	7
NMTAP	41	336	7
NMTAP	42	0	5
NMTAP	42	24	3
NMTAP	42	48	5
NMTAP	42	72	3
NMTAP	42	96	7
NMTAP	42	120	1
NMTAP	42	144	7
NMTAP	42	168	1
EXTAP	42	192	2
EXTAP	42	192	6
EXSTR	42	240	2
NMSCR	42	240	2	96	48	5
EXTAP	42	240	6
EXTAP	42	288	2
EXSTR	42	288	6
NMSCR	42	288	6	96	48	1
EXHLD	43	288	3	48
EXHLD	43	288	4	48
NMSTR	44	0	1
NMSCR	44	0	1	96	48	4
NMTAP	44	144	7
NMTAP	44	192	7
NMTAP	44	240	4
NMTAP	44	288	4
NMTAP	44	336	5
NMTAP	45	0	2
NMTAP	45	48	3
NMTAP	45	96	1
NMHLD	45	144	1	96
NMTTP	45	240	3	E	0	M1
NMTTP	45	288	4	E	0	M1
NMSTR	46	0	6
NMSCL	46	0	6	96	48	3
NMTAP	46	144	0
NMTAP	46	192	0
NMTAP	46	240	3
NMTAP	46	288	3
NMTAP	46	336	2
NMTAP	47	0	5
NMTAP	47	48	4
NMTAP	47	96	4
NMTAP	47	144	4
NMTAP	47	168	5
NMTAP	47	192	6
NMTAP	47	216	7
NMTAP	47	240	0
NMTAP	47	264	1
NMTAP	47	288	2
NMTAP	47	312	3
NMTAP	47	336	4
NMTAP	48	48	4
NMTAP	48	48	6
NMTAP	48	96	3
NMTAP	48	96	4
NMTAP	48	144	1
NMTAP	48	144	3
EXTAP	48	192	1
EXTAP	48	192	3
EXTAP	48	288	3
EXTAP	48	288	4
EXTAP	49	0	4
EXTAP	49	0	6
NMTAP	49	48	7
NMTAP	49	96	0
NMHLD	49	144	1	96
NMTTP	49	240	3	E	0	M1
NMTTP	49	288	4	E	0	M1
NMSTR	50	0	6
NMSCL	50	0	6	96	48	3
NMTAP	50	144	0
NMTAP	50	192	0
NMTAP	50	240	3
NMTAP	50	288	3
NMTAP	50	336	2
NMTAP	51	0	5
NMTAP	51	48	4
NMTAP	51	96	6
NMHLD	51	144	6	96
NMTTP	51	240	5	E	0	M1
NMTTP	51	288	4	E	0	M1
NMSTR	52	0	1
NMSI_	52	0	1	96	48	5
NMTAP	52	96	5
NMTAP	52	144	6
NMTAP	52	192	7
NMHLD	52	240	7	96
NMSTR	52	336	4
NMSI_	52	336	4	96	48	0
NMSTR	53	48	5
NMSI_	53	48	5	96	48	2
NMTAP	53	144	7
NMTAP	53	192	7
NMTAP	53	240	7
NMTAP	53	336	0
NMTAP	53	336	6
NMTAP	54	0	1
NMTAP	54	0	5
NMTAP	54	48	2
NMTAP	54	48	4
NMTAP	54	144	1
NMTAP	54	144	7
NMTAP	54	192	2
NMTAP	54	192	6
NMTAP	54	240	3
NMTAP	54	240	5
NMTAP	54	336	1
NMTAP	55	0	1
NMTAP	55	32	3
NMTAP	55	64	2
NMTAP	55	96	6
NMTAP	55	128	4
NMTAP	55	160	5
NMSTR	55	192	0
NMSI_	55	192	0	96	48	4
BRTAP	55	288	0
BRTAP	55	288	4
NMSTR	56	0	6
NMSI_	56	0	6	96	48	2
NMTAP	56	96	2
NMTAP	56	144	1
NMTAP	56	192	0
NMHLD	56	240	0	96
NMSTR	56	336	3
NMSI_	56	336	3	96	48	7
NMSTR	57	48	2
NMSI_	57	48	2	96	48	5
NMTAP	57	144	0
NMTAP	57	192	0
NMTAP	57	240	7
NMTAP	57	288	7
NMTAP	58	0	6
NMTAP	58	32	4
NMTAP	58	64	5
NMTAP	58	96	1
NMTAP	58	128	3
NMTAP	58	160	2
NMTAP	58	192	5
NMTAP	58	224	4
NMTAP	58	256	6
NMTAP	58	288	2
NMTAP	58	320	3
NMTAP	58	352	1
NMTAP	59	0	6
NMTAP	59	32	4
NMTAP	59	64	5
NMTAP	59	96	1
NMTAP	59	128	3
NMTAP	59	160	2
NMSTR	59	192	7
NMSCL	59	192	7	96	48	4
NMSTR	59	288	0
NMSCR	59	288	0	96	48	3
NMTAP	59	288	7
NMTAP	60	0	0
NMSTR	60	0	6
NMSI_	60	0	6	96	48	2
NMTAP	60	96	2
NMTAP	60	144	1
NMTAP	60	192	0
NMHLD	60	240	0	96
NMSTR	60	336	3
NMSI_	60	336	3	96	48	7
NMSTR	61	48	2
NMSI_	61	48	2	96	48	5
NMTAP	61	144	0
NMTAP	61	192	0
NMTAP	61	240	0
NMTAP	61	336	1
NMTAP	61	336	7
NMTAP	62	0	2
NMTAP	62	0	6
NMTAP	62	48	3
NMTAP	62	48	5
NMTAP	62	144	0
NMTAP	62	144	6
NMTAP	62	192	1
NMTAP	62	192	5
NMTAP	62	240	2
NMTAP	62	240	4
NMTAP	62	336	6
NMTAP	63	0	6
NMTAP	63	32	4
NMTAP	63	64	5
NMTAP	63	96	1
NMTAP	63	128	3
NMTAP	63	160	2
NMSTR	63	192	7
NMSI_	63	192	7	96	48	3
BRTAP	63	288	3
BRTAP	63	288	7
NMSTR	64	0	1
NMSI_	64	0	1	96	48	5
NMTAP	64	96	5
NMTAP	64	144	6
NMTAP	64	192	7
NMHLD	64	240	7	96
NMSTR	64	336	4
NMSI_	64	336	4	96	48	0
NMSTR	65	48	5
NMSI_	65	48	5	96	48	2
NMTAP	65	144	7
NMTAP	65	192	7
NMTAP	65	240	0
NMTAP	65	288	0
NMTAP	66	0	2
NMTAP	66	32	3
NMTAP	66	64	2
NMTAP	66	96	5
NMTAP	66	128	4
NMTAP	66	160	5
NMTAP	66	192	2
NMTAP	66	224	3
NMTAP	66	256	1
NMTAP	66	288	5
NMTAP	66	320	4
NMTAP	66	352	6
NMTAP	67	0	2
NMTAP	67	32	3
NMTAP	67	64	0
NMTAP	67	96	5
NMTAP	67	128	4
NMTAP	67	160	7
NMSTR	67	192	3
NMSCL	67	192	3	96	48	0
NMTAP	67	288	3
NMSTR	67	288	4
NMSCR	67	288	4	96	48	7
NMSTR	68	0	1
NMSI_	68	0	1	96	48	3
NMTAP	68	0	4
CNSV_	68	144	3	0	96	4
CNSI_	68	240	4	0	48	6
NMSTR	68	288	7
NMSI_	68	288	7	96	48	3
NMSTR	69	0	7
NMSI_	69	0	7	96	48	1
NMSI_	69	0	7	96	48	5
NMSTR	69	96	7
NMSF_	69	96	7	96	48	3
EXTAP	69	288	1
EXTAP	69	288	5
BRTAP	70	0	1
BRTAP	70	0	5
NMTAP	70	48	2
NMTAP	70	72	3
NMTAP	70	96	2
NMTAP	70	144	5
NMTAP	70	168	4
NMTAP	70	192	5
NMTAP	70	240	2
NMTAP	70	264	3
NMTAP	70	288	2
NMTAP	70	336	2
NMTAP	70	336	3
NMTAP	71	0	3
NMTAP	71	0	4
NMTAP	71	48	5
NMTAP	71	72	4
NMTAP	71	96	5
NMTAP	71	144	2
NMTAP	71	168	3
NMTAP	71	192	2
NMTAP	71	240	5
NMTAP	71	264	4
NMTAP	71	288	5
NMTAP	71	336	4
NMTAP	71	336	5
NMTAP	72	0	4
NMTAP	72	0	5
NMTAP	72	48	5
NMTAP	72	72	4
NMTAP	72	96	5
NMTAP	72	144	2
NMTAP	72	168	3
NMTAP	72	192	2
NMTAP	72	240	5
NMTAP	72	264	4
NMTAP	72	288	5
NMTAP	72	336	4
NMTAP	72	336	5
BRTAP	73	0	3
BRTAP	73	0	4
BRTAP	73	48	2
BRTAP	73	72	3
BRTAP	73	96	2
BRTAP	73	144	5
BRTAP	73	168	4
BRTAP	73	192	5
BRTAP	73	240	2
BRTAP	73	264	3
BRTAP	73	288	2
BRTAP	73	336	1
BRTAP	73	336	3
NMTAP	74	0	2
NMTAP	74	24	3
NMTAP	74	48	2
NMTAP	74	72	3
NMTAP	74	96	2
NMTAP	74	144	2
NMTAP	74	168	3
NMTAP	74	192	2
NMTAP	74	216	3
NMTAP	74	240	2
NMTAP	74	264	3
NMTAP	74	288	1
NMTAP	74	288	4
NMTAP	74	336	1
NMTAP	74	336	4
NMTAP	75	0	5
NMTAP	75	24	4
NMTAP	75	48	5
NMTAP	75	72	4
NMTAP	75	96	3
NMTAP	75	96	6
NMTAP	75	144	3
NMTAP	75	144	6
NMTAP	75	192	5
NMTAP	75	216	4
NMTAP	75	240	5
NMTAP	75	264	4
NMTAP	75	288	3
NMTAP	75	288	6
NMTAP	75	336	3
NMTAP	75	336	6
NMTAP	76	0	2
NMTAP	76	24	4
NMTAP	76	48	2
NMTAP	76	72	4
NMTAP	76	96	1
NMTAP	76	120	5
NMTAP	76	144	1
NMTAP	76	168	5
NMTAP	76	192	0
NMTAP	76	216	6
NMTAP	76	240	0
NMTAP	76	264	6
NMTAP	76	288	7
NMTAP	76	336	7
NMTAP	77	0	5
NMTAP	77	24	3
NMTAP	77	48	5
NMTAP	77	72	3
NMTAP	77	96	7
NMTAP	77	120	1
NMTAP	77	144	7
NMTAP	77	168	1
EXTAP	77	192	2
EXTAP	77	192	6
EXTAP	77	240	2
EXTAP	77	240	6
EXTAP	77	288	2
EXTAP	77	288	6
BRTAP	78	0	1
BRTAP	78	0	5
NMTAP	78	48	5
NMTAP	78	72	7
NMTAP	78	96	5
NMTAP	78	144	2
NMTAP	78	168	0
NMTAP	78	192	2
NMTAP	78	240	5
NMTAP	78	264	7
NMTAP	78	288	5
NMTAP	78	336	2
NMTAP	78	336	4
NMTAP	79	0	2
NMTAP	79	0	4
NMTAP	79	48	1
NMTAP	79	72	3
NMTAP	79	96	1
NMTAP	79	144	6
NMTAP	79	168	4
NMTAP	79	192	6
NMTAP	79	240	1
NMTAP	79	264	3
NMTAP	79	288	1
NMTAP	79	336	2
NMTAP	79	336	4
NMTAP	80	0	2
NMTAP	80	0	4
NMTAP	80	48	2
NMTAP	80	72	0
NMTAP	80	96	2
NMTAP	80	144	5
NMTAP	80	168	7
NMTAP	80	192	5
NMTAP	80	240	2
NMTAP	80	264	0
NMTAP	80	288	2
NMTAP	80	336	2
NMTAP	80	336	4
NMTAP	81	0	3
NMTAP	81	0	5
NMTAP	81	48	6
NMTAP	81	72	4
NMTAP	81	96	6
NMTAP	81	144	1
NMTAP	81	168	3
NMTAP	81	192	1
NMTAP	81	240	6
NMTAP	81	264	4
NMTAP	81	288	6
NMTAP	81	336	1
NMTAP	81	336	7
NMTAP	82	0	5
NMTAP	82	24	7
NMTAP	82	48	5
NMTAP	82	72	7
NMTAP	82	96	5
NMTAP	82	144	5
NMTAP	82	168	7
NMTAP	82	192	5
NMTAP	82	216	7
NMTAP	82	240	5
NMTAP	82	264	7
NMTAP	82	288	0
NMTAP	82	288	4
NMTAP	82	336	0
NMTAP	82	336	4
NMTAP	83	0	1
NMTAP	83	24	3
NMTAP	83	48	1
NMTAP	83	72	3
NMTAP	83	96	0
NMTAP	83	96	4
NMTAP	83	144	0
NMTAP	83	144	4
NMTAP	83	192	1
NMTAP	83	216	3
NMTAP	83	240	1
NMTAP	83	264	3
NMTAP	83	288	0
NMTAP	83	288	4
NMTAP	83	336	0
NMTAP	83	336	4
NMTAP	84	0	5
NMTAP	84	24	4
NMTAP	84	48	5
NMTAP	84	72	4
NMTAP	84	96	6
NMTAP	84	120	3
NMTAP	84	144	6
NMTAP	84	168	3
NMTAP	84	192	7
NMTAP	84	216	2
NMTAP	84	240	7
NMTAP	84	264	2
NMTAP	84	288	0
NMTAP	84	336	0
NMTAP	85	0	2
NMTAP	85	24	3
NMTAP	85	48	2
NMTAP	85	72	3
NMTAP	85	96	0
NMTAP	85	120	5
NMTAP	85	144	0
NMTAP	85	168	5
EXTAP	85	192	1
EXTAP	85	192	4
EXTAP	85	240	0
EXTAP	85	240	5
EXTAP	85	288	0
EXTAP	85	288	5
BRTAP	86	0	0
BRTAP	86	0	6
NMTAP	86	48	7
NMTAP	86	72	7
NMTAP	86	96	7
NMTAP	86	144	0
NMTAP	86	168	0
NMTAP	86	192	0
NMTAP	86	240	6
NMTAP	86	264	6
NMTAP	86	288	6
NMTAP	86	336	3
NMTAP	86	336	5
NMTAP	87	0	2
NMTAP	87	0	4
NMTAP	87	48	3
NMTAP	87	72	3
NMTAP	87	96	3
NMTAP	87	144	4
NMTAP	87	168	4
NMTAP	87	192	4
NMTAP	87	240	2
NMTAP	87	264	2
NMTAP	87	288	2
NMTAP	87	336	0
NMTAP	88	0	1
NMTAP	88	0	7
NMTAP	88	48	0
NMTAP	88	72	0
NMTAP	88	96	0
NMTAP	88	144	7
NMTAP	88	168	7
NMTAP	88	192	7
NMTAP	88	240	1
NMTAP	88	264	1
NMTAP	88	288	1
NMTAP	88	336	2
NMTAP	88	336	4
BRTAP	89	0	3
BRTAP	89	0	5
BRTAP	89	48	4
BRTAP	89	72	4
BRTAP	89	96	4
BRTAP	89	144	3
BRTAP	89	168	3
BRTAP	89	192	3
BRTAP	89	240	5
BRTAP	89	264	5
BRTAP	89	288	5
BRTAP	89	336	0
BRTAP	89	336	6
NMTAP	90	0	7
NMTAP	90	24	7
NMTAP	90	48	7
NMTAP	90	72	7
NMTAP	90	96	7
NMTAP	90	144	4
NMTAP	90	168	4
NMTAP	90	192	4
NMTAP	90	216	4
NMTAP	90	240	4
NMTAP	90	264	4
NMTAP	90	288	3
NMTAP	90	288	5
NMTAP	90	336	2
NMTAP	90	336	4
NMTAP	91	0	3
NMTAP	91	24	3
NMTAP	91	48	3
NMTAP	91	72	3
NMTAP	91	96	2
NMTAP	91	96	4
NMTAP	91	144	2
NMTAP	91	144	4
NMTAP	91	192	3
NMTAP	91	216	3
NMTAP	91	240	3
NMTAP	91	264	3
NMTAP	91	288	2
NMTAP	91	288	4
NMTAP	91	336	1
NMTAP	91	336	3
NMTAP	92	0	2
NMTAP	92	24	2
NMTAP	92	48	2
NMTAP	92	72	2
NMTAP	92	96	3
NMTAP	92	120	3
NMTAP	92	144	3
NMTAP	92	168	3
NMTAP	92	192	4
NMTAP	92	216	4
NMTAP	92	240	4
NMTAP	92	264	4
NMTAP	92	288	5
NMTAP	92	336	6
NMTAP	93	0	7
NMTAP	93	24	7
NMTAP	93	48	7
NMTAP	93	72	7
NMTAP	93	96	0
NMTAP	93	120	0
NMTAP	93	144	0
NMTAP	93	168	0
EXTAP	93	192	1
EXTAP	93	192	7
EXSTR	93	240	1
NMSCR	93	240	1	96	48	4
EXTAP	93	240	7
EXTAP	93	288	1
EXSTR	93	288	7
NMSCL	93	288	7	96	48	4
NMSTR	94	288	0
NMSI_	94	288	0	96	48	4
NMSTR	94	288	7
NMSI_	94	288	7	96	48	5
NMSTR	95	0	0
NMSI_	95	0	0	96	48	2
NMSTR	95	0	7
NMSI_	95	0	7	96	48	3
NMSTR	95	96	0
NMSI_	95	96	0	96	48	4
NMSTR	95	96	7
NMSI_	95	96	7	96	48	5
NMSTR	95	192	0
NMSI_	95	192	0	96	48	2
NMSTR	95	192	7
NMSI_	95	192	7	96	48	3
NMTAP	95	288	0
NMTAP	95	288	7
NMTAP	96	0	4
NMTAP	96	48	3
NMTAP	96	96	2
NMTAP	96	144	1
NMTAP	96	192	0
EXTAP	96	240	7
EXSTR	96	288	6
NMSI_	96	288	6	96	48	4
EXSTR	96	288	7
NMSI_	96	288	7	96	48	3
EXTAP	96	336	5
NMSTR	97	0	6
NMSI_	97	0	6	96	48	2
NMSTR	97	0	7
NMSI_	97	0	7	96	48	1
NMSTR	97	96	6
NMSI_	97	96	6	96	48	4
NMSTR	97	96	7
NMSI_	97	96	7	96	48	3
NMSTR	97	192	6
NMSI_	97	192	6	96	48	2
NMSTR	97	192	7
NMSI_	97	192	7	96	48	1
NMTAP	97	288	6
NMTAP	97	288	7
NMTAP	98	0	3
NMTAP	98	48	3
NMTAP	98	96	4
NMTAP	98	144	4
NMTAP	98	192	3
EXTAP	98	240	2
EXSTR	98	288	0
NMSI_	98	288	0	96	48	4
EXSTR	98	288	1
NMSI_	98	288	1	96	48	3
EXTAP	98	336	2
NMSTR	99	0	0
NMSI_	99	0	0	96	48	6
NMSTR	99	0	1
NMSI_	99	0	1	96	48	5
NMSTR	99	96	0
NMSI_	99	96	0	96	48	4
NMSTR	99	96	1
NMSI_	99	96	1	96	48	3
NMSTR	99	192	0
NMSI_	99	192	0	96	48	6
NMSTR	99	192	1
NMSI_	99	192	1	96	48	5
NMTAP	99	288	0
NMTAP	99	288	1
NMTAP	100	0	4
NMTAP	100	48	4
NMTAP	100	96	3
NMTAP	100	144	4
NMSTR	100	192	2
NMSCL	100	192	2	96	48	0
NMSTR	100	192	5
NMSCR	100	192	5	96	48	7
NMTAP	100	288	2
NMTAP	100	288	5
NMHLD	101	0	1	96
NMSTR	101	0	6
NMSUL	101	0	6	96	432	4
NMTTP	101	144	0	C	0	M1
NMTTP	101	192	0	C	0	M1
NMTTP	101	240	0	C	0	M1
NMTTP	101	288	0	C	0	M1
NMTTP	101	336	0	C	0	M1
NMTTP	102	0	0	C	0	M1
NMTTP	102	48	0	C	0	M1
NMTTP	102	96	0	C	0	M1
NMTTP	102	144	0	C	0	M1
NMTTP	102	192	0	C	0	M1
NMSTR	102	288	0
NMSCR	102	288	0	96	48	2
NMSTR	102	288	7
NMSUR	102	288	7	96	48	3
NMSTR	103	0	0
NMSUL	103	0	0	96	48	4
NMSTR	103	0	7
NMSCL	103	0	7	96	48	5
NMSTR	103	96	0
NMSCR	103	96	0	96	48	2
NMSTR	103	96	7
NMSUR	103	96	7	96	48	3
NMSTR	103	192	0
NMSUL	103	192	0	96	48	4
NMSTR	103	192	7
NMSCL	103	192	7	96	48	5
NMTAP	103	288	0
NMTAP	103	288	7
NMTAP	104	0	1
NMTAP	104	48	0
NMTAP	104	96	7
NMTAP	104	144	6
NMTAP	104	192	5
EXTAP	104	240	4
EXSTR	104	288	2
NMSI_	104	288	2	96	48	0
EXSTR	104	288	3
NMSI_	104	288	3	96	48	7
EXTAP	104	336	1
NMSTR	105	0	2
NMSI_	105	0	2	96	48	6
NMSTR	105	0	3
NMSI_	105	0	3	96	48	5
NMSTR	105	96	2
NMSI_	105	96	2	96	48	0
NMSTR	105	96	3
NMSI_	105	96	3	96	48	7
NMSTR	105	192	2
NMSI_	105	192	2	96	48	6
NMSTR	105	192	3
NMSI_	105	192	3	96	48	5
NMTAP	105	288	2
NMTAP	105	288	3
NMTAP	106	0	0
NMTAP	106	48	0
NMTAP	106	96	7
NMTAP	106	144	7
NMTAP	106	192	0
EXTAP	106	240	6
EXSTR	106	288	4
NMSI_	106	288	4	96	48	0
EXSTR	106	288	5
NMSI_	106	288	5	96	48	7
EXTAP	106	336	6
NMSTR	107	0	4
NMSI_	107	0	4	96	48	2
NMSTR	107	0	5
NMSI_	107	0	5	96	48	1
NMSTR	107	96	4
NMSI_	107	96	4	96	48	0
NMSTR	107	96	5
NMSI_	107	96	5	96	48	7
NMSTR	107	192	4
NMSI_	107	192	4	96	48	2
NMSTR	107	192	5
NMSI_	107	192	5	96	48	1
NMTAP	107	288	4
NMTAP	107	288	5
NMTAP	108	0	7
NMTAP	108	48	7
NMTAP	108	96	0
NMTAP	108	144	7
NMSTR	108	192	1
NMSCR	108	192	1	96	48	3
NMSTR	108	192	6
NMSCL	108	192	6	96	48	4
NMTAP	108	288	1
NMTAP	108	288	6
NMSTR	109	0	2
NMSUL	109	0	2	96	432	0
NMHLD	109	0	5	96
NMTTP	109	144	0	C	0	M1
NMTTP	109	192	0	C	0	M1
NMTTP	109	240	0	C	0	M1
NMTTP	109	288	0	C	0	M1
NMTTP	109	336	0	C	0	M1
NMTTP	110	0	0	C	0	M1
NMTTP	110	48	0	C	0	M1
NMTTP	110	96	0	C	0	M1
NMTTP	110	144	0	C	0	M1
NMTTP	110	192	0	C	0	M1
BRSTR	110	240	0
NMSI_	110	240	0	96	48	4
BRSTR	110	240	7
NMSI_	110	240	7	96	48	3
BRTAP	110	336	0
BRTAP	110	336	7

T_REC_TAP	794
T_REC_BRK	66
T_REC_XTP	46
T_REC_BXX	0
T_REC_HLD	17
T_REC_XHO	2
T_REC_BHO	0
T_REC_BXH	0
T_REC_STR	104
T_REC_BST	2
T_REC_XST	12
T_REC_XBS	0
T_REC_TTP	32
T_REC_THO	0
T_REC_SLD	120
T_REC_BSL	0
T_REC_ALL	1195
T_NUM_TAP	988
T_NUM_BRK	68
T_NUM_HLD	19
T_NUM_SLD	120
T_NUM_ALL	1195
T_JUDGE_TAP	1056
T_JUDGE_HLD	45
T_JUDGE_SLD	120
T_JUDGE_ALL	1221
TTM_EACHPAIRS	165
TTM_SCR_TAP	494000
TTM_SCR_BRK	176800
TTM_SCR_HLD	19000
TTM_SCR_SLD	180000
TTM_SCR_ALL	869800
TTM_SCR_S	837150
TTM_SCR_SS	863000
TTM_RAT_ACV	10078

