VERSION	0.00.00	1.05.00
FES_MODE	0
BPM_DEF	160.000	160.000	160.000	160.000
MET_DEF	4	4
RESOLUTION	384
CLK_DEF	384
COMPATIBLE_CODE	MA2

BPM	0	0	160.000
MET	0	0	4	4

NMSTR	1	0	0
BRSLR	1	0	0	96	96	4
NMSTR	1	96	4
BRSLR	1	96	4	96	96	0
NMHLD	2	0	3	48
NMHLD	2	0	4	48
NMTAP	2	96	6
NMTAP	2	96	7
NMTAP	2	144	5
NMHLD	2	192	3	48
NMHLD	2	192	4	48
NMTAP	2	288	0
NMTAP	2	288	1
NMTAP	2	336	2
NMHLD	3	0	3	48
NMHLD	3	0	4	48
NMTAP	3	96	6
NMTAP	3	96	7
NMTAP	3	144	5
NMHLD	3	192	3	48
NMHLD	3	192	4	48
NMTAP	3	288	0
NMTAP	3	288	1
NMTAP	3	336	2
NMHLD	4	0	3	48
NMHLD	4	0	5	48
NMTAP	4	96	6
NMTAP	4	96	7
NMTAP	4	144	5
NMHLD	4	192	2	48
NMHLD	4	192	4	48
NMTAP	4	288	0
NMTAP	4	288	1
NMTAP	4	336	2
NMHLD	5	0	3	48
NMHLD	5	0	5	48
NMTAP	5	96	6
NMTAP	5	96	7
NMTAP	5	144	5
NMHLD	5	192	2	48
NMHLD	5	192	4	48
NMTAP	5	288	0
NMTAP	5	288	1
NMTAP	5	336	2
NMHLD	6	0	3	48
NMHLD	6	0	4	48
NMTAP	6	96	0
NMTAP	6	96	6
NMTAP	6	144	5
NMHLD	6	192	3	48
NMHLD	6	192	4	48
NMTAP	6	288	1
NMTAP	6	288	7
NMTAP	6	336	2
NMHLD	7	0	3	48
NMHLD	7	0	4	48
NMTAP	7	96	0
NMTAP	7	96	6
NMTAP	7	144	5
NMHLD	7	192	3	48
NMHLD	7	192	4	48
NMTAP	7	288	1
NMTAP	7	288	7
NMTAP	7	336	2
NMHLD	8	0	3	48
NMHLD	8	0	4	48
NMTAP	8	96	6
NMTAP	8	96	7
NMTAP	8	144	5
NMHLD	8	192	3	48
NMHLD	8	192	4	48
NMTAP	8	288	0
NMTAP	8	288	1
NMTAP	8	336	2
NMHLD	9	0	3	48
NMHLD	9	0	4	48
NMTAP	9	96	6
NMTAP	9	96	7
NMTAP	9	144	5
NMTAP	9	192	3
NMTAP	9	192	4
BRTAP	9	240	2
BRTAP	9	240	5
BRTAP	9	288	2
BRTAP	9	288	5
NMTAP	10	0	2
NMTAP	10	72	5
NMTAP	10	96	4
NMTAP	10	144	6
NMTAP	10	192	3
NMTAP	10	192	4
NMTAP	10	264	2
NMTAP	10	288	3
NMTAP	10	336	1
NMTAP	11	0	3
NMTAP	11	0	4
NMTAP	11	72	5
NMSTR	11	96	3
NMSXR	11	96	3	96	144	0
NMTAP	11	144	6
NMTAP	11	192	6
EXTAP	11	288	4
NMTAP	12	0	6
NMTAP	12	72	1
NMTAP	12	96	0
NMTAP	12	144	2
NMTAP	12	192	0
NMTAP	12	192	7
NMTAP	12	264	6
NMTAP	12	288	7
NMTAP	12	336	5
NMTAP	13	0	3
NMTAP	13	0	4
NMTAP	13	72	2
NMTAP	13	96	3
NMTAP	13	144	1
NMTAP	13	192	0
NMTAP	13	192	1
NMTTP	13	240	0	B	0	M1
NMTTP	13	240	0	A	0	M1
NMTTP	13	240	6	B	0	M1
NMTTP	13	240	6	A	0	M1
NMTTP	13	240	7	B	0	M1
NMTTP	13	288	0	B	0	M1
NMTTP	13	288	0	A	0	M1
NMTTP	13	288	6	B	0	M1
NMTTP	13	288	6	A	0	M1
NMTTP	13	288	7	B	0	M1
NMTAP	14	0	3
NMTAP	14	0	4
NMTAP	14	72	1
NMTAP	14	96	0
NMTAP	14	144	2
NMTAP	14	192	2
NMTAP	14	192	3
NMTAP	14	264	6
NMTAP	14	288	7
NMTAP	14	336	5
NMTAP	15	0	4
NMTAP	15	0	5
NMTAP	15	72	1
NMTAP	15	96	0
NMTAP	15	144	2
NMTAP	15	192	3
NMTAP	15	192	4
EXTAP	15	240	0
EXTAP	15	240	7
EXSTR	15	288	0
NMSI_	15	288	0	96	48	3
NMSI_	15	288	0	96	48	5
EXTAP	15	288	7
EXSTR	16	96	7
NMSI_	16	96	7	96	48	2
NMSI_	16	96	7	96	48	4
EXSTR	16	288	3
NMSI_	16	288	3	96	72	6
BRSI_	16	288	3	96	48	0
CNSV_	17	48	0	0	96	6
EXTAP	17	240	1
EXTAP	17	240	5
BRTAP	17	288	1
BRTAP	17	288	5
NMTAP	18	0	2
NMSTR	18	0	3
NMSXR	18	0	3	96	96	1
NMSTR	18	96	1
NMSCR	18	96	1	96	96	4
NMSTR	18	192	4
NMSUR	18	192	4	96	96	0
NMSTR	18	288	0
NMSLR	18	288	0	96	96	4
NMSTR	19	0	4
NMSLR	19	0	4	96	96	0
NMTAP	19	96	0
NMHLD	19	192	1	96
EXTAP	19	288	0
NMTAP	20	0	6
NMSTR	20	0	7
NMSXR	20	0	7	96	96	5
NMSTR	20	96	5
NMSCR	20	96	5	96	96	0
NMSTR	20	192	0
NMSUR	20	192	0	96	96	4
NMSTR	20	288	4
NMSLR	20	288	4	96	96	0
NMSTR	21	0	0
NMSLR	21	0	0	96	96	4
NMTAP	21	96	4
NMHLD	21	192	5	96
NMTAP	21	288	4
NMSTR	22	0	6
NMSV_	22	0	6	96	96	1
NMSTR	22	96	1
NMSCL	22	96	1	96	96	6
NMSTR	22	192	6
NMSCL	22	192	6	96	96	3
NMSTR	22	288	3
NMSXL	22	288	3	96	192	7
NMHLD	23	0	2	96
NMTAP	23	144	1
NMSTR	23	192	0
NMSI_	23	192	0	96	48	4
EXTAP	23	288	0
EXTAP	23	288	7
NMTAP	24	0	6
NMTAP	24	0	7
NMTAP	24	48	5
NMTAP	24	96	3
NMTAP	24	96	4
NMTAP	24	144	2
NMTAP	24	192	0
NMTAP	24	192	1
NMTAP	24	240	2
NMTAP	24	288	3
NMSTR	24	288	4
NMSCL	24	288	4	96	96	7
NMTAP	24	336	5
EXTAP	25	0	4
NMHLD	25	0	6	96
EXTAP	25	144	6
EXTAP	25	144	7
EXTAP	25	192	6
EXTAP	25	192	7
BRTAP	25	288	1
BRTAP	25	288	5
NMTAP	26	0	0
NMSTR	26	0	6
NMSCL	26	0	6	96	48	3
NMTAP	26	72	7
NMTAP	26	96	6
NMTAP	26	144	1
NMTAP	26	192	2
NMTAP	26	240	3
NMSTR	26	288	4
NMSUL	26	288	4	96	96	1
NMTAP	26	288	5
NMTAP	26	336	6
BXTAP	27	0	4
BXTAP	27	0	7
EXTAP	27	144	0
EXTAP	27	144	7
EXTAP	27	192	0
EXTAP	27	192	7
BRTAP	27	288	2
BRTAP	27	288	6
NMSTR	28	0	1
NMSCR	28	0	1	96	48	4
NMTAP	28	0	7
NMTAP	28	72	0
NMTAP	28	96	1
NMTAP	28	144	6
NMTAP	28	192	5
NMTAP	28	240	4
NMTAP	28	288	2
NMSTR	28	288	3
NMSUR	28	288	3	96	96	6
NMTAP	28	336	1
BXTAP	29	0	0
BXTAP	29	0	3
NMTAP	29	192	6
NMTAP	29	192	7
NMTAP	29	240	0
NMTAP	29	240	1
BRTAP	29	288	2
BRTAP	29	288	7
NMTAP	30	0	1
NMHLD	30	0	5	72
NMTAP	30	72	7
NMTAP	30	96	7
NMTAP	30	144	6
NMHLD	30	192	1	72
NMTAP	30	192	7
NMTAP	30	264	0
NMTAP	30	288	0
NMTAP	30	336	2
NMTAP	31	0	3
NMHLD	31	0	5	72
NMTAP	31	72	4
NMSTR	31	96	4
NMSUL	31	96	4	96	48	0
NMSUR	31	96	4	96	48	0
NMTAP	31	144	6
BRTAP	31	192	4
NMTAP	31	288	1
NMTAP	31	288	7
NMHLD	32	0	5	72
NMTAP	32	72	7
NMTAP	32	96	7
NMTAP	32	144	6
NMHLD	32	192	2	72
NMTAP	32	192	7
NMTAP	32	264	0
NMTAP	32	288	0
NMTAP	32	336	1
BRTAP	33	0	3
BRTAP	33	0	5
NMTAP	33	48	1
BRTAP	33	96	2
BRTAP	33	96	4
NMTAP	33	144	6
BRTAP	33	192	3
BRTAP	33	192	5
NMTAP	33	240	0
BRTAP	33	288	2
BRTAP	33	288	4
NMTAP	33	336	7
NMSTR	34	0	1
NMSCR	34	0	1	96	48	4
NMTAP	34	0	5
NMTAP	34	72	0
NMTAP	34	96	1
NMTAP	34	144	6
NMTAP	34	192	5
NMTAP	34	240	4
NMTAP	34	288	2
NMSTR	34	288	3
NMSCR	34	288	3	96	24	4
NMTAP	34	336	1
BXTAP	35	0	0
BXTAP	35	0	3
CNSI_	35	24	4	0	24	6
CNSCR	35	48	6	0	48	0
NMTAP	35	192	2
NMTAP	35	192	3
NMTAP	35	240	4
NMTAP	35	240	5
BRTAP	35	288	0
BRTAP	35	288	7
NMTAP	36	0	0
NMSTR	36	0	6
NMSCL	36	0	6	96	48	3
NMTAP	36	72	7
NMTAP	36	96	6
NMTAP	36	144	1
NMTAP	36	192	2
NMTAP	36	240	3
NMSTR	36	288	4
NMSCL	36	288	4	96	24	3
NMTAP	36	288	5
NMTAP	36	336	6
BXTAP	37	0	4
BXTAP	37	0	7
CNSI_	37	24	3	0	24	1
CNSCL	37	48	1	0	48	7
NMTAP	37	192	4
NMTAP	37	192	5
NMTAP	37	240	2
NMTAP	37	240	3
BRTAP	37	288	0
BRTAP	37	288	6
NMTAP	38	0	1
NMHLD	38	0	5	72
NMTAP	38	72	7
NMTAP	38	96	7
NMTAP	38	144	6
NMHLD	38	192	1	72
NMTAP	38	192	7
NMTAP	38	264	0
NMTAP	38	288	0
NMTAP	38	336	2
NMTAP	39	0	3
NMHLD	39	0	5	72
NMTAP	39	72	4
NMSTR	39	96	4
NMSI_	39	96	4	96	48	1
NMSI_	39	96	4	96	48	7
NMTAP	39	144	3
NMTAP	39	144	5
NMTAP	39	192	4
BRTAP	39	288	2
BRTAP	39	288	6
NMHLD	40	0	6	48
NMHLD	40	0	7	48
NMHLD	40	96	0	48
NMHLD	40	96	1	48
NMTAP	40	192	2
NMTAP	40	192	3
NMTAP	40	240	4
NMTAP	40	240	5
NMTAP	40	288	0
NMTAP	40	288	6
NMTAP	41	0	2
NMTAP	41	0	6
NMTAP	41	72	3
NMTAP	41	72	5
NMTAP	41	96	3
NMTAP	41	96	5
NMTAP	41	144	2
NMTAP	41	144	6
NMTAP	41	192	1
NMTAP	41	216	7
NMTAP	41	240	1
EXSTR	41	264	7
NMSCR	41	264	7	96	120	2
EXHLD	41	288	1	192
CNSCL	42	96	2	0	96	7
NMTAP	42	192	1
NMTAP	42	240	1
NMTAP	42	288	0
NMTAP	42	288	1
NMTAP	43	0	0
NMTAP	43	0	1
NMTAP	43	48	2
NMTAP	43	96	2
NMTAP	43	96	3
NMTAP	43	144	1
NMHLD	43	192	0	96
NMHLD	43	192	1	96
NMHLD	44	0	6	72
NMTAP	44	72	4
NMTAP	44	96	5
NMTAP	44	144	2
NMTAP	44	144	4
NMHLD	44	192	1	72
NMTAP	44	264	3
NMTAP	44	288	2
NMTAP	44	336	3
NMTAP	44	336	5
NMHLD	45	0	6	72
NMTAP	45	72	4
NMTAP	45	96	5
NMTAP	45	144	2
NMTAP	45	144	4
NMTAP	45	192	2
NMTAP	45	192	4
NMTAP	45	240	0
NMTAP	45	240	6
EXSTR	45	288	1
NMSCR	45	288	1	96	96	4
EXSTR	45	288	5
NMSCR	45	288	5	96	96	0
CNSCL	46	96	0	0	48	5
CNSCL	46	96	4	0	48	1
NMTAP	46	192	0
NMTAP	46	192	4
NMTAP	46	240	1
NMTAP	46	240	5
NMTAP	46	288	2
NMTAP	46	288	6
NMTAP	47	0	2
NMTAP	47	0	6
NMTAP	47	48	2
NMTAP	47	48	6
NMTAP	47	96	3
NMTAP	47	96	5
NMTAP	47	144	3
NMTAP	47	144	5
NMTAP	47	192	1
NMTAP	47	192	7
EXSTR	47	288	2
NMSCR	47	288	2	96	96	5
EXSTR	47	288	6
NMSCR	47	288	6	96	96	1
CNSCL	48	96	1	0	48	6
CNSCL	48	96	5	0	48	2
NMTAP	48	192	1
NMTAP	48	192	5
NMTAP	48	288	0
NMTAP	48	288	7
NMSTR	49	0	6
NMSI_	49	0	6	96	48	2
EXTAP	49	48	6
NMSTR	49	96	1
NMSI_	49	96	1	96	48	5
EXTAP	49	144	1
NMSTR	49	192	7
NMSI_	49	192	7	96	48	4
EXTAP	49	240	7
BXTAP	49	288	0
BXTAP	49	336	0
BRTAP	50	0	1
BRTAP	50	0	3
NMTAP	50	48	0
NMTAP	50	48	7
NMTAP	50	96	4
NMTAP	50	96	6
NMTAP	50	144	0
NMTAP	50	144	7
NMTAP	50	192	1
NMTAP	50	192	3
NMTAP	50	240	0
NMTAP	50	240	7
NMTAP	50	288	4
NMTAP	50	288	6
NMTAP	50	336	0
NMTAP	50	336	7
BRTAP	51	0	2
NMTAP	51	24	3
NMTAP	51	48	2
NMTAP	51	96	6
NMTAP	51	120	4
NMTAP	51	144	5
NMTAP	51	168	3
NMTAP	51	192	4
NMTAP	51	216	2
NMTAP	51	240	3
NMTAP	51	264	1
BRTAP	51	288	1
BRTAP	52	0	2
BRTAP	52	0	3
NMTAP	52	48	0
NMTAP	52	48	7
NMTAP	52	96	4
NMTAP	52	96	5
NMTAP	52	144	0
NMTAP	52	144	7
NMTAP	52	192	2
NMTAP	52	192	3
NMTAP	52	240	0
NMTAP	52	240	7
NMTAP	52	288	4
NMTAP	52	288	5
NMTAP	52	336	0
NMHLD	52	336	7	72
NMTAP	53	24	0
NMTAP	53	48	7
NMTAP	53	72	0
NMTAP	53	96	7
NMTAP	53	144	1
NMTAP	53	168	4
NMTAP	53	192	2
NMTAP	53	216	3
NMTAP	53	240	1
NMTAP	53	264	0
NMTAP	53	288	1
NMSTR	54	0	7
NMSI_	54	0	7	96	48	5
NMSTR	54	48	3
NMSI_	54	48	3	96	48	1
NMTAP	54	96	7
NMTAP	54	144	3
NMSTR	54	192	7
NMSI_	54	192	7	96	48	3
NMTAP	54	216	0
NMTAP	54	240	7
NMTAP	54	264	0
NMTAP	54	288	7
NMTAP	55	0	2
NMTAP	55	24	3
NMTAP	55	48	1
NMTAP	55	72	4
NMTAP	55	96	0
NMTAP	55	120	5
NMTAP	55	144	7
NMTAP	55	168	6
NMSTR	55	192	0
NMSI_	55	192	0	96	48	4
NMTAP	55	240	1
NMTAP	55	240	7
NMTAP	55	288	0
BXTAP	56	0	1
BXTAP	56	24	3
BXTAP	56	48	1
BXTAP	56	72	3
NMTTP	56	96	0	A	1	M1
NMTTP	56	120	1	A	1	M1
NMTTP	56	144	2	A	1	M1
NMTTP	56	168	3	A	1	M1
NMHLD	56	192	5	72
NMTAP	56	264	3
NMTAP	56	288	4
NMTAP	56	336	3
NMTAP	56	336	5
NMTAP	57	0	2
NMTAP	57	24	3
NMTAP	57	48	2
NMTAP	57	72	3
NMTAP	57	96	1
NMTAP	57	120	4
NMTAP	57	144	1
NMTAP	57	168	4
EXSTR	57	192	0
BRSI_	57	192	0	96	48	4
EXTAP	57	204	1
EXTAP	57	216	2
EXTAP	57	228	3
EXTAP	57	240	4
EXTAP	57	252	5
EXTAP	57	264	6
EXTAP	57	276	7
EXHLD	58	0	3	192
EXSTR	58	0	5
NMSCR	58	0	5	96	672	3
NMHLD	59	0	4	192
CNSCL	60	0	3	0	672	6
NMHLD	60	0	5	192
NMHLD	61	0	4	192
NMTAP	62	0	4
NMTAP	62	0	5
NMTAP	62	96	4
NMTAP	62	96	6
NMTAP	62	192	4
NMTAP	62	192	5
NMTAP	62	288	3
NMTAP	62	288	4
NMTAP	63	0	2
NMTAP	63	0	3
NMTAP	63	96	1
NMTAP	63	96	3
NMTAP	63	192	2
NMTAP	63	192	3
NMTAP	63	288	3
NMTAP	63	288	4
NMTAP	64	0	5
NMTAP	64	48	6
NMTAP	64	96	0
NMTAP	64	96	7
NMTAP	64	144	1
NMTAP	64	192	2
NMTAP	64	192	4
NMTAP	64	240	5
NMTAP	64	288	6
NMTAP	64	288	7
NMTAP	64	336	0
NMTHO	65	0	0	384	C	0	M1
NMTAP	65	0	1
NMTTP	66	0	0	B	0	M1
NMTTP	66	0	1	B	0	M1
NMTTP	66	0	6	B	0	M1
NMTTP	66	0	7	B	0	M1
EXTAP	66	240	1
EXTAP	66	240	6
EXTAP	66	288	1
EXTAP	66	288	6
NMSTR	67	0	2
NMSCL	67	0	2	96	48	7
NMTAP	67	0	4
NMTAP	67	72	3
NMTAP	67	96	2
NMTAP	67	144	6
NMTAP	67	192	5
NMTAP	67	240	3
NMTAP	67	240	4
NMSTR	67	288	2
NMSXL	67	288	2	96	120	6
NMSXR	67	288	2	96	120	6
NMTAP	67	336	1
NMTAP	67	336	3
BXTAP	68	0	2
NMTAP	68	192	5
NMTAP	68	192	7
EXTAP	68	240	3
EXTAP	68	240	4
BRTAP	68	288	0
BRTAP	68	288	6
NMTAP	69	0	3
NMSTR	69	0	5
NMSCR	69	0	5	96	48	0
NMTAP	69	72	4
NMTAP	69	96	5
NMTAP	69	144	1
NMTAP	69	192	2
NMTAP	69	240	3
NMTAP	69	240	4
NMSTR	69	288	5
NMSXL	69	288	5	96	120	1
NMSXR	69	288	5	96	120	1
NMTAP	69	336	4
NMTAP	69	336	6
BXTAP	70	0	5
NMTAP	70	192	0
NMTAP	70	192	2
EXTAP	70	240	3
EXTAP	70	240	4
BRTAP	70	288	1
BRTAP	70	288	7
NMSTR	71	0	0
NMSI_	71	0	0	96	48	4
NMTAP	71	72	4
NMTAP	71	96	4
NMTAP	71	144	5
NMTAP	71	192	3
NMSTR	71	192	6
NMSI_	71	192	6	96	48	2
NMTAP	71	264	2
NMTAP	71	288	2
NMTAP	71	336	1
NMSTR	72	0	0
NMSI_	72	0	0	96	48	4
NMTAP	72	0	3
NMTAP	72	72	4
NMTAP	72	96	4
NMTAP	72	144	5
NMTAP	72	192	3
NMTAP	72	192	6
EXTAP	72	240	2
EXTAP	72	240	7
EXTAP	72	288	2
EXTAP	72	288	7
NMSTR	73	0	2
NMSI_	73	0	2	96	48	6
NMTAP	73	0	5
NMTAP	73	72	6
NMTAP	73	96	6
NMTAP	73	144	7
NMSTR	73	192	0
NMSI_	73	192	0	96	48	4
NMTAP	73	192	4
NMTAP	73	264	3
NMTAP	73	288	3
NMTAP	73	336	2
BXHLD	74	0	2	48
EXHLD	74	0	3	48
EXHLD	74	96	5	48
BXHLD	74	96	7	48
EXHLD	74	192	0	48
BXHLD	74	192	1	48
EXSTR	74	288	3
BRSI_	74	288	3	96	48	1
EXSTR	74	288	4
NMSI_	74	288	4	96	48	0
BRSTR	75	0	3
BRSUR	75	0	3	96	48	7
BRSTR	75	0	4
NMSCR	75	0	4	96	48	6
NMSTR	75	96	3
BRSCL	75	96	3	96	48	1
NMSTR	75	96	4
NMSUL	75	96	4	96	48	0
NMSTR	75	192	3
BRSI_	75	192	3	96	48	7
NMSTR	75	192	4
NMSI_	75	192	4	96	48	6
NMSTR	75	288	3
BRSI_	75	288	3	96	48	1
NMSTR	75	288	4
NMSI_	75	288	4	96	48	0
NMTAP	76	0	3
NMTAP	76	0	4
NMTAP	76	96	2
NMTAP	76	96	4
NMTAP	76	144	0
NMTAP	76	144	6
NMTAP	76	192	1
NMTAP	76	192	7
NMTAP	76	240	2
NMTAP	76	240	6
BRSTR	76	288	3
BRSI_	76	288	3	96	48	7
NMSTR	76	288	4
NMSI_	76	288	4	96	48	6
BRSTR	77	0	3
BRSCL	77	0	3	96	48	1
BRSTR	77	0	4
NMSUL	77	0	4	96	48	0
NMSTR	77	96	3
BRSUR	77	96	3	96	48	7
NMSTR	77	96	4
NMSCR	77	96	4	96	48	6
NMSTR	77	192	3
BRSI_	77	192	3	96	48	1
NMSTR	77	192	4
NMSI_	77	192	4	96	48	0
NMSTR	77	288	3
BRSI_	77	288	3	96	48	7
NMSTR	77	288	4
NMSI_	77	288	4	96	48	6
NMSTR	78	0	3
BRSCL	78	0	3	96	48	1
NMSTR	78	0	4
NMSUL	78	0	4	96	48	0
NMTAP	78	96	3
NMTAP	78	96	4
NMTAP	78	192	3
NMTAP	78	192	4
NMTAP	78	240	0
NMTAP	78	240	7
BRTAP	78	288	1
BRTAP	78	288	5
NMSTR	79	0	3
NMSI_	79	0	3	96	48	7
NMTAP	79	72	7
NMTAP	79	96	7
NMTAP	79	144	6
NMTAP	79	192	0
NMSTR	79	192	5
NMSI_	79	192	5	96	48	1
NMTAP	79	264	1
NMTAP	79	288	1
NMTAP	79	336	2
NMTAP	80	0	0
NMSTR	80	0	3
NMSI_	80	0	3	96	48	7
NMTAP	80	72	7
NMTAP	80	96	7
NMTAP	80	144	6
NMTAP	80	192	2
NMTAP	80	192	6
BXTAP	80	240	0
EXTAP	80	240	1
BXTAP	80	288	0
EXTAP	80	288	1
NMSTR	81	0	6
NMSCL	81	0	6	96	48	3
NMSTR	81	0	7
NMSLL	81	0	7	96	48	3
NMTAP	81	96	6
NMTAP	81	96	7
NMTAP	81	192	1
NMTAP	81	216	0
NMTAP	81	240	2
NMTAP	81	264	7
NMTAP	81	288	3
NMTAP	82	0	4
NMTAP	82	0	6
NMTAP	82	72	7
NMTAP	82	96	0
NMTAP	82	144	2
NMTAP	82	144	5
NMSTR	82	192	4
BRSF_	82	192	4	96	48	0
NMTAP	82	216	3
NMTAP	82	240	4
NMTAP	82	264	3
NMTAP	82	288	4
NMTTP	83	0	0	B	0	M1
NMTTP	83	96	0	C	0	M1
NMTTP	83	192	6	B	0	M1
NMTTP	83	240	2	B	0	M1
NMTTP	83	288	4	D	0	M1
NMTAP	84	0	4
NMTAP	84	0	5
NMTAP	84	72	2
NMTAP	84	72	7
NMTAP	84	96	2
NMTAP	84	96	7
NMTAP	84	144	0
NMTAP	84	144	1
NMSTR	84	192	7
NMSI_	84	192	7	96	48	2
BRSI_	84	192	7	96	48	4
NMTAP	84	216	0
NMTAP	84	240	6
NMTAP	84	264	0
BRTAP	84	288	7

T_REC_TAP	460
T_REC_BRK	40
T_REC_XTP	42
T_REC_BXX	18
T_REC_HLD	56
T_REC_XHO	5
T_REC_BHO	0
T_REC_BXH	3
T_REC_STR	67
T_REC_BST	5
T_REC_XST	12
T_REC_XBS	0
T_REC_TTP	23
T_REC_THO	1
T_REC_SLD	75
T_REC_BSL	17
T_REC_ALL	824
T_NUM_TAP	604
T_NUM_BRK	83
T_NUM_HLD	62
T_NUM_SLD	75
T_NUM_ALL	824
T_JUDGE_TAP	667
T_JUDGE_HLD	106
T_JUDGE_SLD	92
T_JUDGE_ALL	865
TTM_EACHPAIRS	212
TTM_SCR_TAP	302000
TTM_SCR_BRK	215800
TTM_SCR_HLD	62000
TTM_SCR_SLD	112500
TTM_SCR_ALL	692300
TTM_SCR_S	663500
TTM_SCR_SS	684000
TTM_RAT_ACV	10121

