VERSION	0.00.00	1.05.00
FES_MODE	1
BPM_DEF	160.000	160.000	160.000	160.000
MET_DEF	4	4
RESOLUTION	384
CLK_DEF	384
COMPATIBLE_CODE	MA2

BPM	0	0	160.000
MET	0	0	4	4

EXSTR	1	0	0
NMSXR	1	0	0	96	96	7
EXSTR	1	96	7
NMSCR	1	96	7	96	48	2
BRTAP	1	288	0
BRTAP	1	288	7
NMHLD	2	0	5	72
NMTAP	2	72	4
NMTAP	2	96	6
NMTAP	2	144	4
NMHLD	2	192	6	72
NMTAP	2	264	4
NMTAP	2	288	5
NMTAP	2	336	4
NMSTR	3	0	7
BRSI_	3	0	7	96	96	3
EXTAP	3	72	3
EXSTR	3	96	3
BRSLR	3	96	3	96	96	7
NMTAP	3	144	2
NMHLD	3	192	1	96
NMHLD	4	0	5	72
NMTAP	4	72	4
NMTAP	4	96	6
NMTAP	4	144	4
NMHLD	4	192	6	72
NMTAP	4	264	4
NMTAP	4	288	5
NMTAP	4	336	4
NMSTR	5	0	7
BRSCL	5	0	7	96	48	4
NMSTR	5	96	7
BRSCR	5	96	7	96	48	2
NMTAP	5	288	4
NMTAP	5	288	7
NMHLD	6	0	5	72
NMTAP	6	72	4
NMTAP	6	96	6
NMTAP	6	144	4
NMHLD	6	192	6	72
NMTAP	6	264	4
NMTAP	6	288	5
NMTAP	6	336	4
NMSTR	7	0	6
NMSCR	7	0	6	96	96	1
EXTAP	7	72	1
EXSTR	7	96	1
NMSCL	7	96	1	96	96	6
NMTAP	7	144	2
NMTAP	7	192	3
NMTTP	7	240	4	B	0	M1
NMTTP	7	240	5	B	0	M1
NMTTP	7	288	4	B	0	M1
NMTTP	7	288	5	B	0	M1
NMSTR	8	0	2
BRSCL	8	0	2	96	144	5
BRSUL	8	0	2	96	144	5
NMTAP	8	288	3
NMTAP	8	288	4
NMTAP	9	0	0
NMTAP	9	0	1
NMTAP	9	72	3
NMTAP	9	96	4
NMTAP	9	144	6
NMTAP	9	144	7
NMSTR	9	192	6
NMSI_	9	192	6	96	48	3
NMTAP	9	192	7
BXTAP	9	240	1
BXTAP	9	288	1
EXHLD	10	0	3	48
EXHLD	10	0	4	48
NMTAP	10	96	6
NMTAP	10	96	7
NMTAP	10	144	5
NMHLD	10	192	3	48
NMHLD	10	192	4	48
NMTAP	10	288	0
NMTAP	10	288	1
NMTAP	10	336	2
NMHLD	11	0	3	48
NMHLD	11	0	4	48
NMTAP	11	96	6
NMTAP	11	96	7
NMTAP	11	144	5
NMHLD	11	192	3	48
NMHLD	11	192	4	48
NMTAP	11	288	0
NMTAP	11	288	1
NMTAP	11	336	2
NMHLD	12	0	3	48
NMHLD	12	0	5	48
NMTAP	12	96	6
NMTAP	12	96	7
NMTAP	12	144	5
NMHLD	12	192	2	48
NMHLD	12	192	4	48
NMTAP	12	288	0
NMTAP	12	288	1
NMTAP	12	336	2
NMHLD	13	0	3	48
NMHLD	13	0	5	48
NMTAP	13	96	6
NMTAP	13	96	7
NMTAP	13	144	5
NMHLD	13	192	2	48
NMHLD	13	192	4	48
NMTAP	13	288	0
NMTAP	13	288	1
NMTAP	13	336	2
NMHLD	14	0	3	48
NMHLD	14	0	4	48
NMTAP	14	96	0
NMTAP	14	96	6
NMTAP	14	144	5
NMHLD	14	192	3	48
NMHLD	14	192	4	48
NMTAP	14	288	1
NMTAP	14	288	7
NMTAP	14	336	2
NMHLD	15	0	3	48
NMHLD	15	0	4	48
NMTAP	15	96	0
NMTAP	15	96	6
NMTAP	15	144	5
NMHLD	15	192	3	48
NMHLD	15	192	4	48
NMTAP	15	288	1
NMTAP	15	288	7
NMTAP	15	336	2
NMHLD	16	0	3	48
NMHLD	16	0	4	48
NMTAP	16	96	6
NMTAP	16	96	7
NMTAP	16	144	5
NMHLD	16	192	3	48
NMHLD	16	192	4	48
NMTAP	16	288	0
NMTAP	16	288	1
NMTAP	16	336	2
NMHLD	17	0	3	48
NMHLD	17	0	4	48
NMTAP	17	96	6
NMTAP	17	96	7
NMTAP	17	144	5
NMTAP	17	192	3
NMTAP	17	192	4
EXTAP	17	240	2
EXTAP	17	240	6
BRTAP	17	288	2
BRTAP	17	288	6
NMTAP	18	0	2
NMSTR	18	0	3
NMSXR	18	0	3	96	96	1
NMSTR	18	96	1
NMSCR	18	96	1	96	96	4
NMSTR	18	192	4
NMSUR	18	192	4	96	96	0
NMSTR	18	288	0
NMSLR	18	288	0	96	96	4
NMSTR	19	0	4
NMSLR	19	0	4	96	96	0
NMTAP	19	96	0
NMHLD	19	192	1	96
EXTAP	19	288	0
NMTAP	20	0	6
NMSTR	20	0	7
NMSXR	20	0	7	96	96	5
NMSTR	20	96	5
NMSCR	20	96	5	96	96	0
NMSTR	20	192	0
NMSUR	20	192	0	96	96	4
NMSTR	20	288	4
NMSLR	20	288	4	96	96	0
NMSTR	21	0	0
NMSLR	21	0	0	96	96	4
NMTAP	21	96	4
NMHLD	21	192	5	96
NMTAP	21	288	4
NMSTR	22	0	6
NMSV_	22	0	6	96	96	1
NMSTR	22	96	1
NMSCL	22	96	1	96	96	6
NMSTR	22	192	6
NMSCL	22	192	6	96	96	3
NMSTR	22	288	3
NMSXL	22	288	3	96	192	7
NMHLD	23	0	2	96
NMTAP	23	144	1
NMSTR	23	192	0
NMSI_	23	192	0	96	48	4
EXTAP	23	288	0
EXTAP	23	288	7
NMTAP	24	0	6
NMTAP	24	0	7
NMTAP	24	48	5
NMTAP	24	96	3
NMTAP	24	96	4
NMTAP	24	144	2
NMTAP	24	192	0
NMTAP	24	192	1
NMTAP	24	240	2
NMTAP	24	288	3
NMSTR	24	288	4
NMSCL	24	288	4	96	96	7
NMTAP	24	336	5
EXTAP	25	0	4
NMHLD	25	0	6	96
EXTAP	25	144	6
EXTAP	25	144	7
EXTAP	25	192	6
EXTAP	25	192	7
BRTAP	25	288	1
BRTAP	25	288	5
NMSTR	26	0	1
NMSCR	26	0	1	96	48	4
NMTAP	26	0	7
NMTAP	26	72	0
NMTAP	26	96	1
NMTAP	26	144	6
NMTAP	26	192	5
NMTAP	26	240	4
NMTAP	26	288	2
NMTAP	26	288	3
NMTAP	26	336	1
BXTAP	27	0	2
BXTAP	27	0	4
BXTAP	27	48	7
NMTAP	27	96	3
NMTAP	27	96	5
BXTAP	27	144	0
NMSTR	27	192	2
NMSI_	27	192	2	96	48	7
NMSTR	27	192	4
NMSI_	27	192	4	96	48	7
NMTAP	27	240	1
NMTAP	27	240	5
BRTAP	27	288	2
BRTAP	27	288	4
NMTAP	28	0	0
NMSTR	28	0	6
NMSCL	28	0	6	96	48	3
NMTAP	28	72	7
NMTAP	28	96	6
NMTAP	28	144	1
NMTAP	28	192	2
NMTAP	28	240	3
NMTAP	28	288	4
NMTAP	28	288	5
NMTAP	28	336	6
BXTAP	29	0	3
BXTAP	29	0	5
BXTAP	29	48	0
NMTAP	29	96	2
NMTAP	29	96	4
BXTAP	29	144	7
NMSTR	29	192	3
NMSI_	29	192	3	96	48	0
NMSTR	29	192	5
NMSI_	29	192	5	96	48	0
NMTAP	29	240	2
NMTAP	29	240	6
BRTAP	29	288	3
BRTAP	29	288	5
NMHLD	30	0	2	72
NMTAP	30	0	6
NMTAP	30	72	0
NMTAP	30	96	0
NMTAP	30	144	1
NMTAP	30	192	0
NMHLD	30	192	6	72
NMTAP	30	264	7
NMTAP	30	288	7
NMTAP	30	336	5
NMHLD	31	0	2	72
NMTAP	31	0	4
NMTAP	31	72	3
NMTAP	31	96	3
NMTAP	31	144	1
NMSTR	31	192	0
NMSI_	31	192	0	96	48	4
EXTAP	31	240	5
EXTAP	31	288	5
NMHLD	32	0	2	72
NMTAP	32	72	0
NMTAP	32	96	0
NMTAP	32	144	1
NMTAP	32	192	0
NMHLD	32	192	5	72
NMTAP	32	264	7
NMTAP	32	288	7
NMTAP	32	336	6
BRTAP	33	0	3
BRTAP	33	0	5
NMTAP	33	48	1
BRTAP	33	96	2
BRTAP	33	96	4
NMTAP	33	144	6
BRTAP	33	192	3
BRTAP	33	192	5
NMTAP	33	240	0
BRTAP	33	288	2
BRTAP	33	288	4
NMTAP	33	336	7
NMTAP	34	0	0
NMSTR	34	0	6
NMSCL	34	0	6	96	48	3
NMTAP	34	72	7
NMTAP	34	96	6
NMTAP	34	144	1
NMTAP	34	192	2
NMTAP	34	240	3
NMTAP	34	288	4
NMTAP	34	288	5
NMTAP	34	336	6
BXTAP	35	0	3
BXTAP	35	0	5
BXTAP	35	48	0
NMTAP	35	96	2
NMTAP	35	96	4
BXTAP	35	144	7
NMSTR	35	192	3
NMSI_	35	192	3	96	48	0
NMSTR	35	192	5
NMSI_	35	192	5	96	48	0
NMTAP	35	240	2
NMTAP	35	240	6
BRTAP	35	288	3
BRTAP	35	288	5
NMSTR	36	0	1
NMSCR	36	0	1	96	48	4
NMTAP	36	0	7
NMTAP	36	72	0
NMTAP	36	96	1
NMTAP	36	144	6
NMTAP	36	192	5
NMTAP	36	240	4
NMTAP	36	288	2
NMTAP	36	288	3
NMTAP	36	336	1
BXTAP	37	0	2
BXTAP	37	0	4
BXTAP	37	48	7
NMTAP	37	96	3
NMTAP	37	96	5
BXTAP	37	144	0
NMSTR	37	192	2
NMSI_	37	192	2	96	48	7
NMSTR	37	192	4
NMSI_	37	192	4	96	48	7
NMTAP	37	240	1
NMTAP	37	240	5
BRTAP	37	288	2
BRTAP	37	288	4
NMHLD	38	0	2	72
NMTAP	38	0	6
NMTAP	38	72	0
NMTAP	38	96	0
NMTAP	38	144	1
NMTAP	38	192	0
NMHLD	38	192	6	72
NMTAP	38	264	7
NMTAP	38	288	7
NMTAP	38	336	5
NMHLD	39	0	2	72
NMTAP	39	0	4
NMTAP	39	72	3
NMTAP	39	96	3
NMTAP	39	144	1
NMSTR	39	192	0
NMSI_	39	192	0	96	48	3
EXTAP	39	240	4
EXTAP	39	288	4
NMHLD	40	0	0	48
NMHLD	40	0	1	48
NMHLD	40	96	6	48
NMHLD	40	96	7	48
NMTAP	40	192	4
NMTAP	40	192	5
NMTAP	40	240	2
NMTAP	40	240	3
NMTAP	40	288	1
NMTAP	40	288	7
NMTAP	41	0	2
NMTAP	41	0	6
NMTAP	41	72	3
NMTAP	41	72	5
NMTAP	41	96	3
NMTAP	41	96	5
NMTAP	41	144	2
NMTAP	41	144	6
NMTAP	41	192	1
NMTAP	41	216	7
NMTAP	41	240	1
EXTAP	41	264	7
BRTAP	41	288	1
NMHLD	42	0	1	72
NMTAP	42	72	3
NMTAP	42	96	2
NMTAP	42	144	3
NMTAP	42	144	5
NMHLD	42	192	6	72
NMTAP	42	264	4
NMTAP	42	288	5
NMTAP	42	336	2
NMTAP	42	336	4
NMHLD	43	0	1	72
NMTAP	43	72	3
NMTAP	43	96	2
NMTAP	43	144	3
NMTAP	43	144	5
NMTAP	43	192	2
NMTAP	43	192	4
NMTAP	43	240	2
NMTAP	43	240	4
EXSTR	43	288	0
NMSCL	43	288	0	96	96	5
EXHLD	43	288	6	192
CNSCR	44	96	5	0	96	0
NMTAP	44	192	6
NMTAP	44	240	6
NMTAP	44	288	6
NMTAP	44	288	7
NMTAP	45	0	6
NMTAP	45	48	5
NMTAP	45	96	4
NMTAP	45	96	5
NMTAP	45	144	6
NMTAP	45	192	6
NMTAP	45	192	7
NMTAP	45	240	6
NMTAP	45	240	7
EXSTR	45	288	1
NMSCR	45	288	1	96	96	4
EXSTR	45	288	5
NMSCR	45	288	5	96	96	0
CNSCL	46	96	0	0	48	5
CNSCL	46	96	4	0	48	1
NMTAP	46	192	0
NMTAP	46	192	4
NMTAP	46	240	1
NMTAP	46	240	5
NMTAP	46	288	2
NMTAP	46	288	6
NMTAP	47	0	2
NMTAP	47	0	6
NMTAP	47	48	2
NMTAP	47	48	6
NMTAP	47	96	3
NMTAP	47	96	5
NMTAP	47	144	2
NMTAP	47	144	6
NMTAP	47	192	1
NMTAP	47	192	7
EXSTR	47	288	2
NMSCR	47	288	2	96	96	5
EXSTR	47	288	6
NMSCR	47	288	6	96	96	1
CNSCL	48	96	1	0	48	6
CNSCL	48	96	5	0	48	2
NMTAP	48	192	1
NMTAP	48	192	5
NMTAP	48	288	0
NMTAP	48	288	7
NMSTR	49	0	6
NMSI_	49	0	6	96	48	2
EXTAP	49	48	6
NMSTR	49	96	1
NMSI_	49	96	1	96	48	5
EXTAP	49	144	1
NMSTR	49	192	7
NMSI_	49	192	7	96	48	4
EXTAP	49	240	7
BXTAP	49	288	0
BXTAP	49	336	0
NMTAP	50	0	2
NMTAP	50	24	3
NMTAP	50	72	0
NMTAP	50	96	5
NMTAP	50	120	4
NMTAP	50	168	7
NMTAP	50	192	0
NMTAP	50	216	7
NMTAP	50	240	0
NMTAP	50	264	7
NMTAP	50	312	1
NMTAP	50	312	6
NMTAP	51	0	1
NMTAP	51	0	3
NMTAP	51	48	0
NMTAP	51	48	7
NMTAP	51	96	4
NMTAP	51	96	6
NMTAP	51	144	0
NMTAP	51	144	7
NMTAP	51	192	1
NMTAP	51	192	3
NMTAP	51	240	0
NMTAP	51	240	7
NMTAP	51	288	4
NMTAP	51	288	6
NMTAP	51	336	0
NMTAP	51	336	7
BRTAP	52	0	6
NMTAP	52	24	7
NMTAP	52	48	6
NMTAP	52	96	1
NMTAP	52	120	0
NMTAP	52	144	1
NMTAP	52	192	5
NMTAP	52	216	4
NMTAP	52	240	5
NMTAP	52	264	4
BRTAP	52	288	6
BRTAP	53	0	2
BRTAP	53	0	3
NMTAP	53	48	0
NMTAP	53	48	7
NMTAP	53	96	4
NMTAP	53	96	5
NMTAP	53	144	0
NMTAP	53	144	7
NMTAP	53	192	2
NMTAP	53	192	3
NMTAP	53	240	0
NMTAP	53	240	7
NMTAP	53	288	4
NMTAP	53	288	5
NMTAP	53	336	0
NMTAP	53	336	7
NMSTR	54	0	7
NMSI_	54	0	7	96	48	5
NMSTR	54	48	3
NMSI_	54	48	3	96	48	1
NMTAP	54	96	7
NMTAP	54	144	3
NMSTR	54	192	7
NMSI_	54	192	7	96	48	3
NMTAP	54	216	0
NMTAP	54	240	7
NMTAP	54	264	0
NMTAP	54	288	7
NMTAP	55	0	2
NMTAP	55	24	3
NMTAP	55	48	1
NMTAP	55	72	4
NMTAP	55	96	0
NMTAP	55	120	5
NMTAP	55	144	7
NMTAP	55	168	6
NMSTR	55	192	0
NMSI_	55	192	0	96	48	4
NMTAP	55	240	1
NMTAP	55	240	7
NMTAP	55	288	0
NMHLD	56	0	5	72
NMTAP	56	72	3
NMTAP	56	96	4
NMTAP	56	144	3
NMTAP	56	144	5
BXTAP	56	192	6
BXTAP	56	216	4
BXTAP	56	240	6
BXTAP	56	264	4
NMTTP	56	288	7	A	1	M1
NMTTP	56	312	6	A	1	M1
NMTTP	56	336	5	A	1	M1
NMTTP	56	360	4	A	1	M1
NMTAP	57	0	2
NMTAP	57	24	3
NMTAP	57	48	2
NMTAP	57	72	3
NMTAP	57	96	1
NMTAP	57	120	4
NMTAP	57	144	1
NMTAP	57	168	4
EXSTR	57	192	0
BRSI_	57	192	0	96	48	4
EXTAP	57	204	1
EXTAP	57	216	2
EXTAP	57	228	3
EXTAP	57	240	4
EXTAP	57	252	5
EXTAP	57	264	6
EXTAP	57	276	7
EXHLD	58	0	3	192
EXSTR	58	0	5
NMSCR	58	0	5	96	672	3
NMHLD	59	0	4	192
CNSCL	60	0	3	0	672	6
NMHLD	60	0	5	192
NMHLD	61	0	4	192
NMTAP	62	0	4
NMTAP	62	0	5
NMTAP	62	96	4
NMTAP	62	96	6
NMTAP	62	192	4
NMTAP	62	192	5
NMTAP	62	288	3
NMTAP	62	288	4
NMTAP	63	0	2
NMTAP	63	0	3
NMTAP	63	96	1
NMTAP	63	96	3
NMTAP	63	192	2
NMTAP	63	192	3
NMTAP	63	288	3
NMTAP	63	288	4
NMTAP	64	0	5
NMTAP	64	48	6
NMTAP	64	96	0
NMTAP	64	96	7
NMTAP	64	144	1
NMTAP	64	192	2
NMTAP	64	192	4
NMTAP	64	240	5
NMTAP	64	288	6
NMTAP	64	288	7
NMTAP	64	336	0
NMTHO	65	0	0	384	C	0	M1
NMTAP	65	0	1
NMTTP	66	0	0	B	0	M1
NMTTP	66	0	1	B	0	M1
NMTTP	66	0	6	B	0	M1
NMTTP	66	0	7	B	0	M1
EXTAP	66	240	1
EXTAP	66	240	6
EXTAP	66	288	1
EXTAP	66	288	6
NMTAP	67	0	3
NMSTR	67	0	5
NMSCR	67	0	5	96	48	0
NMTAP	67	72	4
NMTAP	67	96	5
NMTAP	67	144	1
NMTAP	67	192	2
NMTAP	67	240	3
NMTAP	67	240	4
NMTAP	67	288	4
NMTAP	67	288	5
NMTAP	67	336	6
BXTAP	68	0	3
BXTAP	68	0	5
BXTAP	68	48	0
NMTAP	68	96	2
NMTAP	68	96	4
BXTAP	68	144	7
NMSTR	68	192	3
NMSV_	68	192	3	96	48	0
NMSTR	68	192	5
NMSI_	68	192	5	96	48	0
NMTAP	68	240	2
NMTAP	68	240	6
BRTAP	68	288	3
BRTAP	68	288	5
NMSTR	69	0	2
NMSCL	69	0	2	96	48	7
NMTAP	69	0	4
NMTAP	69	72	3
NMTAP	69	96	2
NMTAP	69	144	6
NMTAP	69	192	5
NMTAP	69	240	3
NMTAP	69	240	4
NMTAP	69	288	2
NMTAP	69	336	1
BXTAP	70	0	2
BXTAP	70	0	4
BXTAP	70	48	7
NMTAP	70	96	3
NMTAP	70	96	5
BXTAP	70	144	0
NMSTR	70	192	2
NMSI_	70	192	2	96	48	7
NMSTR	70	192	4
NMSV_	70	192	4	96	48	7
NMTAP	70	240	1
NMTAP	70	240	5
BRTAP	70	288	2
BRTAP	70	288	4
NMSTR	71	0	0
NMSI_	71	0	0	96	48	4
NMTAP	71	72	4
NMTAP	71	96	4
NMTAP	71	144	5
NMTAP	71	192	3
NMSTR	71	192	6
NMSI_	71	192	6	96	48	2
NMTAP	71	264	2
NMTAP	71	288	2
NMTAP	71	336	1
NMSTR	72	0	0
NMSI_	72	0	0	96	48	4
NMTAP	72	0	3
NMTAP	72	72	4
NMTAP	72	96	4
NMTAP	72	144	5
NMTAP	72	192	3
NMTAP	72	192	6
EXTAP	72	240	2
EXTAP	72	240	7
EXTAP	72	288	2
EXTAP	72	288	7
NMTAP	73	0	2
NMSTR	73	0	5
NMSI_	73	0	5	96	48	1
NMTAP	73	72	1
NMTAP	73	96	1
NMTAP	73	144	0
NMTAP	73	192	3
NMSTR	73	192	7
NMSI_	73	192	7	96	48	3
NMTAP	73	264	4
NMTAP	73	288	4
NMTAP	73	336	5
EXHLD	74	0	4	48
BXHLD	74	0	5	48
BXHLD	74	96	0	48
EXHLD	74	96	2	48
BXHLD	74	192	6	48
EXHLD	74	192	7	48
EXSTR	74	288	3
NMSI_	74	288	3	96	48	7
EXSTR	74	288	4
BRSI_	74	288	4	96	48	6
BRSTR	75	0	3
NMSCL	75	0	3	96	48	1
BRSTR	75	0	4
BRSUL	75	0	4	96	48	0
NMSTR	75	96	3
NMSUR	75	96	3	96	48	7
NMSTR	75	96	4
BRSCR	75	96	4	96	48	6
NMSTR	75	192	3
NMSI_	75	192	3	96	48	1
NMSTR	75	192	4
BRSI_	75	192	4	96	48	0
NMTAP	75	288	3
NMTAP	75	288	4
BXTAP	76	0	2
BXTAP	76	0	4
BXTAP	76	48	6
BXTAP	76	48	7
NMTAP	76	96	3
NMTAP	76	96	5
BXTAP	76	144	0
BXTAP	76	144	1
NMTAP	76	192	3
NMTAP	76	192	4
BRTAP	76	240	1
BRTAP	76	240	7
BRSTR	76	288	3
NMSI_	76	288	3	96	48	1
BRSTR	76	288	4
BRSI_	76	288	4	96	48	0
BRSTR	77	0	3
NMSUR	77	0	3	96	48	7
BRSTR	77	0	4
BRSCR	77	0	4	96	48	6
NMSTR	77	96	3
NMSCL	77	96	3	96	48	1
NMSTR	77	96	4
BRSUL	77	96	4	96	48	0
NMSTR	77	192	3
NMSI_	77	192	3	96	48	7
NMSTR	77	192	4
BRSI_	77	192	4	96	48	6
NMTAP	77	288	3
NMTAP	77	288	4
BXTAP	78	0	3
BXTAP	78	0	5
BXTAP	78	48	0
BXTAP	78	48	1
NMTAP	78	96	2
NMTAP	78	96	4
BXTAP	78	144	6
BXTAP	78	144	7
NMTAP	78	192	3
NMTAP	78	192	4
BRTAP	78	240	0
BRTAP	78	240	6
BRTAP	78	288	2
BRTAP	78	288	4
NMSTR	79	0	4
NMSI_	79	0	4	96	48	0
NMTAP	79	72	0
NMTAP	79	96	0
NMTAP	79	144	1
NMSTR	79	192	2
NMSI_	79	192	2	96	48	6
NMTAP	79	192	7
NMTAP	79	264	6
NMTAP	79	288	6
NMTAP	79	336	5
NMSTR	80	0	4
NMSI_	80	0	4	96	48	0
NMTAP	80	0	7
NMTAP	80	72	0
NMTAP	80	96	0
NMTAP	80	144	1
NMTAP	80	192	1
NMTAP	80	192	5
EXTAP	80	240	6
BXTAP	80	240	7
EXTAP	80	288	6
BXTAP	80	288	7
NMSTR	81	0	0
NMSLR	81	0	0	96	48	4
NMSTR	81	0	1
NMSCR	81	0	1	96	48	4
NMTAP	81	96	0
NMTAP	81	96	1
NMTAP	81	192	6
NMTAP	81	216	7
NMTAP	81	240	5
NMTAP	81	264	0
NMTAP	81	288	4
NMTAP	82	0	1
NMTAP	82	0	3
NMTAP	82	72	0
NMTAP	82	96	7
NMTAP	82	144	2
NMTAP	82	144	5
NMSTR	82	192	3
BRSF_	82	192	3	96	48	7
NMTAP	82	216	4
NMTAP	82	240	3
NMTAP	82	264	4
NMTAP	82	288	3
NMTTP	83	0	7	B	0	M1
NMTTP	83	96	0	C	0	M1
NMTTP	83	192	1	B	0	M1
NMTTP	83	240	5	B	0	M1
NMTTP	83	288	4	D	0	M1
NMTAP	84	0	2
NMTAP	84	0	3
NMTAP	84	72	0
NMTAP	84	72	5
NMTAP	84	96	0
NMTAP	84	96	5
NMTAP	84	144	6
NMTAP	84	144	7
NMSTR	84	192	0
NMSI_	84	192	0	96	48	5
BRSI_	84	192	0	96	48	3
NMTAP	84	216	7
NMTAP	84	240	1
NMTAP	84	264	7
BRTAP	84	288	0

T_REC_TAP	458
T_REC_BRK	38
T_REC_XTP	37
T_REC_BXX	46
T_REC_HLD	58
T_REC_XHO	7
T_REC_BHO	0
T_REC_BXH	3
T_REC_STR	69
T_REC_BST	6
T_REC_XST	13
T_REC_XBS	0
T_REC_TTP	17
T_REC_THO	1
T_REC_SLD	73
T_REC_BSL	17
T_REC_ALL	843
T_NUM_TAP	594
T_NUM_BRK	110
T_NUM_HLD	66
T_NUM_SLD	73
T_NUM_ALL	843
T_JUDGE_TAP	684
T_JUDGE_HLD	114
T_JUDGE_SLD	90
T_JUDGE_ALL	888
TTM_EACHPAIRS	214
TTM_SCR_TAP	297000
TTM_SCR_BRK	286000
TTM_SCR_HLD	66000
TTM_SCR_SLD	109500
TTM_SCR_ALL	758500
TTM_SCR_S	725100
TTM_SCR_SS	747500
TTM_RAT_ACV	10147

