VERSION	0.00.00	1.05.00
FES_MODE	0
BPM_DEF	220.000	220.000	220.000	220.000
MET_DEF	4	4
RESOLUTION	384
CLK_DEF	384
COMPATIBLE_CODE	MA2

BPM	0	0	220.000
MET	0	0	4	4

NMHLD	3	0	3	144
NMHLD	3	0	5	144
NMTAP	3	192	3
NMTAP	3	192	5
NMTAP	3	336	2
NMTAP	3	336	4
NMHLD	4	48	2	96
NMTAP	4	48	4
NMTAP	4	144	3
NMTAP	4	192	3
NMTAP	4	288	2
NMTAP	4	288	4
NMHLD	5	0	2	144
NMHLD	5	0	4	144
NMTAP	5	192	2
NMTAP	5	192	4
NMTAP	5	336	3
NMTAP	5	336	5
NMTAP	6	48	3
NMHLD	6	48	5	96
NMTAP	6	144	4
NMTAP	6	192	4
NMTAP	6	288	3
NMTAP	6	288	5
NMHLD	7	0	3	144
NMHLD	7	0	5	144
NMTAP	7	192	3
NMTAP	7	192	5
NMTAP	7	336	2
NMTAP	7	336	4
NMHLD	8	48	2	96
NMTAP	8	48	4
NMTAP	8	144	3
NMTAP	8	192	3
NMTAP	8	288	2
NMTAP	8	288	4
NMTAP	9	0	5
NMTAP	9	48	5
NMTAP	9	96	3
NMTAP	9	144	3
NMTAP	9	192	4
NMTAP	9	240	4
NMTAP	9	288	2
NMTAP	9	336	2
NMTAP	10	0	6
NMTAP	10	96	0
NMTAP	10	96	7
NMTAP	10	192	0
NMTAP	10	192	7
BRTAP	10	288	2
BRTAP	10	288	5
NMSTR	11	0	6
NMSCL	11	0	6	96	48	3
NMSTR	11	96	7
NMSV_	11	96	7	96	48	2
NMSTR	11	192	6
NMSCL	11	192	6	96	48	3
NMSTR	11	288	7
NMSV_	11	288	7	96	48	2
NMSTR	12	0	6
NMSCL	12	0	6	96	48	3
NMSTR	12	96	7
NMSV_	12	96	7	96	48	2
NMSTR	12	192	6
NMSCL	12	192	6	96	48	3
NMSTR	12	288	7
NMSV_	12	288	7	96	48	2
NMSTR	13	0	6
NMSCL	13	0	6	96	48	3
NMSTR	13	96	7
NMSV_	13	96	7	96	48	2
NMSTR	13	192	6
NMSCL	13	192	6	96	48	3
NMSTR	13	288	7
NMSV_	13	288	7	96	48	2
NMSTR	14	0	6
NMSCL	14	0	6	96	48	3
NMSTR	14	96	7
NMSV_	14	96	7	96	48	2
NMSTR	14	192	6
NMSCL	14	192	6	96	48	3
NMSTR	14	288	7
NMSV_	14	288	7	96	48	2
NMSTR	15	0	6
NMSCL	15	0	6	96	48	3
NMSTR	15	96	7
NMSV_	15	96	7	96	48	2
NMSTR	15	192	6
NMSCL	15	192	6	96	48	3
NMSTR	15	288	7
NMSV_	15	288	7	96	48	2
NMSTR	16	0	6
NMSCL	16	0	6	96	48	3
NMSTR	16	96	7
NMSV_	16	96	7	96	48	2
NMSTR	16	192	6
NMSCL	16	192	6	96	48	3
NMSTR	16	288	7
NMSV_	16	288	7	96	48	2
NMSTR	17	0	6
NMSCL	17	0	6	96	48	3
NMSTR	17	96	7
NMSV_	17	96	7	96	48	2
NMSTR	17	192	6
NMSCL	17	192	6	96	48	3
NMSTR	17	288	7
NMSV_	17	288	7	96	48	2
NMSTR	18	0	6
NMSCL	18	0	6	96	48	3
NMTAP	18	96	7
NMSTR	18	192	0
NMSI_	18	192	0	96	48	3
NMSTR	18	192	6
NMSI_	18	192	6	96	48	4
EXTAP	18	288	0
EXTAP	18	288	6
EXSTR	19	0	2
NMSCL	19	0	2	96	96	7
NMTAP	19	96	5
NMSTR	19	192	6
NMSCL	19	192	6	96	96	3
NMTAP	19	288	0
NMTAP	20	0	1
NMTAP	20	48	1
NMTAP	20	96	3
NMSTR	20	192	0
NMSV_	20	192	0	96	48	3
NMTAP	20	288	4
NMSTR	21	0	6
NMSI_	21	0	6	96	48	4
NMSTR	21	96	0
NMSI_	21	96	0	96	48	2
NMSTR	21	192	7
NMSI_	21	192	7	96	48	3
NMTAP	21	288	1
NMTAP	22	0	1
NMSTR	22	96	0
NMSI_	22	96	0	96	48	4
BRTAP	22	192	0
BRTAP	22	192	7
BRTAP	22	288	2
BRTAP	22	288	6
NMSTR	23	0	5
NMSCR	23	0	5	96	96	0
NMTAP	23	96	3
NMSTR	23	192	1
NMSCR	23	192	1	96	96	4
NMTAP	23	288	5
NMTAP	23	336	6
NMHLD	24	0	6	96
NMHLD	24	96	4	96
NMHLD	24	192	3	96
NMHLD	24	288	1	96
NMTAP	25	0	4
NMTAP	25	96	2
NMTAP	25	96	3
NMTAP	25	192	3
NMTAP	25	192	6
NMTAP	25	288	4
NMTAP	25	288	5
NMTAP	26	0	2
NMTAP	26	48	2
NMTAP	26	96	4
NMTAP	26	192	1
NMTAP	26	192	5
BRTAP	26	288	2
BRTAP	26	288	6
NMSTR	27	0	1
NMSI_	27	0	1	96	48	4
EXTAP	27	0	5
EXTAP	27	48	5
EXTAP	27	96	1
EXTAP	27	96	5
EXTAP	27	144	5
NMSTR	27	192	1
NMSI_	27	192	1	96	48	4
EXTAP	27	192	5
EXTAP	27	240	5
EXTAP	27	288	1
EXTAP	27	288	5
EXTAP	27	336	5
NMSTR	28	0	1
NMSI_	28	0	1	96	48	4
EXTAP	28	0	5
EXTAP	28	48	5
EXTAP	28	96	1
EXTAP	28	96	5
EXTAP	28	144	5
NMSTR	28	192	1
NMSI_	28	192	1	96	48	4
EXTAP	28	192	5
EXTAP	28	240	5
EXTAP	28	288	1
EXTAP	28	288	5
NMSTR	29	0	1
NMSI_	29	0	1	96	48	4
NMTAP	29	0	7
NMTAP	29	48	7
EXTAP	29	96	1
NMTAP	29	96	7
NMTAP	29	144	7
NMSTR	29	192	1
NMSI_	29	192	1	96	48	4
NMTAP	29	192	7
NMTAP	29	240	7
EXTAP	29	288	1
NMTAP	29	288	7
NMTAP	29	336	7
NMSTR	30	0	1
NMSI_	30	0	1	96	48	4
NMTAP	30	0	7
NMTAP	30	48	7
EXTAP	30	96	1
NMTAP	30	96	7
NMTAP	30	144	7
NMSTR	30	192	1
NMSI_	30	192	1	96	48	4
NMTAP	30	192	7
NMTAP	30	240	7
EXTAP	30	288	1
NMTAP	30	288	7
NMSTR	31	0	1
NMSI_	31	0	1	96	48	4
BRTAP	31	0	5
BRTAP	31	48	5
EXTAP	31	96	1
BRTAP	31	96	5
NMSTR	31	192	1
NMSI_	31	192	1	96	48	4
NMTAP	31	192	7
NMTAP	31	240	7
EXTAP	31	288	1
NMTAP	31	288	7
NMTAP	31	336	7
NMSTR	32	0	1
NMSI_	32	0	1	96	48	4
NMTAP	32	0	7
NMTAP	32	48	7
EXTAP	32	96	1
NMTAP	32	96	7
NMTAP	32	144	7
NMSTR	32	192	1
NMSI_	32	192	1	96	48	4
NMTAP	32	192	7
NMTAP	32	240	7
EXTAP	32	288	1
NMTAP	32	288	7
NMTAP	32	336	7
NMSTR	33	0	1
NMSI_	33	0	1	96	48	4
NMTAP	33	0	7
NMTAP	33	48	7
EXTAP	33	96	1
NMTAP	33	96	7
NMTAP	33	144	7
NMSTR	33	192	1
NMSI_	33	192	1	96	48	4
NMTAP	33	192	7
NMTAP	33	240	7
EXTAP	33	288	1
NMTAP	33	288	7
NMTTP	34	0	5	A	1	M1
NMTTP	34	0	6	B	0	M1
NMTTP	34	0	6	E	0	M1
NMTTP	34	0	6	A	0	M1
NMTTP	34	96	1	B	0	M1
NMTTP	34	96	1	A	0	M1
NMTTP	34	96	2	E	0	M1
NMTTP	34	96	2	A	1	M1
NMTTP	34	192	3	B	0	M1
NMTTP	34	192	4	B	0	M1
NMTTP	34	192	4	E	1	M1
NMTTP	34	192	4	D	0	M1
BRTAP	34	288	0
BRTAP	34	288	7
NMHLD	35	0	2	1248
NMTAP	35	0	5
NMTAP	35	96	7
NMTAP	35	192	5
NMTAP	35	288	7
NMTAP	36	0	4
NMTAP	36	96	7
NMTTP	36	192	5	B	0	M1
NMTTP	36	192	5	A	0	M1
NMTTP	36	192	6	B	0	M1
NMTTP	36	192	6	E	1	M1
NMTTP	36	192	6	A	0	M1
NMTTP	36	192	6	D	0	M1
NMTTP	36	336	4	B	0	M1
NMTTP	36	336	4	A	0	M1
NMTTP	36	336	5	B	0	M1
NMTTP	36	336	5	E	1	M1
NMTTP	36	336	5	A	0	M1
NMTTP	36	336	5	D	0	M1
NMTTP	37	96	6	B	1	M1
NMTTP	37	96	6	E	0	M1
NMTTP	37	96	6	A	0	M1
NMTTP	37	96	6	D	0	M1
NMTTP	37	96	7	E	0	M1
NMTTP	37	96	7	D	0	M1
NMTTP	37	192	5	B	1	M1
NMTTP	37	192	5	E	0	M1
NMTTP	37	192	5	A	0	M1
NMTTP	37	192	5	D	0	M1
NMTTP	37	192	6	E	0	M1
NMTTP	37	192	6	D	0	M1
NMTTP	37	264	4	B	0	M1
NMTTP	37	264	4	A	0	M1
NMTTP	37	264	5	B	0	M1
NMTTP	37	264	5	E	1	M1
NMTTP	37	264	5	A	0	M1
NMTTP	37	264	5	D	0	M1
NMTTP	38	0	6	B	0	M1
NMTTP	38	0	6	A	0	M1
NMTTP	38	0	7	B	0	M1
NMTTP	38	0	7	E	1	M1
NMTTP	38	0	7	A	0	M1
NMTTP	38	0	7	D	0	M1
NMTTP	38	96	4	B	0	M1
NMTTP	38	96	4	A	0	M1
NMTTP	38	96	5	B	0	M1
NMTTP	38	96	5	E	1	M1
NMTTP	38	96	5	A	0	M1
NMTTP	38	96	5	D	0	M1
NMTTP	38	192	6	B	0	M1
NMTTP	38	192	6	A	0	M1
NMTTP	38	192	7	B	0	M1
NMTTP	38	192	7	E	1	M1
NMTTP	38	192	7	A	0	M1
NMTTP	38	192	7	D	0	M1
BRTAP	38	288	0
NMTAP	39	0	0
NMTAP	39	24	1
NMTAP	39	48	2
NMTAP	39	72	3
NMTAP	39	96	7
NMTAP	39	120	6
NMTAP	39	144	5
NMTAP	39	168	4
NMTAP	39	192	0
NMTAP	39	216	1
NMTAP	39	240	2
NMTAP	39	264	3
NMTAP	39	288	7
NMTAP	39	312	6
NMTAP	39	336	5
NMTAP	39	360	4
NMTAP	40	0	0
NMTAP	40	24	1
NMTAP	40	48	2
NMTAP	40	72	3
NMTAP	40	96	7
NMTAP	40	120	6
NMTAP	40	144	5
NMTAP	40	168	4
NMTAP	40	192	0
NMTAP	40	216	1
NMTAP	40	240	2
NMTAP	40	264	3
NMTAP	40	288	7
NMTAP	40	312	6
NMTAP	40	336	5
NMTAP	40	360	4
NMTAP	41	0	1
NMTAP	41	24	2
NMTAP	41	48	3
NMTAP	41	72	4
NMTAP	41	96	7
NMTAP	41	120	6
NMTAP	41	144	5
NMTAP	41	168	4
NMTAP	41	192	0
NMTAP	41	216	1
NMTAP	41	240	2
NMTAP	41	264	3
NMTAP	41	288	6
NMTAP	41	312	5
NMTAP	41	336	4
NMTAP	41	360	3
NMTAP	42	0	0
NMTAP	42	24	1
NMTAP	42	48	2
NMTAP	42	72	3
NMSTR	42	96	7
NMSUL	42	96	7	96	192	6
NMTAP	43	0	0
NMTAP	43	96	1
NMHLD	43	192	1	72
NMHLD	43	264	2	72
NMTAP	43	336	3
NMTAP	44	0	3
NMTAP	44	96	2
NMTAP	44	96	4
NMTAP	44	192	2
NMSTR	44	192	4
NMSI_	44	192	4	96	48	0
NMTTP	44	288	3	E	1	M1
NMTAP	45	0	1
NMTAP	45	48	1
NMTAP	45	96	1
NMTAP	45	144	1
NMTAP	45	192	7
NMTAP	45	240	7
NMTAP	45	288	7
NMTAP	45	336	7
NMTAP	46	0	2
NMTAP	46	48	2
NMTAP	46	96	2
NMTAP	46	144	2
NMSTR	46	192	0
BRSI_	46	192	0	96	48	5
NMSTR	46	192	1
BRSI_	46	192	1	96	48	4
NMTTP	46	288	0	A	0	M1
NMTTP	46	288	1	A	0	M1
NMTTP	46	288	1	D	1	M1
NMSTR	47	0	6
NMSCL	47	0	6	96	48	3
NMTAP	47	48	6
NMSTR	47	96	7
NMSV_	47	96	7	96	48	2
NMTAP	47	144	7
NMSTR	47	192	6
NMSCL	47	192	6	96	48	3
NMTAP	47	240	6
NMSTR	47	288	7
NMSV_	47	288	7	96	48	2
NMTAP	47	336	7
NMSTR	48	0	6
NMSCL	48	0	6	96	48	3
NMTAP	48	48	6
NMSTR	48	96	7
NMSV_	48	96	7	96	48	2
NMTAP	48	144	7
NMSTR	48	192	6
NMSCL	48	192	6	96	48	3
NMTAP	48	240	6
NMSTR	48	288	7
NMSV_	48	288	7	96	48	2
NMTAP	48	336	7
NMSTR	49	0	6
NMSCL	49	0	6	96	48	3
NMTAP	49	48	6
NMSTR	49	96	7
NMSV_	49	96	7	96	48	2
NMTAP	49	144	7
NMSTR	49	192	6
NMSCL	49	192	6	96	48	3
NMTAP	49	240	6
NMSTR	49	288	7
NMSV_	49	288	7	96	48	2
NMTAP	49	336	7
NMSTR	50	0	6
NMSCL	50	0	6	96	48	3
NMTAP	50	48	6
NMSTR	50	96	7
NMSV_	50	96	7	96	48	2
NMTAP	50	144	7
NMSTR	50	192	6
NMSCL	50	192	6	96	48	3
NMTAP	50	240	6
NMSTR	50	288	7
NMSV_	50	288	7	96	48	2
NMTAP	50	336	7
NMSTR	51	0	6
NMSCL	51	0	6	96	48	3
NMTAP	51	48	6
NMSTR	51	96	7
NMSV_	51	96	7	96	48	2
NMTAP	51	144	7
NMSTR	51	192	6
NMSCL	51	192	6	96	48	3
NMTAP	51	240	6
NMSTR	51	288	7
NMSV_	51	288	7	96	48	2
NMTAP	51	336	7
NMSTR	52	0	6
NMSCL	52	0	6	96	48	3
NMTAP	52	48	6
NMSTR	52	96	7
NMSV_	52	96	7	96	48	2
NMTAP	52	144	7
NMSTR	52	192	6
NMSCL	52	192	6	96	48	3
NMTAP	52	240	6
NMSTR	52	288	7
NMSV_	52	288	7	96	48	2
NMTAP	52	336	7
EXTAP	53	0	6
EXTAP	53	192	0
EXTAP	53	192	7
EXTAP	54	0	0
EXTAP	54	0	1
EXTAP	54	96	0
EXTAP	54	96	7
EXTAP	54	192	6
EXTAP	54	192	7
EXTAP	54	288	0
EXTAP	54	288	7
NMSTR	55	0	6
NMSCL	55	0	6	96	48	3
NMTAP	55	48	6
NMSTR	55	96	7
NMSV_	55	96	7	96	48	2
NMTAP	55	144	7
NMSTR	55	192	6
NMSCL	55	192	6	96	48	3
NMTAP	55	240	6
NMSTR	55	288	7
NMSV_	55	288	7	96	48	2
NMTAP	55	336	7
NMSTR	56	0	6
NMSCL	56	0	6	96	48	3
NMTAP	56	48	6
NMSTR	56	96	7
NMSV_	56	96	7	96	48	2
NMTAP	56	144	7
NMSTR	56	192	6
NMSCL	56	192	6	96	48	3
NMTAP	56	240	6
NMSTR	56	288	7
NMSV_	56	288	7	96	48	2
NMTAP	56	336	7
NMSTR	57	0	6
NMSCL	57	0	6	96	48	3
NMTAP	57	48	6
NMSTR	57	96	7
NMSV_	57	96	7	96	48	2
NMTAP	57	144	7
NMSTR	57	192	6
NMSCL	57	192	6	96	48	3
NMTAP	57	240	6
NMSTR	57	288	7
NMSV_	57	288	7	96	48	2
NMTAP	57	336	7
NMSTR	58	0	6
NMSCL	58	0	6	96	48	3
NMTAP	58	48	6
NMSTR	58	96	7
NMSV_	58	96	7	96	48	2
NMTAP	58	144	7
NMSTR	58	192	6
NMSCL	58	192	6	96	48	3
NMTAP	58	240	6
NMSTR	58	288	7
NMSV_	58	288	7	96	48	2
NMTAP	58	336	7
NMSTR	59	0	6
NMSCL	59	0	6	96	48	3
NMTAP	59	48	6
NMSTR	59	96	7
NMSV_	59	96	7	96	48	2
NMTAP	59	144	7
NMSTR	59	192	6
NMSCL	59	192	6	96	48	3
NMTAP	59	240	6
NMSTR	59	288	7
NMSV_	59	288	7	96	48	2
NMTAP	59	336	7
NMSTR	60	0	6
NMSCL	60	0	6	96	48	3
NMTAP	60	48	6
NMSTR	60	96	7
NMSV_	60	96	7	96	48	2
NMTAP	60	144	7
NMSTR	60	192	6
NMSCL	60	192	6	96	48	3
NMTAP	60	240	6
NMTAP	60	288	7
EXSTR	61	0	1
NMSI_	61	0	1	96	48	5
NMSTR	61	96	7
NMSV_	61	96	7	96	48	2
NMSV_	61	96	7	96	48	4
EXTAP	61	288	1
EXTAP	61	288	5
NMSTR	62	0	0
NMSI_	62	0	0	96	48	4
NMSTR	62	0	6
NMSI_	62	0	6	96	48	2
EXTAP	62	96	0
EXTAP	62	96	6
NMTAP	62	192	1
NMTAP	62	192	5
EXTAP	62	288	0
EXTAP	62	288	6
NMTAP	63	0	5
NMTAP	63	48	4
NMTAP	63	96	3
NMTAP	63	144	2
NMTAP	63	192	5
NMTAP	63	240	4
NMTAP	63	288	3
NMTAP	63	336	2
NMTAP	64	0	5
NMTAP	64	48	4
NMTAP	64	96	3
NMTAP	64	144	2
NMTAP	64	192	5
NMTAP	64	240	4
NMTAP	64	288	3
NMTAP	64	336	2
NMTAP	65	0	5
NMTAP	65	48	4
NMTAP	65	96	3
NMTAP	65	144	2
NMTAP	65	192	5
NMTAP	65	240	4
NMTAP	65	288	3
NMTAP	65	336	2
NMTAP	66	0	5
NMTAP	66	48	4
NMTAP	66	96	3
NMTAP	66	144	2
NMTAP	66	192	2
NMTAP	66	240	3
NMTAP	66	288	4
NMTAP	66	336	5
NMTAP	67	0	5
NMTAP	67	48	4
NMTAP	67	96	3
NMTAP	67	144	2
NMTAP	67	192	5
NMTAP	67	240	4
NMTAP	67	288	3
NMTAP	67	336	2
NMTAP	68	0	5
NMTAP	68	48	4
NMTAP	68	96	3
NMTAP	68	144	2
NMTAP	68	192	5
NMTAP	68	240	4
NMTAP	68	288	3
NMTAP	68	336	2
NMTAP	69	0	5
NMTAP	69	48	4
NMTAP	69	96	3
NMTAP	69	144	2
NMTAP	69	192	5
NMTAP	69	240	4
NMTAP	69	288	3
NMTAP	69	336	2
NMTAP	70	0	5
NMTAP	70	48	4
NMTAP	70	96	3
NMTAP	70	144	2
NMTAP	70	192	2
NMTAP	70	240	3
NMTAP	70	288	4
NMTAP	70	336	5
NMTAP	71	0	5
NMTAP	71	48	4
NMTAP	71	96	3
NMTAP	71	144	2
NMTAP	71	192	5
NMTAP	71	240	4
NMTAP	71	288	3
NMTAP	71	336	2
NMTAP	72	0	5
NMTAP	72	48	4
NMTAP	72	96	3
NMTAP	72	144	2
NMTAP	72	192	5
NMTAP	72	240	4
NMTAP	72	288	3
NMTAP	72	336	2
NMTAP	73	0	5
NMTAP	73	48	4
NMTAP	73	96	3
NMTAP	73	144	2
NMTAP	73	192	5
NMTAP	73	240	4
NMTAP	73	288	3
NMTAP	73	336	2
NMTTP	74	0	6	E	1	M1
NMTAP	75	0	5
NMTAP	75	48	4
NMTAP	75	96	3
NMTAP	75	144	2
NMTAP	75	192	5
NMTAP	75	240	4
NMTAP	75	288	3
NMTAP	75	336	2
NMTAP	76	0	5
NMTAP	76	48	4
NMTAP	76	96	3
NMTAP	76	144	2
NMTAP	76	192	5
NMTAP	76	240	4
NMTAP	76	288	3
NMTAP	76	336	2
NMSTR	77	0	5
NMSXL	77	0	5	96	192	4
CNSXL	77	288	4	0	192	3
CNSXL	78	96	3	0	192	2
NMTAP	79	0	5
NMTAP	79	48	4
NMTAP	79	96	3
NMTAP	79	144	2
NMTAP	79	192	5
NMTAP	79	240	4
NMTAP	79	288	3
NMTAP	79	336	2
NMTAP	80	0	5
NMTAP	80	48	4
NMTAP	80	96	3
NMTAP	80	144	2
NMTAP	80	192	5
NMTAP	80	240	4
NMTAP	80	288	3
NMTAP	80	336	2
NMHLD	81	0	5	576
NMTTP	82	192	4	E	0	M1
NMSTR	83	0	5
BRSUL	83	0	5	96	96	7
CNSI_	83	192	7	0	96	2
CNSUR	83	288	2	0	96	6
CNSCR	84	0	6	0	96	1
CNSXR	84	96	1	0	192	2
EXHLD	85	0	0	384
EXHLD	85	192	7	192
NMSTR	86	96	1
NMSI_	86	96	1	96	48	4
NMSTR	86	96	6
NMSI_	86	96	6	96	48	3
BRTAP	86	192	1
BRTAP	86	192	6
BRSTR	86	288	0
NMSI_	86	288	0	96	48	4
BRTAP	86	288	7
EXTAP	87	0	0
NMTAP	87	0	5
NMTAP	87	48	5
NMSTR	87	96	1
NMSI_	87	96	1	96	48	4
NMTAP	87	96	5
NMTAP	87	144	5
EXTAP	87	192	1
NMTAP	87	192	5
NMTAP	87	240	5
NMSTR	87	288	1
NMSI_	87	288	1	96	48	4
NMTAP	87	288	5
BRTAP	87	336	5
EXTAP	88	0	1
NMTAP	88	0	5
NMTAP	88	48	5
NMSTR	88	96	1
NMSI_	88	96	1	96	48	4
NMTAP	88	96	5
NMTAP	88	144	5
EXTAP	88	192	1
BRTAP	88	192	5
NMTAP	88	240	5
NMSTR	88	288	1
BRSI_	88	288	1	96	48	4
NMTAP	88	288	5
NMTAP	88	336	5
EXTAP	89	0	1
BRTAP	89	0	5
NMTAP	89	48	5
NMSTR	89	96	1
NMSI_	89	96	1	96	48	4
NMTAP	89	96	5
NMTAP	89	144	5
EXTAP	89	192	1
NMTAP	89	192	5
NMTAP	89	240	5
NMSTR	89	288	1
NMSI_	89	288	1	96	48	4
NMTAP	89	288	5
NMTAP	89	336	5
EXTAP	90	0	1
NMTAP	90	0	5
NMTAP	90	48	5
NMSTR	90	96	1
NMSI_	90	96	1	96	48	4
NMTAP	90	96	5
NMTAP	90	144	5
EXTAP	90	192	1
BRTAP	90	192	5
NMTAP	90	240	5
NMSTR	90	288	1
NMSI_	90	288	1	96	48	4
NMTAP	90	288	5
NMTAP	90	336	5
EXTAP	91	0	1
NMTAP	91	0	5
NMTAP	91	48	5
NMSTR	91	96	1
NMSI_	91	96	1	96	48	4
NMTAP	91	96	5
NMTAP	91	144	5
EXTAP	91	192	1
NMTAP	91	192	5
NMTAP	91	240	5
NMSTR	91	288	1
NMSI_	91	288	1	96	48	4
NMTAP	91	288	5
NMTAP	91	336	5
EXTAP	92	0	1
NMTAP	92	0	5
NMTAP	92	48	5
NMSTR	92	96	1
NMSI_	92	96	1	96	48	4
NMTAP	92	96	5
NMTAP	92	144	5
EXTAP	92	192	1
NMTAP	92	192	5
NMTAP	92	240	5
NMSTR	92	288	1
NMSI_	92	288	1	96	48	4
NMTAP	92	288	5
NMTAP	92	336	5
EXTAP	93	0	1
BRTAP	93	0	5
NMTAP	93	48	5
NMSTR	93	96	1
NMSI_	93	96	1	96	48	4
NMTAP	93	96	5
NMTAP	93	144	5
EXTAP	93	192	1
NMTAP	93	192	5
NMTAP	93	240	5
NMTAP	93	288	2
NMTAP	93	288	6
EXTAP	94	0	0
EXTAP	94	0	7
EXTAP	94	96	0
EXTAP	94	96	7
NMTTP	94	192	0	B	0	M1
NMTTP	94	192	0	E	1	M1
NMTTP	94	192	0	D	0	M1
NMTTP	94	192	1	B	0	M1
NMTTP	94	192	2	E	0	M1
NMTTP	94	192	2	A	0	M1
NMTTP	94	192	3	D	0	M1
NMTTP	94	192	5	A	0	M1
NMTTP	94	192	5	D	0	M1
NMTTP	94	192	6	B	0	M1
NMTTP	94	192	6	E	0	M1
NMTTP	94	192	7	B	0	M1
EXHLD	94	288	3	288
EXHLD	94	288	4	96
NMTTP	95	192	5	B	0	M1
NMTTP	95	192	5	A	0	M1
NMTTP	95	192	6	B	0	M1
NMTTP	95	192	6	E	1	M1
NMTTP	95	192	6	A	0	M1
NMTTP	95	192	6	D	0	M1
BRTAP	96	0	7
BRTAP	96	48	7
BRTAP	96	96	7
BRTAP	96	144	7
BRTAP	96	192	7
BRTAP	96	288	1
BRTAP	96	288	5
NMSTR	97	0	6
NMSCL	97	0	6	96	48	3
NMSTR	97	48	7
NMSV_	97	48	7	96	48	2
NMTAP	97	96	6
NMTAP	97	144	7
NMSTR	97	192	6
NMSCL	97	192	6	96	48	3
NMSTR	97	240	7
NMSV_	97	240	7	96	48	2
NMTAP	97	288	6
NMTAP	97	336	7
NMSTR	98	0	6
NMSCL	98	0	6	96	48	3
NMSTR	98	48	7
NMSV_	98	48	7	96	48	2
NMTAP	98	96	6
NMTAP	98	144	7
NMSTR	98	192	6
NMSCL	98	192	6	96	48	3
NMSTR	98	240	7
NMSV_	98	240	7	96	48	2
NMTAP	98	288	6
NMTAP	98	336	7
NMSTR	99	0	6
NMSCL	99	0	6	96	48	3
NMSTR	99	48	7
NMSV_	99	48	7	96	48	2
NMTAP	99	96	6
NMTAP	99	144	7
NMSTR	99	192	6
NMSCL	99	192	6	96	48	3
NMSTR	99	240	7
NMSV_	99	240	7	96	48	2
NMTAP	99	288	6
NMTAP	99	336	7
NMSTR	100	0	6
NMSCL	100	0	6	96	48	3
NMSTR	100	48	7
NMSV_	100	48	7	96	48	2
NMTAP	100	96	6
NMTAP	100	144	7
NMSTR	100	192	6
NMSCL	100	192	6	96	48	3
NMSTR	100	240	7
NMSV_	100	240	7	96	48	2
NMTAP	100	288	6
NMTAP	100	336	7
NMSTR	101	0	6
NMSCL	101	0	6	96	48	3
NMSTR	101	48	7
NMSV_	101	48	7	96	48	2
NMTAP	101	96	6
NMTAP	101	144	7
NMSTR	101	192	6
NMSCL	101	192	6	96	48	3
NMSTR	101	240	7
NMSV_	101	240	7	96	48	2
NMTAP	101	288	6
NMTAP	101	336	7
NMSTR	102	0	6
NMSCL	102	0	6	96	48	3
NMSTR	102	48	7
NMSV_	102	48	7	96	48	2
NMTAP	102	96	6
NMTAP	102	144	7
NMSTR	102	192	6
NMSCL	102	192	6	96	48	3
NMSTR	102	240	7
NMSV_	102	240	7	96	48	2
NMTAP	102	288	6
NMTAP	102	336	7
EXTAP	103	0	6
EXTAP	103	192	0
EXTAP	103	192	7
EXTAP	104	0	0
EXTAP	104	0	1
EXTAP	104	96	0
EXTAP	104	96	7
EXTAP	104	192	6
EXTAP	104	192	7
EXTAP	104	288	0
EXTAP	104	288	7
EXSTR	105	0	6
NMSCL	105	0	6	96	48	3
NMSTR	105	48	7
NMSV_	105	48	7	96	48	2
NMTAP	105	96	6
NMTAP	105	144	7
NMSTR	105	192	6
NMSCL	105	192	6	96	48	3
NMSTR	105	240	7
NMSV_	105	240	7	96	48	2
NMTAP	105	288	6
NMTAP	105	336	7
NMSTR	106	0	6
NMSCL	106	0	6	96	48	3
NMSTR	106	48	7
NMSV_	106	48	7	96	48	2
NMTAP	106	96	6
NMTAP	106	144	7
NMSTR	106	192	6
NMSCL	106	192	6	96	48	3
NMSTR	106	240	7
NMSV_	106	240	7	96	48	2
NMTAP	106	288	6
NMTAP	106	336	7
NMSTR	107	0	6
NMSCL	107	0	6	96	48	3
NMSTR	107	48	7
NMSV_	107	48	7	96	48	2
NMTAP	107	96	6
NMTAP	107	144	7
NMSTR	107	192	6
NMSCL	107	192	6	96	48	3
NMSTR	107	240	7
NMSV_	107	240	7	96	48	2
NMTAP	107	288	6
NMTAP	107	336	7
NMSTR	108	0	6
NMSCL	108	0	6	96	48	3
NMSTR	108	48	7
NMSV_	108	48	7	96	48	2
NMTAP	108	96	6
NMTAP	108	144	7
NMSTR	108	192	6
NMSCL	108	192	6	96	48	3
NMSTR	108	240	7
NMSV_	108	240	7	96	48	2
NMTAP	108	288	6
NMTAP	108	336	7
NMSTR	109	0	6
NMSCL	109	0	6	96	48	3
NMSTR	109	48	7
NMSV_	109	48	7	96	48	2
NMTAP	109	96	6
NMTAP	109	144	7
NMSTR	109	192	6
NMSCL	109	192	6	96	48	3
NMSTR	109	240	7
NMSV_	109	240	7	96	48	2
NMTAP	109	288	6
NMTAP	109	336	7
NMSTR	110	0	6
NMSCL	110	0	6	96	48	3
NMSTR	110	48	7
NMSV_	110	48	7	96	48	2
NMTAP	110	96	6
NMTAP	110	144	7
NMSTR	110	192	6
NMSCL	110	192	6	96	48	3
NMSTR	110	240	7
NMSV_	110	240	7	96	48	2
NMTAP	110	288	6
NMTAP	110	336	7
NMSTR	111	0	6
NMSCL	111	0	6	96	48	3
NMSTR	111	48	7
NMSV_	111	48	7	96	48	2
NMTAP	111	96	6
NMTAP	111	144	7
NMTAP	111	192	6
NMSTR	111	288	0
NMSI_	111	288	0	96	48	4
NMSTR	111	288	7
NMSI_	111	288	7	96	48	5
NMSTR	112	0	0
NMSI_	112	0	0	96	48	2
NMSTR	112	0	7
NMSI_	112	0	7	96	48	3
NMSTR	112	96	0
NMSI_	112	96	0	96	48	4
NMSTR	112	96	7
NMSI_	112	96	7	96	48	5
NMSTR	112	192	0
NMSI_	112	192	0	96	48	2
NMSTR	112	192	7
NMSI_	112	192	7	96	48	3
NMSTR	112	288	0
NMSI_	112	288	0	96	48	4
NMSTR	112	288	7
NMSI_	112	288	7	96	48	5
EXSTR	113	0	0
NMSI_	113	0	0	96	48	2
EXSTR	113	0	7
NMSI_	113	0	7	96	48	3
EXSTR	113	96	0
NMSI_	113	96	0	96	48	4
EXSTR	113	96	7
NMSI_	113	96	7	96	48	5
EXSTR	113	192	0
NMSI_	113	192	0	96	48	2
EXSTR	113	192	7
NMSI_	113	192	7	96	48	3
EXSTR	113	288	0
NMSI_	113	288	0	96	48	4
EXSTR	113	288	7
NMSI_	113	288	7	96	48	5
BXSTR	114	0	0
NMSI_	114	0	0	96	48	2
BXSTR	114	0	7
NMSI_	114	0	7	96	48	3
BXSTR	114	96	0
NMSI_	114	96	0	96	48	4
BXSTR	114	96	7
NMSI_	114	96	7	96	48	5
BXSTR	114	192	0
NMSI_	114	192	0	96	48	2
BXSTR	114	192	7
NMSI_	114	192	7	96	48	3
BXSTR	114	288	0
NMSI_	114	288	0	96	48	4
BXSTR	114	288	7
NMSI_	114	288	7	96	48	5
NMSTR	115	0	0
NMSI_	115	0	0	96	48	2
NMSTR	115	0	7
NMSI_	115	0	7	96	48	3
NMSTR	115	96	0
BRSI_	115	96	0	96	48	4
NMSTR	115	96	7
BRSI_	115	96	7	96	48	5
NMTAP	115	192	0
NMTAP	115	192	7
BRTAP	115	288	0
BRTAP	115	288	7
NMSTR	116	0	6
NMSCL	116	0	6	96	48	3
NMTAP	116	48	6
NMSTR	116	96	7
NMSV_	116	96	7	96	48	2
NMTAP	116	144	7
NMSTR	116	192	6
NMSCL	116	192	6	96	48	3
NMTAP	116	240	6
NMSTR	116	288	7
NMSV_	116	288	7	96	48	2
NMTAP	116	336	7
NMSTR	117	0	6
NMSCL	117	0	6	96	48	3
NMTAP	117	48	6
NMSTR	117	96	7
NMSV_	117	96	7	96	48	2
NMTAP	117	144	7
NMSTR	117	192	6
NMSCL	117	192	6	96	48	3
NMTAP	117	240	6
NMSTR	117	288	7
NMSV_	117	288	7	96	48	2
NMTAP	117	336	7
NMSTR	118	0	6
NMSCL	118	0	6	96	48	3
NMTAP	118	48	6
NMSTR	118	96	7
NMSV_	118	96	7	96	48	2
NMTAP	118	144	7
NMSTR	118	192	6
NMSCL	118	192	6	96	48	3
NMTAP	118	240	6
NMSTR	118	288	7
NMSV_	118	288	7	96	48	2
NMTAP	118	336	7
NMSTR	119	0	6
NMSCL	119	0	6	96	48	3
NMTAP	119	48	6
NMSTR	119	96	7
NMSV_	119	96	7	96	48	2
NMTAP	119	144	7
NMSTR	119	192	6
NMSCL	119	192	6	96	48	3
NMTAP	119	240	6
NMSTR	119	288	7
NMSV_	119	288	7	96	48	2
NMTAP	119	336	7
NMSTR	120	0	6
NMSCL	120	0	6	96	48	3
NMTAP	120	48	6
NMSTR	120	96	7
NMSV_	120	96	7	96	48	2
NMTAP	120	144	7
NMSTR	120	192	6
NMSCL	120	192	6	96	48	3
NMTAP	120	240	6
NMSTR	120	288	7
NMSV_	120	288	7	96	48	2
NMTAP	120	336	7
NMSTR	121	0	6
NMSCL	121	0	6	96	48	3
NMTAP	121	48	6
NMSTR	121	96	7
NMSV_	121	96	7	96	48	2
NMTAP	121	144	7
NMSTR	121	192	6
NMSCL	121	192	6	96	48	3
NMTAP	121	240	6
NMSTR	121	288	7
NMSV_	121	288	7	96	48	2
NMTAP	121	336	7
NMSTR	122	0	6
NMSCL	122	0	6	96	48	3
NMTAP	122	48	6
NMSTR	122	96	7
NMSV_	122	96	7	96	48	2
NMTAP	122	144	7
NMSTR	122	192	6
NMSCL	122	192	6	96	48	3
NMTAP	122	240	6
NMSTR	122	288	7
NMSV_	122	288	7	96	48	2
NMTAP	122	336	7
NMSTR	123	0	6
NMSCL	123	0	6	96	48	3
NMTAP	123	48	6
NMSTR	123	96	7
NMSV_	123	96	7	96	48	2
NMTAP	123	144	7
NMTAP	123	192	6
NMTAP	123	240	6
BRTAP	123	288	0
EXSTR	124	0	6
NMSCL	124	0	6	96	48	3
NMSTR	124	48	7
NMSV_	124	48	7	96	48	2
NMTAP	124	96	6
NMTAP	124	144	7
NMSTR	124	192	6
NMSCL	124	192	6	96	48	3
NMSTR	124	240	7
NMSV_	124	240	7	96	48	2
NMTAP	124	288	6
NMTAP	124	336	7
NMSTR	125	0	6
NMSCL	125	0	6	96	48	3
NMSTR	125	48	7
NMSV_	125	48	7	96	48	2
NMTAP	125	96	6
NMTAP	125	144	7
NMSTR	125	192	6
NMSCL	125	192	6	96	48	3
NMSTR	125	240	7
NMSV_	125	240	7	96	48	2
NMTAP	125	288	6
NMTAP	125	336	7
NMSTR	126	0	6
NMSCL	126	0	6	96	48	3
NMSTR	126	48	7
NMSV_	126	48	7	96	48	2
NMTAP	126	96	6
NMTAP	126	144	7
NMSTR	126	192	6
NMSCL	126	192	6	96	48	3
NMSTR	126	240	7
NMSV_	126	240	7	96	48	2
NMTAP	126	288	6
NMTAP	126	336	7
NMSTR	127	0	6
NMSCL	127	0	6	96	48	3
NMSTR	127	48	7
NMSV_	127	48	7	96	48	2
NMTAP	127	96	6
NMTAP	127	144	7
NMSTR	127	192	6
NMSCL	127	192	6	96	48	3
NMSTR	127	240	7
NMSV_	127	240	7	96	48	2
NMTAP	127	288	6
NMTAP	127	336	7
NMSTR	128	0	6
NMSCL	128	0	6	96	48	3
NMSTR	128	48	7
NMSV_	128	48	7	96	48	2
NMTAP	128	96	6
NMTAP	128	144	7
NMSTR	128	192	6
NMSCL	128	192	6	96	48	3
NMSTR	128	240	7
NMSV_	128	240	7	96	48	2
NMTAP	128	288	6
NMTAP	128	336	7
NMSTR	129	0	6
NMSCL	129	0	6	96	48	3
NMSTR	129	48	7
NMSV_	129	48	7	96	48	2
NMTAP	129	96	6
NMTAP	129	144	7
NMSTR	129	192	6
NMSCL	129	192	6	96	48	3
NMSTR	129	240	7
NMSV_	129	240	7	96	48	2
NMTAP	129	288	6
NMTAP	129	336	7
NMSTR	130	0	6
NMSCL	130	0	6	96	48	3
NMSTR	130	48	7
NMSV_	130	48	7	96	48	2
NMTAP	130	96	6
NMTAP	130	144	7
NMSTR	130	192	6
NMSCL	130	192	6	96	48	3
NMSTR	130	240	7
NMSV_	130	240	7	96	48	2
NMTAP	130	288	6
NMTAP	130	336	7
NMSTR	131	0	6
NMSCL	131	0	6	96	48	3
NMSTR	131	48	7
NMSV_	131	48	7	96	48	2
NMTAP	131	96	6
NMTAP	131	144	7
NMTAP	131	192	6
NMTAP	131	240	7
BRTAP	131	288	0
NMSTR	132	0	6
NMSCL	132	0	6	96	288	3
NMSTR	133	0	7
NMSV_	133	0	7	96	288	2
NMSTR	134	0	6
NMSCL	134	0	6	96	288	3
NMSTR	135	0	7
NMSV_	135	0	7	96	288	2
NMSTR	136	0	6
NMSCL	136	0	6	96	96	3
NMSTR	136	192	7
NMSV_	136	192	7	96	96	2
NMSTR	137	0	6
NMSCL	137	0	6	96	96	3
NMSTR	137	192	7
NMSV_	137	192	7	96	96	2
NMSTR	138	0	6
NMSCL	138	0	6	96	48	3
NMSTR	138	96	7
NMSV_	138	96	7	96	48	2
NMSTR	138	192	6
NMSCL	138	192	6	96	48	3
NMSTR	138	288	7
NMSV_	138	288	7	96	48	2
NMSTR	139	0	6
NMSCL	139	0	6	96	48	3
NMTAP	139	48	6
NMSTR	139	96	7
NMSV_	139	96	7	96	48	2
NMTAP	139	144	7
NMSTR	139	192	6
NMSCL	139	192	6	96	48	3
NMTAP	139	240	6
BRTAP	139	288	0

T_REC_TAP	516
T_REC_BRK	34
T_REC_XTP	77
T_REC_BXX	0
T_REC_HLD	17
T_REC_XHO	4
T_REC_BHO	0
T_REC_BXH	0
T_REC_STR	261
T_REC_BST	1
T_REC_XST	12
T_REC_XBS	8
T_REC_TTP	84
T_REC_THO	0
T_REC_SLD	277
T_REC_BSL	6
T_REC_ALL	1297
T_NUM_TAP	950
T_NUM_BRK	49
T_NUM_HLD	21
T_NUM_SLD	277
T_NUM_ALL	1297
T_JUDGE_TAP	993
T_JUDGE_HLD	94
T_JUDGE_SLD	283
T_JUDGE_ALL	1370
TTM_EACHPAIRS	127
TTM_SCR_TAP	475000
TTM_SCR_BRK	127400
TTM_SCR_HLD	21000
TTM_SCR_SLD	415500
TTM_SCR_ALL	1038900
TTM_SCR_S	1003000
TTM_SCR_SS	1034000
TTM_RAT_ACV	10047

