VERSION	0.00.00	1.04.00
FES_MODE	1
BPM_DEF	160.000	160.000	160.000	160.000
MET_DEF	4	4
RESOLUTION	384
CLK_DEF	384
COMPATIBLE_CODE	MA2

BPM	0	0	160.000
MET	0	0	4	4

NMHLD	1	0	2	768
NMTAP	1	96	3
NMTAP	1	288	3
NMTAP	2	96	4
NMTAP	2	288	4
EXTAP	3	64	5
EXTAP	3	96	4
EXHLD	3	128	6	64
EXHLD	3	192	5	64
EXTAP	3	256	4
EXTAP	3	320	3
EXTAP	3	352	3
EXHLD	4	0	2	64
EXHLD	4	0	4	64
EXTAP	4	96	1
EXHLD	4	96	5	192
NMTAP	4	288	4
NMTAP	5	0	6
NMTTP	5	48	2	B	0	M1
NMTAP	5	96	6
NMTTP	5	144	3	B	0	M1
NMTAP	5	192	5
NMTTP	5	240	2	B	0	M1
NMTAP	5	288	5
NMTTP	5	336	3	B	0	M1
NMTAP	6	0	4
NMTTP	6	48	2	B	0	M1
NMTAP	6	96	4
NMTTP	6	144	3	B	0	M1
NMTAP	6	192	5
NMTTP	6	240	2	B	0	M1
NMTAP	6	288	5
NMTTP	6	336	3	B	0	M1
NMTAP	7	0	6
NMTTP	7	48	2	B	0	M1
NMTAP	7	96	6
NMTTP	7	144	3	B	0	M1
NMTAP	7	192	7
NMTTP	7	240	2	B	0	M1
NMSTR	7	288	7
NMSF_	7	288	7	96	48	3
NMTTP	8	0	7	A	1	M1
NMHLD	9	0	0	96
NMHLD	9	96	1	96
NMHLD	9	192	2	96
NMHLD	9	288	3	96
NMHLD	10	0	4	96
NMHLD	10	96	5	96
NMHLD	10	192	6	96
NMTAP	10	240	7
NMTAP	10	288	7
NMTAP	11	0	1
NMHLD	11	96	1	96
NMHLD	11	192	2	96
NMHLD	11	288	3	96
NMHLD	12	0	4	96
NMHLD	12	96	5	96
NMHLD	12	192	6	96
NMTAP	12	240	7
NMTAP	12	288	7
NMHLD	13	0	2	96
NMHLD	13	96	1	96
NMHLD	13	192	2	96
NMHLD	13	288	3	96
NMHLD	14	0	4	96
NMHLD	14	96	5	96
NMHLD	14	192	6	96
NMTAP	14	240	7
NMTAP	14	288	7
NMHLD	15	0	3	96
NMHLD	15	96	1	96
NMHLD	15	192	2	96
NMHLD	15	288	3	96
NMHLD	16	0	4	96
NMHLD	16	96	5	96
NMTAP	16	192	6
BXTAP	16	240	7
BXTAP	16	288	7
NMHLD	17	0	6	288
NMTAP	17	48	4
NMSTR	17	96	4
NMSV_	17	96	4	96	96	1
NMHLD	18	0	1	288
NMTAP	18	48	3
NMSTR	18	96	3
NMSV_	18	96	3	96	96	6
NMSTR	19	0	3
NMSXR	19	0	3	96	192	5
NMSTR	19	0	6
NMSXL	19	0	6	96	192	4
NMSTR	20	0	0
NMSCR	20	0	0	96	96	4
NMSTR	20	96	4
NMSCR	20	96	4	96	96	0
NMSTR	20	192	0
NMSCR	20	192	0	96	96	4
NMTAP	20	288	4
NMHLD	21	0	6	96
NMTTP	21	96	1	B	0	M1
NMTTP	21	96	2	B	0	M1
NMTAP	21	192	3
NMTAP	21	192	5
NMTTP	21	288	0	B	0	M1
NMTTP	21	288	1	B	0	M1
NMTAP	21	288	4
NMTAP	21	336	4
NMTAP	22	0	3
NMTAP	22	0	4
NMTTP	22	96	2	B	0	M1
NMTTP	22	96	3	B	0	M1
NMTAP	22	96	5
NMTAP	22	192	4
NMTAP	22	192	6
BXTAP	22	256	7
BXTAP	22	320	7
NMSTR	23	0	1
NMSCR	23	0	1	96	48	4
NMTAP	23	48	0
NMTAP	23	96	1
NMTAP	23	192	7
EXSTR	23	240	7
NMSI_	23	240	7	96	48	2
NMSI_	23	240	7	96	48	4
EXTAP	23	288	6
EXTAP	23	336	7
NMTAP	24	48	1
NMTAP	24	48	5
NMHLD	24	96	1	96
NMHLD	24	96	5	96
BRTAP	24	240	7
BRTAP	24	288	7
NMTAP	25	0	2
NMTAP	25	0	6
NMTAP	25	48	5
NMTAP	25	72	3
NMTAP	25	144	2
NMSTR	25	144	6
NMSI_	25	144	6	96	48	2
NMTAP	25	192	2
NMTAP	25	192	6
BRTAP	25	240	0
BRTAP	25	288	0
NMTAP	26	0	6
NMTAP	26	48	5
NMTTP	26	96	0	C	0	M1
BRTAP	26	192	0
BRTAP	26	192	6
BRTAP	26	288	1
BRTAP	26	288	7
NMTAP	27	0	1
NMTAP	27	0	5
NMTAP	27	48	2
NMTAP	27	72	4
NMSTR	27	144	1
NMSI_	27	144	1	96	48	5
NMTAP	27	144	5
NMTAP	27	192	1
NMTAP	27	192	5
BRTAP	27	240	7
BRTAP	27	288	7
NMSTR	28	0	0
NMSCL	28	0	0	96	48	5
NMSTR	28	0	4
NMSCL	28	0	4	96	48	1
NMTAP	28	192	1
NMTAP	28	192	5
NMTAP	28	240	2
NMTAP	28	240	4
NMTAP	28	288	1
NMTAP	28	288	5
NMTAP	29	0	3
NMTAP	29	0	6
NMTAP	29	48	5
NMTAP	29	72	4
NMTAP	29	144	3
NMSTR	29	144	6
NMSI_	29	144	6	96	48	3
NMTAP	29	192	3
NMTAP	29	192	6
BRTAP	29	240	1
BRTAP	29	288	1
NMHLD	30	0	4	48
NMTTP	30	48	2	B	0	M1
NMTTP	30	48	2	A	0	M1
NMHLD	30	96	4	48
NMTTP	30	144	0	B	0	M1
NMTTP	30	144	1	E	0	M1
BXTAP	30	192	1
BXTAP	30	192	5
BXTAP	30	240	2
BXTAP	30	240	4
BXTAP	30	288	1
BXTAP	30	288	5
BXTAP	30	336	2
BXTAP	30	336	4
NMTAP	31	0	1
NMTAP	31	0	4
NMTAP	31	48	2
NMTAP	31	72	3
NMSTR	31	144	1
NMSI_	31	144	1	96	48	4
NMTAP	31	144	4
NMTAP	31	192	1
NMTAP	31	192	4
BRTAP	31	240	6
BRTAP	31	288	6
NMSTR	32	0	2
NMSI_	32	0	2	96	96	5
NMSTR	32	0	5
NMSI_	32	0	5	96	96	2
NMTTP	32	288	6	B	1	M1
NMTAP	33	0	2
NMTAP	33	0	4
NMTAP	33	48	2
NMTAP	33	48	4
NMHLD	33	96	2	192
NMSTR	33	96	4
NMSCL	33	96	4	96	96	0
NMSTR	34	0	4
NMSXR	34	0	4	96	96	4
NMSTR	34	0	7
NMSI_	34	0	7	96	96	4
NMTAP	34	288	6
NMTAP	34	336	7
NMHLD	35	0	1	96
NMHLD	35	0	7	96
NMHLD	35	192	0	96
NMHLD	35	192	6	96
NMSTR	36	0	0
NMSI_	36	0	0	96	96	3
NMSTR	36	0	3
NMSXL	36	0	3	96	96	3
EXTAP	36	240	2
EXTAP	36	288	2
NMHLD	37	0	3	96
NMTAP	37	0	5
NMTTP	37	96	0	C	1	M1
NMHLD	37	192	1	48
NMHLD	37	192	5	48
NMHLD	37	288	2	48
NMHLD	37	288	6	48
NMHLD	38	0	3	48
NMHLD	38	0	7	48
NMHLD	38	96	1	48
NMHLD	38	96	5	48
NMTAP	38	192	0
NMTAP	38	192	1
NMTAP	38	240	2
NMTAP	38	240	7
NMTAP	38	288	3
NMTAP	38	288	6
NMTAP	38	336	4
NMTAP	38	336	5
NMSTR	39	0	4
NMSCL	39	0	4	96	192	5
NMSCR	39	0	4	96	192	3
NMHLD	40	0	0	96
NMHLD	40	0	7	96
NMTAP	40	144	5
NMTAP	40	168	4
NMTAP	40	192	6
NMTAP	40	288	3
NMTAP	40	288	6
NMHLD	40	336	3	144
NMHLD	40	336	6	144
NMTAP	41	144	1
NMTAP	41	144	4
NMHLD	41	192	1	96
NMHLD	41	192	4	96
NMTAP	41	336	3
NMTAP	41	336	5
NMTAP	42	0	3
NMTAP	42	0	5
NMTAP	42	48	2
NMTAP	42	48	6
NMTAP	42	96	2
NMTAP	42	96	6
NMTAP	42	144	1
NMTAP	42	144	7
NMHLD	42	192	1	96
NMTAP	42	192	7
NMSTR	42	288	6
NMSI_	42	288	6	96	192	1
NMHLD	43	0	3	360
NMTAP	44	240	3
NMTAP	44	240	4
NMSTR	44	288	3
NMSCR	44	288	3	96	96	7
NMTAP	44	288	4
NMSTR	45	0	7
NMSCL	45	0	7	96	96	3
NMTAP	45	96	4
NMSTR	45	192	7
NMSI_	45	192	7	96	96	3
NMSTR	45	288	3
NMSCL	45	288	3	96	96	0
NMSTR	46	0	0
NMSCR	46	0	0	96	96	4
NMTAP	46	96	3
NMTAP	46	192	0
NMTAP	46	240	0
NMTAP	46	288	0
NMTAP	46	288	7
NMHLD	46	336	0	96
NMHLD	46	336	7	96
NMTAP	47	96	6
NMTAP	47	96	7
NMTAP	47	192	0
NMTAP	47	192	1
NMTAP	47	288	6
NMTAP	47	288	7
NMSTR	48	0	1
NMSI_	48	0	1	96	48	3
NMSTR	48	0	5
NMSI_	48	0	5	96	48	3
NMTAP	48	48	0
NMTAP	48	48	6
NMTAP	48	96	1
NMTAP	48	96	5
EXSTR	48	192	2
NMSI_	48	192	2	96	48	4
EXSTR	48	192	6
NMSI_	48	192	6	96	48	4
EXTAP	48	240	1
EXTAP	48	240	7
EXTAP	48	288	2
EXTAP	48	288	6
NMHLD	49	0	1	48
NMHLD	49	0	7	48
NMTAP	49	96	1
NMTAP	49	96	7
NMHLD	49	192	0	48
NMHLD	49	192	2	48
NMTAP	49	288	0
NMTAP	49	288	2
NMHLD	50	0	0	48
NMHLD	50	0	6	48
NMTAP	50	96	0
NMTAP	50	96	6
NMHLD	50	192	5	48
NMHLD	50	192	7	48
NMTAP	50	288	5
NMTAP	50	288	7
NMHLD	51	0	3	96
NMHLD	51	0	5	96
NMTAP	51	144	2
NMTAP	51	144	4
NMHLD	51	192	2	96
NMHLD	51	192	4	96
NMTAP	51	336	1
NMTAP	51	336	6
NMHLD	52	0	0	96
NMHLD	52	0	7	96
NMTAP	52	192	2
NMTAP	52	192	4
NMSTR	52	288	3
NMSCR	52	288	3	96	96	7
NMTAP	52	288	5
NMSTR	53	0	7
NMSCL	53	0	7	96	96	3
NMTAP	53	96	4
NMSTR	53	192	7
NMSI_	53	192	7	96	96	3
NMSTR	53	288	3
NMSCL	53	288	3	96	96	0
NMSTR	54	0	0
NMSCR	54	0	0	96	96	4
NMTAP	54	96	3
NMTAP	54	192	0
NMTAP	54	240	0
NMTAP	54	288	0
NMTAP	54	288	7
NMHLD	54	336	0	96
NMHLD	54	336	7	96
NMHLD	55	96	6	48
NMHLD	55	96	7	48
NMHLD	55	192	0	48
NMHLD	55	192	1	48
NMHLD	55	288	6	48
NMHLD	55	288	7	48
NMTAP	56	0	1
NMTAP	56	0	5
NMTAP	56	48	2
NMTAP	56	48	4
NMTAP	56	96	1
NMTAP	56	96	5
NMTAP	56	192	2
NMTAP	56	192	6
NMTAP	56	240	3
NMTAP	56	240	5
NMTAP	56	288	2
NMTAP	56	288	6
NMHLD	57	0	1	48
NMHLD	57	0	7	48
NMTTP	57	96	3	B	0	M1
NMTTP	57	96	4	B	0	M1
NMTTP	57	96	5	B	0	M1
NMHLD	57	192	0	48
NMHLD	57	192	2	48
NMTTP	57	288	3	B	0	M1
NMTTP	57	288	4	B	0	M1
NMTTP	57	288	5	B	0	M1
NMHLD	58	0	0	48
NMHLD	58	0	6	48
NMTTP	58	96	2	B	0	M1
NMTTP	58	96	3	B	0	M1
NMTTP	58	96	4	B	0	M1
NMTAP	58	192	5
NMTAP	58	192	7
NMTAP	58	240	5
NMTAP	58	240	7
NMTAP	58	288	5
NMTAP	58	288	7
NMHLD	58	336	1	96
NMHLD	58	336	4	96
NMTAP	59	96	2
NMTAP	59	96	3
NMHLD	59	192	3	48
NMHLD	59	192	6	48
NMTAP	59	288	4
NMTAP	59	288	5
NMTAP	59	336	3
NMTAP	59	336	6
BRTAP	60	48	1
BRTAP	60	48	6
BRTAP	60	96	1
BRTAP	60	96	6
BRTAP	60	192	1
BRTAP	60	192	6
NMSTR	60	288	1
NMSCR	60	288	1	96	96	4
NMSTR	60	288	5
NMSCR	60	288	5	96	96	0
NMHLD	61	192	0	96
NMHLD	61	192	7	96
NMHLD	62	0	2	144
NMHLD	62	0	5	144
NMTTP	62	240	0	B	0	M1
NMTTP	62	240	0	E	0	M1
NMTTP	62	240	5	B	0	M1
NMTTP	62	240	6	E	0	M1
NMHLD	62	288	6	96
NMHLD	62	288	7	96
NMTAP	63	96	6
NMTAP	63	144	4
NMTAP	63	192	5
NMTAP	63	240	3
NMTAP	63	288	7
NMTAP	63	336	4
NMTAP	64	0	5
NMTAP	64	48	3
NMTAP	64	96	0
NMHLD	64	144	4	48
BXTAP	64	240	1
BXTAP	64	240	7
BXTAP	64	288	1
BXTAP	64	288	7
NMTAP	65	0	0
NMTAP	65	0	5
NMTAP	65	96	2
NMTAP	65	96	7
NMTAP	65	192	0
NMTAP	65	192	6
NMTAP	65	288	1
NMTAP	65	288	7
NMTAP	66	0	0
NMTAP	66	0	5
NMTAP	66	96	2
NMTAP	66	96	7
NMTAP	66	192	1
NMHLD	66	192	5	96
EXTAP	66	368	0
EXTAP	67	16	4
EXTAP	67	48	0
EXTAP	67	80	4
EXTAP	67	128	1
EXTAP	67	192	5
EXTAP	67	240	1
EXTAP	67	292	6
EXTAP	67	324	2
EXHLD	67	368	6	208
EXHLD	68	48	2	144
NMTTP	68	198	3	E	0	M1
NMTTP	68	198	7	E	0	M1
NMTTP	68	204	3	B	0	M1
NMTTP	68	204	7	B	0	M1
NMTTP	68	210	0	B	0	M1
NMTTP	68	210	4	B	0	M1
NMTTP	68	216	1	E	0	M1
NMTTP	68	216	5	E	0	M1
NMSTR	69	96	3
NMSCL	69	96	3	96	192	7
NMSTR	69	96	7
NMSCL	69	96	7	96	192	3
NMTAP	70	96	3
NMTAP	70	96	7
NMSTR	70	192	3
NMSI_	70	192	3	96	48	6
NMSTR	70	192	7
NMSI_	70	192	7	96	48	2
NMSTR	71	0	7
NMSCL	71	0	7	96	288	2
NMTAP	71	192	2
NMTAP	71	288	1
NMSTR	72	0	0
NMSCL	72	0	0	96	288	3
NMTAP	72	192	3
NMTAP	72	288	2
NMSTR	73	0	1
NMSCL	73	0	1	96	288	4
NMTAP	73	192	4
NMTAP	73	288	3
NMSTR	74	0	2
NMSCL	74	0	2	96	288	5
NMTAP	74	192	5
NMTAP	74	288	4
NMHLD	75	0	3	288
NMTAP	75	96	2
NMTAP	75	192	2
NMTAP	75	288	2
NMHLD	76	0	0	96
NMHLD	76	0	6	96
NMTAP	76	144	0
NMTAP	76	144	6
NMTAP	76	240	0
NMTAP	76	240	6
NMTAP	76	288	1
NMTAP	76	288	5
NMHLD	76	336	1	144
NMHLD	76	336	5	144
NMTAP	77	144	2
NMTAP	77	144	6
NMHLD	77	192	2	96
NMHLD	77	192	6	96
NMTAP	77	336	0
NMTAP	77	336	6
NMTAP	78	0	0
NMTAP	78	0	6
NMTAP	78	48	1
NMTAP	78	48	5
NMTAP	78	96	1
NMTAP	78	96	5
NMTAP	78	144	2
NMTAP	78	144	4
NMHLD	78	192	2	96
NMHLD	78	192	4	96
NMSTR	79	0	0
NMSCR	79	0	0	96	192	6
NMTHO	79	0	0	480	C	0	M1
CNSLL	79	288	6	0	192	1
NMTAP	80	240	0
NMTAP	80	240	7
NMTAP	80	288	0
NMTAP	80	288	7
NMTAP	81	0	4
NMTAP	81	0	6
NMTAP	81	96	5
NMTAP	81	96	7
NMHLD	81	192	4	96
NMHLD	81	192	6	96
NMTAP	82	0	1
NMTAP	82	0	3
NMTAP	82	96	0
NMTAP	82	96	2
NMHLD	82	192	1	96
NMHLD	82	192	3	96
NMTAP	83	0	0
NMTAP	83	0	1
NMTAP	83	96	6
NMTAP	83	96	7
NMTAP	83	192	0
NMTAP	83	192	1
NMTAP	83	288	6
NMTAP	83	288	7
NMSTR	84	0	1
NMSI_	84	0	1	96	48	3
NMSTR	84	0	5
NMSI_	84	0	5	96	48	3
NMTAP	84	96	1
NMTAP	84	96	5
EXSTR	84	192	2
NMSI_	84	192	2	96	48	4
EXSTR	84	192	6
NMSI_	84	192	6	96	48	4
EXTAP	84	288	2
EXTAP	84	288	6
NMHLD	85	0	1	48
NMHLD	85	0	7	48
NMTAP	85	96	1
NMTAP	85	96	7
NMHLD	85	192	0	48
NMHLD	85	192	2	48
NMTAP	85	288	0
NMTAP	85	288	2
NMHLD	86	0	0	48
NMHLD	86	0	6	48
NMTAP	86	96	0
NMTAP	86	96	6
NMHLD	86	192	5	48
NMHLD	86	192	7	48
NMTAP	86	288	5
NMTAP	86	288	7
NMHLD	87	0	3	96
NMHLD	87	0	5	96
NMTAP	87	144	2
NMTAP	87	144	4
NMHLD	87	192	2	96
NMHLD	87	192	4	96
NMTAP	87	336	3
NMTAP	87	336	6
NMTAP	88	0	3
NMTAP	88	0	6
NMTAP	88	48	5
NMTAP	88	72	4
BXTAP	88	96	6
NMTAP	88	144	2
NMTAP	88	168	3
BXTAP	88	192	1
BXSTR	88	288	3
BRSCR	88	288	3	96	96	7
BXTAP	88	288	6
NMTTP	89	0	3	A	1	M1
NMSTR	89	0	7
BRSCL	89	0	7	96	96	3
NMTAP	89	96	4
NMSTR	89	192	7
BRSI_	89	192	7	96	96	3
NMSTR	89	288	3
BRSCL	89	288	3	96	96	0
NMSTR	90	0	0
BRSCR	90	0	0	96	96	4
NMTAP	90	96	3
NMTAP	90	192	0
NMTAP	90	240	0
NMTAP	90	288	0
NMTAP	90	288	7
NMHLD	90	336	0	96
NMHLD	90	336	7	96
NMHLD	91	96	6	48
NMHLD	91	96	7	48
NMHLD	91	192	0	48
NMHLD	91	192	1	48
NMHLD	91	288	6	48
NMHLD	91	288	7	48
BRTAP	92	0	1
BRTAP	92	0	5
BRTAP	92	48	2
BRTAP	92	48	4
BRTAP	92	96	1
BRTAP	92	96	5
BRTAP	92	192	2
BRTAP	92	192	6
BRTAP	92	240	3
BRTAP	92	240	5
BRTAP	92	288	2
BRTAP	92	288	6
NMTAP	93	0	1
NMTAP	93	0	7
NMTAP	93	96	3
NMTAP	93	96	4
NMTAP	93	192	1
NMTAP	93	192	7
NMTAP	93	288	3
NMTAP	93	288	4
NMTAP	94	0	0
NMTAP	94	0	6
NMTAP	94	96	3
NMTAP	94	96	4
NMTAP	94	192	0
NMTAP	94	192	6
NMTAP	94	240	0
NMSTR	94	240	6
NMSI_	94	240	6	96	48	2
EXTAP	94	336	0
EXTAP	94	336	6
NMTTP	94	342	0	C	1	M1
NMSTR	95	96	1
NMSI_	95	96	1	96	48	5
NMTAP	95	96	7
EXTAP	95	192	1
EXTAP	95	192	7
NMTTP	95	198	0	C	1	M1
EXTAP	95	288	3
EXTAP	95	288	4
EXTAP	95	336	3
EXTAP	95	336	4
BRTAP	96	48	2
BRTAP	96	48	5
BRTAP	96	96	1
BRTAP	96	96	6
BRTAP	96	192	1
BRTAP	96	192	6
NMSTR	96	288	1
BRSCR	96	288	1	96	96	4
NMSTR	96	288	5
BRSCR	96	288	5	96	96	0
NMTAP	97	192	0
NMTAP	97	192	7
NMSTR	97	288	0
BRSI_	97	288	0	96	48	4
NMSTR	97	288	7
BRSI_	97	288	7	96	48	3
NMTAP	98	0	0
NMTAP	98	0	7
BXTAP	98	240	1
BXTAP	98	240	5
BXHLD	98	288	0	1344
BXHLD	98	288	6	1344

T_REC_TAP	293
T_REC_BRK	38
T_REC_XTP	33
T_REC_BXX	21
T_REC_HLD	131
T_REC_XHO	7
T_REC_BHO	0
T_REC_BXH	2
T_REC_STR	59
T_REC_BST	0
T_REC_XST	5
T_REC_XBS	1
T_REC_TTP	49
T_REC_THO	1
T_REC_SLD	58
T_REC_BSL	9
T_REC_ALL	707
T_NUM_TAP	439
T_NUM_BRK	71
T_NUM_HLD	139
T_NUM_SLD	58
T_NUM_ALL	707
T_JUDGE_TAP	499
T_JUDGE_HLD	341
T_JUDGE_SLD	67
T_JUDGE_ALL	907
TTM_EACHPAIRS	203
TTM_SCR_TAP	219500
TTM_SCR_BRK	184600
TTM_SCR_HLD	139000
TTM_SCR_SLD	87000
TTM_SCR_ALL	630100
TTM_SCR_S	604350
TTM_SCR_SS	623000
TTM_RAT_ACV	10113

