VERSION	0.00.00	1.04.00
FES_MODE	1
BPM_DEF	185.000	185.000	185.000	185.000
MET_DEF	4	4
RESOLUTION	384
CLK_DEF	384
COMPATIBLE_CODE	MA2

BPM	0	0	185.000
MET	0	0	4	4

NMSTR	2	0	0
NMSSL	2	0	4	96	96	0
BXTAP	2	288	2
BXTAP	2	288	6
NMTAP	3	0	1
NMTAP	3	96	1
NMHLD	3	192	0	96
NMHLD	3	192	2	96
NMTAP	4	0	6
NMTAP	4	96	6
NMHLD	4	192	5	96
NMHLD	4	192	7	96
NMTAP	5	0	4
NMTAP	5	96	4
NMHLD	5	192	3	96
NMHLD	5	192	5	96
EXTAP	6	0	2
EXTAP	6	0	4
NMSI_	6	96	0	96	48	3
EXSTR	6	96	3
EXTAP	6	96	5
NMSTR	6	192	4
NMSI_	6	192	7	96	48	4
NMTAP	7	0	0
NMTAP	7	96	1
NMTAP	7	96	7
NMTAP	7	192	6
NMTAP	7	240	4
NMTAP	7	288	5
NMTAP	8	0	3
NMTAP	8	96	2
NMTAP	8	96	4
NMTAP	8	192	1
NMTAP	8	240	3
NMTAP	8	288	0
NMTTP	9	0	1	E	0	M1
NMTTP	9	48	2	E	0	M1
NMTTP	9	96	3	E	0	M1
NMTTP	9	144	4	E	0	M1
NMTTP	9	192	5	E	0	M1
NMTTP	9	240	6	E	0	M1
NMTTP	9	288	7	E	0	M1
NMSTR	10	0	0
NMSTR	10	0	6
NMSI_	10	0	7	96	48	2
NMSI_	10	0	7	96	48	4
CNSI_	10	144	2	0	48	0
CNSI_	10	144	4	0	48	6
BRTAP	10	288	0
BRTAP	10	288	6
NMTAP	11	0	6
NMTAP	11	0	7
NMTAP	11	96	0
NMTAP	11	96	5
NMTAP	11	192	1
NMTAP	11	192	7
NMTAP	11	288	2
NMTAP	11	336	0
NMTAP	12	0	1
NMTAP	12	96	2
NMTAP	12	96	7
NMTAP	12	192	0
NMTAP	12	192	6
NMTAP	12	288	5
NMTAP	12	336	7
NMTAP	13	0	6
NMTAP	13	96	0
NMTAP	13	96	5
NMTAP	13	192	1
NMTAP	13	240	1
NMTAP	13	288	5
NMTAP	13	336	5
NMTAP	14	0	3
NMTAP	14	96	2
NMSTR	14	96	4
NMSI_	14	96	7	96	48	4
NMSI_	14	192	0	96	48	3
NMSTR	14	192	3
EXTAP	15	0	6
EXTAP	15	48	6
EXTAP	15	96	6
EXTAP	15	96	7
NMTAP	15	192	1
NMTAP	15	192	7
NMTAP	15	288	2
NMTAP	15	336	0
NMTAP	16	0	1
NMTAP	16	96	2
NMTAP	16	96	7
NMTAP	16	192	0
NMTAP	16	192	6
NMTAP	16	288	5
NMTAP	16	336	7
NMTAP	17	0	6
NMTAP	17	0	7
NMTAP	17	96	0
NMTAP	17	96	1
NMTAP	17	192	2
NMTAP	17	192	3
NMTAP	17	288	4
NMTAP	17	288	5
NMSF_	18	0	3	96	96	7
NMTAP	18	0	6
NMSTR	18	0	7
BXTAP	18	288	2
BXTAP	18	288	4
NMHLD	19	0	2	336
NMTAP	19	96	4
NMTAP	19	192	3
NMTAP	19	288	3
NMHLD	19	336	3	144
NMTAP	20	48	1
NMHLD	20	96	1	96
NMTAP	20	192	2
NMTAP	20	288	1
NMTAP	20	288	3
NMHLD	21	0	5	336
NMTAP	21	96	3
NMTAP	21	192	4
NMTAP	21	288	4
NMHLD	21	336	4	144
NMTAP	22	48	6
NMHLD	22	96	6	96
NMTAP	22	192	5
NMTAP	22	288	4
NMTAP	22	288	6
NMHLD	23	0	2	336
NMTAP	23	96	0
NMTAP	23	192	1
NMTAP	23	288	3
NMHLD	23	336	3	240
NMTAP	24	48	4
NMTAP	24	96	4
NMTAP	24	192	2
NMTAP	24	288	1
NMTAP	24	288	3
NMHLD	25	0	5	336
NMTAP	25	96	7
NMTAP	25	192	6
NMTAP	25	288	4
NMHLD	25	336	4	240
NMTAP	26	48	3
NMTAP	26	96	3
NMTAP	26	192	5
BRTAP	26	288	7
NMHLD	27	0	0	768
NMTAP	27	96	7
NMTAP	27	192	7
NMTAP	27	288	1
NMTAP	28	0	6
NMTAP	28	96	2
NMTAP	28	192	5
NMTAP	28	288	3
NMHLD	29	0	4	576
NMTAP	29	96	0
NMTAP	29	192	7
NMTAP	29	288	1
NMTAP	30	0	6
NMTAP	30	96	2
NMTAP	30	192	5
NMTAP	30	288	3
NMTAP	30	288	4
NMHLD	31	0	2	144
NMTAP	31	96	0
NMTAP	31	144	0
NMTAP	31	240	1
NMTAP	31	240	7
NMTAP	31	288	1
NMTAP	31	288	7
NMHLD	32	0	5	144
NMTAP	32	96	7
NMTAP	32	144	7
NMTAP	32	240	0
NMTAP	32	240	6
NMTAP	32	288	0
NMTAP	32	288	6
NMTHO	33	0	0	288	C	0	M1
NMSI_	34	0	0	96	48	3
NMSI_	34	0	0	96	48	5
EXSTR	34	0	1
EXSTR	34	0	7
CNSI_	34	144	3	0	48	1
CNSI_	34	144	5	0	48	7
BRTAP	34	288	1
BRTAP	34	288	7
NMTAP	35	0	0
NMTAP	35	0	7
NMTAP	35	96	4
NMTAP	35	96	6
NMTAP	35	192	2
NMTAP	35	192	3
NMTAP	35	288	0
NMTAP	35	288	1
NMTAP	36	0	5
NMTAP	36	0	6
NMTAP	36	96	2
NMTAP	36	96	3
NMTAP	36	192	0
NMTAP	36	192	7
NMTAP	36	288	4
NMTAP	36	288	5
NMSTR	37	0	0
NMSTR	37	0	1
NMSCL	37	0	4	96	48	1
NMSCR	37	0	5	96	48	0
EXTAP	37	192	4
EXTAP	37	192	5
EXTAP	37	264	2
EXTAP	37	264	3
EXTAP	37	336	0
EXTAP	37	336	7
EXTAP	38	0	0
EXTAP	38	0	7
NMSI_	38	96	0	96	48	3
NMSTR	38	96	3
NMTAP	38	96	6
NMSTR	38	192	4
NMSI_	38	192	7	96	48	4
NMTAP	39	0	0
NMTAP	39	0	1
NMTAP	39	96	3
NMTAP	39	96	5
NMTAP	39	192	2
NMTAP	39	192	3
NMTAP	39	288	1
NMTAP	39	288	4
NMTAP	40	0	6
NMTAP	40	0	7
NMTAP	40	96	2
NMTAP	40	96	4
NMTAP	40	192	4
NMTAP	40	192	5
NMTAP	40	288	3
NMTAP	40	288	6
NMTAP	41	0	2
NMTAP	41	48	2
NMTAP	41	96	0
NMTAP	41	144	0
NMTAP	41	192	7
NMTAP	41	240	7
NMTAP	41	288	5
NMTAP	41	336	5
NMSTR	42	0	0
NMSI_	42	0	4	96	48	2
CNSI_	42	144	2	0	96	6
CNSI_	42	240	6	0	48	0
BRTAP	42	288	5
NMHLD	43	0	5	48
NMHLD	43	0	7	48
NMHLD	43	96	0	48
NMHLD	43	96	1	48
NMTAP	43	192	0
NMTAP	43	192	2
NMTAP	43	264	0
NMTAP	43	264	2
NMTAP	43	336	0
NMTAP	43	336	2
NMHLD	44	0	0	48
NMHLD	44	0	2	48
NMHLD	44	96	6	48
NMHLD	44	96	7	48
NMTAP	44	192	5
NMTAP	44	192	7
NMTAP	44	264	5
NMTAP	44	264	7
NMTAP	44	336	5
NMTAP	44	336	7
NMHLD	45	0	5	48
NMHLD	45	0	7	48
NMHLD	45	96	3	48
NMHLD	45	96	4	48
NMTAP	45	192	2
NMTAP	45	192	5
NMTAP	45	264	1
NMTAP	45	264	6
NMTAP	45	336	0
NMTAP	45	336	7
NMSTR	46	0	0
NMSI_	46	0	4	96	48	0
NMTAP	46	0	7
NMSTR	46	96	5
NMSI_	46	96	7	96	48	5
NMSI_	46	192	0	96	48	2
NMSTR	46	192	2
NMTAP	47	0	4
NMTAP	47	48	4
NMTAP	47	96	5
NMTAP	47	144	5
NMTAP	47	192	6
NMTAP	47	240	6
NMTAP	47	288	6
NMTAP	47	288	7
NMTAP	48	0	3
NMTAP	48	48	3
NMTAP	48	96	2
NMTAP	48	144	2
NMTAP	48	192	1
NMTAP	48	240	1
NMTAP	48	288	0
NMTAP	48	288	1
NMTAP	49	0	1
NMTAP	49	0	6
NMTAP	49	48	1
NMTAP	49	48	6
NMTAP	49	96	1
NMTAP	49	96	6
NMTAP	49	144	1
NMTAP	49	144	6
NMTAP	49	192	7
NMTAP	49	216	0
NMTAP	49	240	7
NMTAP	49	264	0
NMTAP	49	288	7
NMTAP	49	312	0
NMTAP	49	336	7
NMTAP	49	360	0
BRSF_	50	0	3	96	48	7
NMSTR	50	0	7
BRTAP	50	288	2
BRTAP	50	288	4
NMSI_	51	0	0	96	48	2
NMSI_	51	0	0	96	48	4
NMSTR	51	0	2
NMSTR	51	0	4
NMTAP	51	192	1
NMTAP	51	240	1
NMTAP	51	288	0
NMTAP	51	336	0
NMSTR	52	0	2
NMSI_	52	0	3	96	48	7
NMSTR	52	0	7
NMSI_	52	0	7	96	48	2
BRTAP	52	192	0
BRTAP	52	192	4
NMTAP	53	0	6
NMTAP	53	24	7
NMTAP	53	48	6
NMTAP	53	96	1
NMTAP	53	120	0
NMTAP	53	144	1
NMTAP	53	192	6
NMTAP	53	216	7
NMTAP	53	240	6
NMTAP	53	288	1
NMTAP	53	312	0
NMTAP	53	336	1
EXTAP	54	0	7
EXTAP	54	32	7
EXTAP	54	64	7
EXTAP	54	96	0
EXTAP	54	128	0
EXTAP	54	160	0
EXTAP	54	192	7
BRTAP	54	288	1
BRTAP	54	288	6
NMSTR	55	0	3
NMSTR	55	0	5
NMSI_	55	0	7	96	48	3
NMSI_	55	0	7	96	48	5
NMTAP	55	192	6
NMTAP	55	240	6
NMTAP	55	288	7
NMTAP	55	336	7
NMSTR	56	0	0
NMSI_	56	0	0	96	48	5
NMSI_	56	0	4	96	48	0
NMSTR	56	0	5
BRTAP	56	192	3
BRTAP	56	192	7
NMSI_	57	0	1	96	48	3
NMSTR	57	0	3
NMTAP	57	48	3
NMSI_	57	96	0	96	48	4
NMSTR	57	96	4
NMTAP	57	144	4
NMSTR	57	192	3
NMSI_	57	192	7	96	48	3
NMTAP	57	240	3
NMSCL	57	288	3	96	192	4
NMSTR	57	288	4
NMTAP	57	336	4
BRTAP	58	288	0
NMHLD	59	0	1	768
NMTTP	60	0	1	E	0	M1
NMTTP	60	192	3	E	0	M1
NMHLD	61	0	5	768
NMTTP	61	192	7	E	0	M1
NMTTP	62	0	6	E	0	M1
NMTTP	62	192	5	E	0	M1
NMHLD	63	0	2	384
NMTAP	63	192	3
NMTAP	63	288	4
NMHLD	64	0	5	288
NMTAP	64	192	4
NMSTR	64	288	3
NMSXL	64	288	7	96	384	3
NMTAP	66	192	3
NMHLD	66	192	4	864
NMTTP	67	0	4	B	0	M1
NMTTP	67	96	5	B	0	M1
NMTTP	67	192	6	B	0	M1
NMTTP	67	288	7	B	0	M1
NMTTP	68	0	0	B	0	M1
NMTTP	68	96	1	B	0	M1
NMTTP	68	192	2	B	0	M1
EXHLD	68	288	3	672
NMTTP	69	0	4	E	0	M1
NMTTP	69	96	3	E	0	M1
NMTTP	69	192	2	E	0	M1
NMTTP	69	288	1	E	0	M1
NMTTP	70	0	0	E	0	M1
NMTTP	70	96	7	E	0	M1
NMTTP	70	192	6	E	0	M1
NMTAP	70	288	3
NMTAP	70	288	4
NMTAP	71	0	1
NMTAP	71	48	1
NMTAP	71	96	3
NMTAP	71	144	3
NMTAP	71	192	2
NMTAP	71	240	2
NMTAP	71	288	2
NMTAP	71	288	3
NMTAP	72	0	5
NMTAP	72	48	5
NMTAP	72	96	4
NMTAP	72	144	4
NMTAP	72	192	6
NMTAP	72	240	6
NMTAP	72	288	6
NMTAP	72	288	7
NMTAP	73	0	0
NMTAP	73	24	7
NMTAP	73	48	0
NMTAP	73	72	7
NMTAP	73	96	0
NMTAP	73	120	7
NMTAP	73	144	0
NMTAP	73	168	7
NMTAP	73	192	0
NMTAP	73	216	7
NMTAP	73	240	0
NMTAP	73	264	7
NMTAP	73	288	0
EXSTR	74	0	0
EXSTR	74	0	6
NMSI_	74	0	7	96	48	2
NMSI_	74	0	7	96	48	4
CNSI_	74	144	2	0	48	0
CNSI_	74	144	4	0	48	6
BRTAP	74	288	0
BRTAP	74	288	6
NMTAP	75	0	0
NMTAP	75	0	7
NMTAP	75	96	3
NMTAP	75	96	5
NMTAP	75	192	1
NMTAP	75	192	2
NMTAP	75	288	0
NMTAP	75	288	6
NMTAP	76	0	4
NMTAP	76	0	5
NMTAP	76	96	0
NMTAP	76	96	1
NMTAP	76	192	2
NMTAP	76	192	3
NMTAP	76	288	6
NMTAP	76	288	7
NMTAP	76	336	6
NMTAP	76	336	7
NMSI_	77	0	2	96	48	7
NMSI_	77	0	3	96	48	6
NMSTR	77	0	6
NMSTR	77	0	7
NMSTR	77	192	0
NMSTR	77	192	1
NMSI_	77	192	4	96	48	1
NMSI_	77	192	5	96	48	0
NMTAP	78	0	3
NMTAP	78	0	6
NMSI_	78	96	0	96	48	4
NMTAP	78	96	2
NMSTR	78	96	4
NMSTR	78	192	3
NMSI_	78	192	7	96	48	3
NMTAP	78	288	6
NMTAP	79	0	0
NMTAP	79	0	6
NMTAP	79	96	1
NMTAP	79	96	3
NMTAP	79	192	4
NMTAP	79	192	5
NMTAP	79	288	0
NMTAP	79	288	6
NMTAP	80	0	2
NMTAP	80	0	3
NMTAP	80	96	0
NMTAP	80	96	7
NMTAP	80	192	4
NMTAP	80	192	6
NMTAP	80	288	1
NMSTR	80	288	3
NMSCR	80	288	4	96	288	3
EXHLD	82	0	0	192
EXHLD	82	0	7	192
BRTAP	82	288	2
BRTAP	82	288	5
NMTAP	83	0	3
NMTAP	83	0	4
NMTAP	83	48	2
NMTAP	83	48	5
NMTAP	83	96	1
NMTAP	83	96	6
NMTAP	83	192	6
NMTAP	83	192	7
NMTAP	83	288	2
NMTAP	83	288	4
NMTAP	84	0	0
NMTAP	84	0	1
NMTAP	84	96	4
NMTAP	84	96	5
NMTAP	84	192	6
NMTAP	84	192	7
NMTAP	84	288	2
NMTAP	84	288	3
NMTAP	84	336	2
NMTAP	84	336	3
NMSTR	85	0	2
NMSTR	85	0	3
NMSI_	85	0	6	96	48	3
NMSI_	85	0	7	96	48	2
NMSI_	85	192	0	96	48	5
NMSI_	85	192	1	96	48	4
NMSTR	85	192	4
NMSTR	85	192	5
NMTAP	86	0	2
NMTAP	86	0	7
NMSTR	86	96	3
NMTAP	86	96	6
NMSI_	86	96	7	96	48	3
NMSI_	86	192	0	96	48	4
NMSTR	86	192	4
NMTAP	86	288	1
NMTAP	87	0	2
NMTAP	87	48	2
NMTAP	87	96	0
NMTAP	87	144	0
NMTAP	87	192	7
NMTAP	87	240	7
NMTAP	87	288	5
NMTAP	87	336	5
NMTAP	88	0	4
NMTAP	88	48	4
NMTAP	88	96	2
NMTAP	88	144	2
NMTAP	88	192	1
NMTAP	88	240	1
NMSXL	88	288	3	96	288	7
NMSXR	88	288	3	96	288	7
NMSTR	88	288	7
NMHLD	90	0	2	192
NMHLD	90	0	4	192
BRTAP	90	288	0
BRTAP	90	288	6
NMSUL	91	0	3	96	96	7
NMSUR	91	0	3	96	96	7
NMSTR	91	0	7
BXTAP	91	288	2
BXTAP	91	288	4
NMTAP	92	0	5
NMTAP	92	48	6
NMTAP	92	96	1
NMTAP	92	144	0
NMTAP	92	192	6
NMTAP	92	216	7
NMTAP	92	240	6
NMTAP	92	264	7
NMTAP	92	288	6
NMTAP	93	0	2
NMTAP	93	48	1
NMTAP	93	96	6
NMTAP	93	144	7
NMTAP	93	192	1
NMTAP	93	216	0
NMTAP	93	240	1
NMTAP	93	264	0
NMTAP	93	288	1
NMSTR	94	0	2
NMSI_	94	0	7	96	48	2
NMSI_	94	96	1	96	48	5
NMSTR	94	96	5
NMSI_	94	192	0	96	48	3
NMSTR	94	192	3
NMTAP	94	288	7
NMTAP	95	0	6
NMTAP	95	48	5
NMTAP	95	96	2
NMTAP	95	144	3
NMTAP	95	192	5
NMTAP	95	216	4
NMTAP	95	240	5
NMTAP	95	264	4
NMTAP	95	288	5
NMTAP	96	0	1
NMTAP	96	48	2
NMTAP	96	96	5
NMTAP	96	144	4
NMTAP	96	192	2
NMTAP	96	216	3
NMTAP	96	240	2
NMTAP	96	264	3
NMTAP	96	288	2
NMTAP	97	0	0
NMTAP	97	24	7
NMTAP	97	48	0
NMTAP	97	72	7
NMTAP	97	96	0
NMTAP	97	120	7
NMTAP	97	144	0
NMTAP	97	168	7
NMTAP	97	192	1
NMTAP	97	216	6
NMTAP	97	240	1
NMTAP	97	264	6
NMTAP	97	288	1
NMTAP	97	312	6
NMTAP	97	336	1
NMTAP	97	360	6
NMSTR	98	0	0
BRSUL	98	0	3	96	192	0
BRTAP	98	288	4
EXHLD	99	0	4	288
EXHLD	99	0	6	288
EXHLD	100	0	1	288
EXHLD	100	0	3	288
NMTAP	101	0	2
NMTAP	101	0	6
NMTAP	101	48	2
NMTAP	101	48	6
NMTAP	101	96	2
NMTAP	101	96	6
NMTAP	101	144	2
NMTAP	101	144	6
NMTAP	101	192	1
NMTAP	101	216	7
NMTAP	101	240	1
NMTAP	101	264	7
NMTAP	101	288	1
NMTAP	101	312	7
NMTAP	101	336	1
NMTAP	101	360	7
NMSTR	102	0	0
NMSXR	102	0	2	96	96	0
NMSXL	102	0	6	96	96	0
NMSF_	102	288	0	96	48	4
NMSTR	102	288	4

T_REC_TAP	412
T_REC_BRK	22
T_REC_XTP	22
T_REC_BXX	6
T_REC_HLD	39
T_REC_XHO	7
T_REC_BHO	0
T_REC_BXH	0
T_REC_STR	50
T_REC_BST	0
T_REC_XST	5
T_REC_XBS	0
T_REC_TTP	26
T_REC_THO	1
T_REC_SLD	56
T_REC_BSL	2
T_REC_ALL	648
T_NUM_TAP	515
T_NUM_BRK	30
T_NUM_HLD	47
T_NUM_SLD	56
T_NUM_ALL	648
T_JUDGE_TAP	543
T_JUDGE_HLD	230
T_JUDGE_SLD	58
T_JUDGE_ALL	831
TTM_EACHPAIRS	141
TTM_SCR_TAP	257500
TTM_SCR_BRK	78000
TTM_SCR_HLD	47000
TTM_SCR_SLD	84000
TTM_SCR_ALL	466500
TTM_SCR_S	449600
TTM_SCR_SS	463500
TTM_RAT_ACV	10064

