VERSION	0.00.00	1.04.00
FES_MODE	0
BPM_DEF	148.000	148.000	148.000	148.000
MET_DEF	4	4
RESOLUTION	384
CLK_DEF	384
COMPATIBLE_CODE	MA2

BPM	0	0	148.000
MET	0	0	4	4

NMSTR	1	0	6
NMSCL	1	0	6	96	672	1
NMSTR	4	0	2
NMSUR	4	0	2	96	384	4
NMTAP	6	0	2
NMTAP	6	24	3
NMTAP	6	48	2
NMTAP	6	72	3
NMTAP	6	96	2
NMTAP	6	120	3
NMTAP	6	144	2
NMTAP	6	168	3
NMTAP	6	192	1
NMTAP	6	216	3
NMTAP	6	240	2
NMTAP	6	264	3
NMTAP	6	288	2
NMTAP	6	312	3
NMTAP	6	336	2
NMTAP	6	360	3
NMTAP	7	0	2
NMTAP	7	24	3
NMTAP	7	48	2
NMTAP	7	72	3
NMTAP	7	96	2
NMTAP	7	120	3
NMTAP	7	144	2
NMTAP	7	168	3
NMTAP	7	192	1
NMTAP	7	216	3
NMTAP	7	240	2
NMTAP	7	264	3
NMTAP	7	288	2
NMTAP	7	312	3
NMTAP	7	336	2
NMTAP	7	360	3
NMTAP	8	0	2
NMTAP	8	24	3
NMTAP	8	48	2
NMTAP	8	72	3
NMTAP	8	96	2
NMTAP	8	120	3
NMTAP	8	144	2
NMTAP	8	168	3
NMTAP	8	192	1
NMTAP	8	216	3
NMTAP	8	240	2
NMTAP	8	264	3
NMTAP	8	288	2
NMTAP	8	312	3
NMTAP	8	336	2
NMTAP	8	360	3
NMTAP	9	0	2
NMTAP	9	24	3
NMTAP	9	48	2
NMTAP	9	72	3
NMTAP	9	96	2
NMTAP	9	120	3
NMTAP	9	144	2
NMTAP	9	168	3
NMTAP	9	192	1
NMTAP	9	216	3
NMTAP	9	240	2
NMTAP	9	264	3
NMTAP	9	288	2
NMTAP	9	312	4
NMTAP	9	336	3
NMTAP	9	360	3
NMTAP	10	0	5
NMTAP	10	24	4
NMTAP	10	48	5
NMTAP	10	72	4
NMTAP	10	96	5
NMTAP	10	120	4
NMTAP	10	144	5
NMTAP	10	168	4
NMTAP	10	192	6
NMTAP	10	216	4
NMTAP	10	240	5
NMTAP	10	264	4
NMTAP	10	288	5
NMTAP	10	312	4
NMTAP	10	336	5
NMTAP	10	360	4
NMTAP	11	0	5
NMTAP	11	24	4
NMTAP	11	48	5
NMTAP	11	72	4
NMTAP	11	96	5
NMTAP	11	120	4
NMTAP	11	144	5
NMTAP	11	168	4
NMTAP	11	192	6
NMTAP	11	216	4
NMTAP	11	240	5
NMTAP	11	264	4
NMTAP	11	288	5
NMTAP	11	312	4
NMTAP	11	336	5
NMTAP	11	360	4
NMTAP	12	0	5
NMTAP	12	24	4
NMTAP	12	48	5
NMTAP	12	72	4
NMTAP	12	96	5
NMTAP	12	120	4
NMTAP	12	144	5
NMTAP	12	168	4
NMTAP	12	192	6
NMTAP	12	216	4
NMTAP	12	240	5
NMTAP	12	264	4
NMTAP	12	288	5
NMTAP	12	312	4
NMTAP	12	336	5
NMTAP	12	360	4
NMTAP	13	0	5
NMTAP	13	24	4
NMTAP	13	48	5
NMTAP	13	72	4
NMTAP	13	96	5
NMTAP	13	120	4
NMTAP	13	144	5
NMTAP	13	168	4
NMTAP	13	192	6
NMTAP	13	216	4
NMTAP	13	240	5
NMTAP	13	264	4
NMHLD	13	288	5	48
NMHLD	13	336	4	48
NMHLD	14	0	3	48
NMHLD	14	48	2	48
NMHLD	14	96	1	48
NMHLD	14	144	0	48
NMHLD	14	192	7	48
NMHLD	14	240	6	48
NMHLD	14	288	5	48
NMTAP	14	336	4
NMTAP	14	360	4
NMHLD	15	0	3	48
NMHLD	15	48	2	48
NMHLD	15	96	1	48
NMHLD	15	144	0	48
NMHLD	15	192	7	48
NMTAP	15	240	6
NMTAP	15	264	6
NMHLD	15	288	5	48
NMHLD	15	336	4	48
NMHLD	16	0	3	48
NMHLD	16	48	2	48
NMHLD	16	96	1	48
NMHLD	16	144	0	48
NMHLD	16	192	7	48
NMHLD	16	240	6	48
NMHLD	16	288	5	48
NMHLD	16	336	4	48
NMHLD	17	0	3	48
NMHLD	17	48	2	48
NMHLD	17	96	1	48
NMHLD	17	144	0	48
NMHLD	17	192	7	48
NMTAP	17	240	6
NMTAP	17	264	6
NMHLD	17	288	5	48
NMTAP	17	336	4
NMTAP	18	0	6
NMTAP	18	24	4
NMTAP	18	48	6
NMTAP	18	72	4
NMTAP	18	96	6
NMTAP	18	120	4
NMTAP	18	144	6
NMTAP	18	168	4
NMTAP	18	192	5
NMTAP	18	216	4
NMTAP	18	240	5
NMTAP	18	264	4
NMTAP	18	288	7
NMTAP	18	312	4
NMHLD	18	336	7	48
NMTAP	19	0	1
NMTAP	19	24	3
NMTAP	19	48	1
NMTAP	19	72	3
NMTAP	19	96	1
NMTAP	19	120	3
NMTAP	19	144	1
NMTAP	19	168	3
NMTAP	19	192	2
NMTAP	19	216	3
NMTAP	19	240	2
NMTAP	19	264	3
NMTAP	19	288	0
NMTAP	19	312	3
NMHLD	19	336	0	48
NMTAP	20	0	6
NMTAP	20	24	4
NMTAP	20	48	6
NMTAP	20	72	4
NMHLD	20	96	6	48
NMTAP	20	144	1
NMTAP	20	168	3
NMTAP	20	192	1
NMTAP	20	216	3
NMTAP	20	240	2
NMTAP	20	264	4
NMHLD	20	288	2	48
NMTAP	20	336	3
NMHLD	21	0	5	48
NMTAP	21	48	4
NMTAP	21	96	2
NMTAP	21	120	3
NMTAP	21	144	2
NMTAP	21	168	3
NMTAP	21	192	2
NMTAP	21	216	3
NMTAP	21	240	2
NMTAP	21	288	1
NMTAP	21	288	4
NMTAP	21	336	1
NMTAP	21	336	4
NMTAP	22	0	2
NMTAP	22	0	5
NMTAP	22	48	3
NMTAP	22	48	6
NMTAP	22	96	5
NMTAP	22	120	4
NMTAP	22	144	5
NMTAP	22	168	4
NMTAP	22	192	6
NMTAP	22	216	3
NMTAP	22	240	6
NMTAP	22	264	3
NMTAP	22	288	5
NMTAP	22	312	4
NMTAP	22	336	5
NMTAP	23	0	6
NMTAP	23	0	7
NMTAP	23	48	0
NMTAP	23	48	1
NMTAP	23	96	2
NMTAP	23	120	3
NMTAP	23	144	2
NMTAP	23	168	3
NMTAP	23	192	2
NMTAP	23	216	3
NMTAP	23	240	2
NMTAP	23	288	1
NMTAP	23	288	4
NMTAP	23	336	1
NMTAP	23	336	4
NMTAP	24	0	2
NMTAP	24	0	5
NMTAP	24	48	3
NMTAP	24	48	6
NMTAP	24	96	5
NMTAP	24	120	4
NMTAP	24	144	5
NMTAP	24	168	4
NMTAP	24	192	6
NMTAP	24	216	3
NMTAP	24	240	6
NMTAP	24	264	3
NMTAP	24	288	5
NMTAP	24	312	4
NMTAP	24	336	5
NMTAP	25	0	6
NMTAP	25	0	7
NMTAP	25	48	0
NMTAP	25	48	1
NMTAP	25	96	2
NMTAP	25	120	3
NMTAP	25	144	2
NMTAP	25	168	3
NMTAP	25	192	2
NMTAP	25	240	2
NMTAP	25	240	3
NMTAP	25	288	0
NMTAP	25	288	1
NMTAP	25	336	6
NMTAP	25	336	7
NMTAP	26	0	4
NMTAP	26	0	5
NMTAP	26	48	3
NMTAP	26	48	6
NMTAP	26	96	5
NMTAP	26	120	4
NMTAP	26	144	5
NMTAP	26	168	4
NMTAP	26	192	5
NMTAP	26	240	4
NMTAP	26	240	5
NMTAP	26	288	6
NMTAP	26	288	7
NMTAP	26	336	0
NMTAP	26	336	1
NMTAP	27	0	2
NMTAP	27	0	3
NMTAP	27	48	1
NMTAP	27	48	4
NMTAP	27	96	2
NMTAP	27	120	3
NMTAP	27	144	2
NMTAP	27	168	3
NMTAP	27	192	2
NMTAP	27	240	2
NMTAP	27	240	3
NMTAP	27	288	0
NMTAP	27	288	1
NMTAP	27	336	6
NMTAP	27	336	7
NMTAP	28	0	4
NMTAP	28	0	5
NMTAP	28	48	4
NMTAP	28	48	5
NMTAP	28	96	6
NMTAP	28	120	7
NMTAP	28	144	6
NMTAP	28	168	7
NMTAP	28	192	6
NMTAP	28	240	6
NMTAP	28	240	7
NMTAP	28	288	4
NMTAP	28	288	5
NMTAP	28	336	2
NMTAP	28	336	3
NMTAP	29	0	0
NMTAP	29	0	1
NMTAP	29	48	0
NMTAP	29	48	7
NMTAP	29	96	1
NMTAP	29	96	6
NMHLD	29	120	1	120
NMHLD	29	120	6	120
BRTAP	29	288	7
BRTAP	29	336	7
NMTAP	30	0	1
NMTAP	30	24	0
NMTAP	30	48	1
NMTAP	30	72	0
NMTAP	30	96	1
NMTAP	30	120	0
NMTAP	30	144	1
NMTAP	30	168	0
NMTAP	30	192	1
NMTAP	30	216	7
NMTAP	30	240	1
NMTAP	30	264	7
NMTAP	30	288	1
NMTAP	30	312	7
NMTAP	30	336	1
NMTAP	30	360	7
NMTAP	31	0	1
NMTAP	31	24	0
NMTAP	31	48	1
NMTAP	31	72	0
NMSTR	31	96	1
NMSI_	31	96	1	96	48	5
NMTAP	31	120	0
NMTAP	31	144	1
NMTAP	31	168	0
NMHLD	31	192	1	96
NMTAP	31	288	6
NMTAP	31	336	6
NMTAP	32	0	6
NMTAP	32	24	7
NMTAP	32	48	6
NMTAP	32	72	7
NMTAP	32	96	6
NMTAP	32	120	7
NMTAP	32	144	6
NMTAP	32	168	7
NMTAP	32	192	6
NMTAP	32	216	0
NMTAP	32	240	6
NMTAP	32	264	0
NMTAP	32	288	6
NMTAP	32	312	0
NMTAP	32	336	6
NMTAP	32	360	0
NMTAP	33	0	6
NMTAP	33	24	7
NMTAP	33	48	6
NMTAP	33	72	7
NMSTR	33	96	6
NMSI_	33	96	6	96	48	2
NMTAP	33	120	7
NMTAP	33	144	6
NMTAP	33	168	7
NMHLD	33	192	6	96
NMTAP	33	288	1
NMTAP	33	312	3
NMTAP	33	336	1
NMTAP	33	360	3
NMTAP	34	0	0
NMTAP	34	24	3
NMHLD	34	48	0	48
NMTAP	34	96	6
NMTAP	34	120	4
NMTAP	34	144	6
NMTAP	34	168	4
NMTAP	34	192	7
NMTAP	34	216	4
NMHLD	34	240	7	48
NMTAP	34	288	2
NMTAP	34	312	3
NMHLD	34	336	1	48
NMTAP	35	0	5
NMTAP	35	24	4
NMHLD	35	48	6	48
NMTAP	35	96	2
NMTAP	35	120	3
NMHLD	35	144	1	48
NMTAP	35	192	5
NMTAP	35	216	4
NMTAP	35	240	5
NMTAP	35	264	4
NMTAP	35	288	6
NMTAP	35	312	6
NMTAP	35	336	4
NMTAP	35	360	4
NMTAP	36	0	3
NMTAP	36	24	3
NMHLD	36	48	1	48
NMTAP	36	96	3
NMTAP	36	120	3
NMTAP	36	144	2
NMTAP	36	168	2
NMHLD	36	192	4	96
NMTAP	36	288	3
NMTAP	36	312	2
NMTAP	36	336	1
NMTAP	36	360	0
NMTAP	37	0	7
NMTAP	37	24	6
NMTAP	37	48	5
NMTAP	37	72	4
NMTAP	37	96	3
NMTAP	37	120	2
NMTAP	37	144	1
NMTAP	37	168	0
BRTAP	37	192	7
BRTAP	38	0	0
NMTAP	38	24	6
NMTAP	38	48	2
NMTAP	38	72	6
NMTAP	38	96	2
NMTAP	38	120	6
BRTAP	38	144	4
NMTAP	38	168	6
NMTAP	38	192	2
NMTAP	38	216	6
NMTAP	38	240	2
NMTAP	38	264	6
BRTAP	38	288	0
NMTAP	38	312	6
NMTAP	38	336	2
NMTAP	38	360	6
NMTAP	39	0	2
NMTAP	39	24	6
BRTAP	39	48	4
NMTAP	39	72	6
NMTAP	39	96	2
NMTAP	39	120	6
NMTAP	39	144	1
NMTAP	39	168	5
BRTAP	39	192	0
NMTAP	39	208	4
NMTAP	39	224	0
NMTAP	39	240	4
NMTAP	39	256	0
NMTAP	39	272	4
NMTAP	39	288	0
NMTAP	39	304	4
NMTAP	39	320	0
NMTAP	39	336	4
NMTAP	39	352	0
NMTAP	39	368	4
NMTAP	40	0	0
NMTAP	40	16	4
NMTAP	40	32	0
NMTAP	40	48	4
NMTAP	40	64	0
NMTAP	40	80	4
NMSTR	40	96	0
NMSCR	40	96	0	96	144	5
NMTAP	40	112	4
NMTAP	40	128	0
NMTAP	40	144	4
NMTAP	40	160	0
NMTAP	40	176	4
NMTAP	40	192	0
NMSTR	40	336	7
NMSCL	40	336	7	96	144	2
NMTAP	41	0	7
NMTAP	41	48	0
NMHLD	41	192	1	72
NMHLD	41	264	2	72
NMTAP	41	336	3
NMSTR	42	0	3
NMSCL	42	0	3	96	48	0
NMTAP	42	144	7
NMTAP	42	192	6
NMTAP	42	240	5
NMTAP	42	288	4
NMTAP	42	336	3
NMHLD	43	0	2	72
NMHLD	43	72	3	72
NMSTR	43	144	4
NMSI_	43	144	4	96	48	0
NMHLD	43	336	1	48
NMHLD	43	336	3	48
NMHLD	44	48	4	48
NMHLD	44	48	6	48
NMHLD	44	144	2	48
NMHLD	44	144	3	48
NMHLD	44	240	4	48
NMHLD	44	240	5	48
NMHLD	44	336	1	48
NMHLD	44	336	3	48
NMTAP	45	48	4
NMTAP	45	48	6
NMTAP	45	96	4
NMSTR	45	96	6
NMSI_	45	96	6	96	48	2
NMTAP	45	192	1
NMTAP	45	240	1
NMTAP	45	288	0
NMTAP	45	336	0
BRTAP	46	0	7
NMTAP	46	24	1
NMTAP	46	48	5
NMTAP	46	72	1
NMTAP	46	96	5
NMTAP	46	120	1
BRTAP	46	144	3
NMTAP	46	168	1
NMTAP	46	192	5
NMTAP	46	216	1
NMTAP	46	240	5
NMTAP	46	264	1
BRTAP	46	288	7
NMTAP	46	312	1
NMTAP	46	336	5
NMTAP	46	360	1
NMTAP	47	0	5
NMTAP	47	24	1
BRTAP	47	48	3
NMTAP	47	72	1
NMTAP	47	96	5
NMTAP	47	120	1
NMTAP	47	144	6
NMTAP	47	168	2
BRTAP	47	192	7
NMTAP	47	208	3
NMTAP	47	224	7
NMTAP	47	240	3
NMTAP	47	256	7
NMTAP	47	272	3
NMTAP	47	288	7
NMTAP	47	304	3
NMTAP	47	320	7
NMTAP	47	336	3
NMTAP	47	352	7
NMTAP	47	368	3
NMTAP	48	0	7
NMTAP	48	16	3
NMTAP	48	32	7
NMTAP	48	48	3
NMTAP	48	64	7
NMTAP	48	80	3
NMSTR	48	96	7
NMSCL	48	96	7	96	144	2
NMTAP	48	112	3
NMTAP	48	128	7
NMTAP	48	144	3
NMTAP	48	160	7
NMTAP	48	176	3
NMTAP	48	192	7
NMSTR	48	336	0
NMSLR	48	336	0	96	144	4
NMTAP	49	0	0
NMTAP	49	48	7
NMHLD	49	192	7	72
NMHLD	49	264	5	72
NMTAP	49	336	4
NMHLD	50	0	0	72
NMHLD	50	72	2	72
NMTAP	50	144	3
NMHLD	50	192	4	72
NMHLD	50	264	6	72
NMTAP	50	336	7
NMHLD	51	0	3	72
NMHLD	51	72	1	72
NMTAP	51	144	0
NMSTR	51	192	0
NMSI_	51	192	0	96	48	4
NMTAP	51	336	5
NMHLD	52	0	5	72
NMHLD	52	72	6	72
NMTAP	52	144	7
NMHLD	52	192	0	72
NMHLD	52	264	1	72
NMTAP	52	336	2
NMSTR	53	0	2
NMSCR	53	0	2	96	192	5
NMTAP	54	0	0
NMTAP	54	24	7
NMTAP	54	48	7
NMTAP	54	72	7
NMTAP	54	96	7
NMTAP	54	120	7
NMTAP	54	144	0
NMTAP	54	168	7
NMTAP	54	192	7
NMTAP	54	216	7
NMTAP	54	240	7
NMTAP	54	264	7
NMTAP	54	288	0
NMTAP	54	312	7
NMTAP	54	336	7
NMTAP	54	360	7
NMTAP	55	0	7
NMTAP	55	24	7
NMTAP	55	48	0
NMTAP	55	72	7
NMTAP	55	96	7
NMTAP	55	120	7
NMTAP	55	144	7
NMTAP	55	168	7
NMTAP	55	192	0
NMTAP	55	216	7
NMTAP	55	240	7
NMTAP	55	264	7
NMTAP	55	288	7
NMTAP	55	312	7
NMTAP	55	336	0
NMTAP	55	360	7
NMTAP	56	0	7
NMTAP	56	24	7
NMTAP	56	48	7
NMTAP	56	72	7
NMTAP	56	96	0
NMTAP	56	120	7
NMTAP	56	144	7
NMTAP	56	168	7
NMTAP	56	192	7
NMTAP	56	216	7
NMTAP	56	240	0
NMTAP	56	264	7
NMTAP	56	288	7
NMTAP	56	312	7
NMTAP	56	336	7
NMTAP	56	360	7
NMTAP	57	0	0
NMTAP	57	24	7
NMTAP	57	48	7
NMTAP	57	72	7
NMTAP	57	96	7
NMTAP	57	120	7
NMTAP	57	144	0
NMTAP	57	168	7
NMTAP	57	192	7
NMTAP	57	216	7
NMTAP	57	240	7
NMTAP	57	264	7
NMTAP	57	288	0
NMTAP	57	312	7
NMTAP	57	336	7
NMTAP	57	360	7
NMTAP	58	0	7
NMTAP	58	24	7
NMTAP	58	48	0
NMTAP	58	72	7
NMTAP	58	96	7
NMTAP	58	120	7
NMTAP	58	144	7
NMTAP	58	168	7
NMTAP	58	192	0
NMTAP	58	216	7
NMTAP	58	240	7
NMTAP	58	264	7
NMTAP	58	288	7
NMTAP	58	312	7
NMTAP	58	336	0
NMTAP	58	360	7
NMTAP	59	0	7
NMTAP	59	24	7
NMTAP	59	48	7
NMTAP	59	72	7
NMTAP	59	96	0
NMTAP	59	120	7
NMTAP	59	144	7
NMTAP	59	168	7
NMTAP	59	192	7
NMTAP	59	216	7
NMTAP	59	240	0
NMTAP	59	264	7
NMTAP	59	288	7
NMTAP	59	312	7
NMTAP	59	336	7
NMTAP	59	360	7
NMTAP	60	0	0
NMTAP	60	24	7
NMTAP	60	48	7
NMTAP	60	72	7
NMTAP	60	96	7
NMTAP	60	120	7
NMTAP	60	144	0
NMTAP	60	168	7
NMTAP	60	192	7
NMTAP	60	216	7
NMTAP	60	240	7
NMTAP	60	264	7
NMTAP	60	288	0
NMTAP	60	312	7
NMTAP	60	336	7
NMTAP	60	360	7
NMTAP	61	0	7
NMTAP	61	24	7
NMTAP	61	48	0
NMTAP	61	72	7
NMTAP	61	96	7
NMTAP	61	120	7
NMTAP	61	144	7
NMTAP	61	168	7
NMTAP	61	192	0
NMTAP	61	216	7
NMTAP	61	240	7
NMTAP	61	264	7
BRTAP	61	288	1
NMTAP	62	0	3
NMTAP	62	24	4
NMTAP	62	48	4
NMTAP	62	72	4
NMTAP	62	96	4
NMTAP	62	120	4
NMTAP	62	144	3
NMTAP	62	168	4
NMTAP	62	192	4
NMTAP	62	216	4
NMTAP	62	240	4
NMTAP	62	264	4
NMTAP	62	288	3
NMTAP	62	312	4
NMTAP	62	336	4
NMTAP	62	360	4
NMTAP	63	0	4
NMTAP	63	24	4
NMTAP	63	48	2
NMTAP	63	72	4
NMTAP	63	96	4
NMTAP	63	120	4
NMTAP	63	144	4
NMTAP	63	168	4
NMTAP	63	192	2
NMTAP	63	216	4
NMTAP	63	240	4
NMTAP	63	264	4
NMTAP	63	288	4
NMTAP	63	312	4
NMTAP	63	336	2
NMTAP	63	360	4
NMTAP	64	0	4
NMTAP	64	24	4
NMTAP	64	48	4
NMTAP	64	72	4
NMTAP	64	96	1
NMTAP	64	120	4
NMTAP	64	144	4
NMTAP	64	168	4
NMTAP	64	192	4
NMTAP	64	216	4
NMTAP	64	240	1
NMTAP	64	264	4
NMTAP	64	288	4
NMTAP	64	312	4
NMTAP	64	336	4
NMTAP	64	360	4
NMTAP	65	0	1
NMTAP	65	24	4
NMTAP	65	48	4
NMTAP	65	72	4
NMTAP	65	96	4
NMTAP	65	120	4
NMTAP	65	144	0
NMTAP	65	168	4
NMTAP	65	192	4
NMTAP	65	216	4
NMTAP	65	240	4
NMTAP	65	264	4
NMTAP	65	288	0
NMTAP	65	312	4
NMTAP	65	336	4
NMTAP	65	360	4
NMTAP	66	0	4
NMTAP	66	24	4
NMTAP	66	48	0
NMTAP	66	72	4
NMTAP	66	96	4
NMTAP	66	120	4
NMTAP	66	144	4
NMTAP	66	168	4
NMTAP	66	192	7
NMTAP	66	216	4
NMTAP	66	240	4
NMTAP	66	264	4
NMTAP	66	288	4
NMTAP	66	312	4
NMTAP	66	336	7
NMTAP	66	360	4
NMTAP	67	0	4
NMTAP	67	24	4
NMTAP	67	48	4
NMTAP	67	72	4
NMTAP	67	96	7
NMTAP	67	120	4
NMTAP	67	144	4
NMTAP	67	168	4
NMTAP	67	192	4
NMTAP	67	216	4
NMTAP	67	240	6
NMTAP	67	264	4
NMTAP	67	288	4
NMTAP	67	312	4
NMTAP	67	336	4
NMTAP	67	360	4
NMTAP	68	0	6
NMTAP	68	24	4
NMTAP	68	48	4
NMTAP	68	72	4
NMTAP	68	96	4
NMTAP	68	120	4
NMTAP	68	144	6
NMTAP	68	168	4
NMTAP	68	192	4
NMTAP	68	216	4
NMTAP	68	240	4
NMTAP	68	264	4
NMSTR	68	288	5
BRSCR	68	288	5	96	288	3
NMTAP	68	312	4
NMTAP	68	336	4
NMTAP	68	360	4
BRTAP	69	0	3
NMTAP	70	0	1
NMTAP	70	24	4
NMTAP	70	48	2
NMTAP	70	72	4
NMTAP	70	96	2
NMTAP	70	120	4
NMTAP	70	144	1
NMTAP	70	168	4
NMTAP	70	192	2
NMTAP	70	216	4
NMTAP	70	240	2
NMTAP	70	264	4
NMTAP	70	288	1
NMTAP	70	312	4
NMTAP	70	336	2
NMTAP	70	360	4
NMTAP	71	0	2
NMTAP	71	24	4
NMTAP	71	48	1
NMTAP	71	72	4
NMTAP	71	96	2
NMTAP	71	120	4
NMTAP	71	144	2
NMTAP	71	168	4
NMTAP	71	192	3
NMTAP	71	208	3
NMTAP	71	224	3
NMTAP	71	240	3
NMTAP	71	256	3
NMTAP	71	272	3
NMTAP	71	288	3
NMTAP	71	304	3
NMTAP	71	320	3
NMTAP	71	336	3
NMTAP	71	352	3
NMTAP	71	368	3
NMTAP	72	0	3
NMTAP	72	16	3
NMTAP	72	32	3
NMTAP	72	48	3
NMTAP	72	64	3
NMTAP	72	80	3
NMSTR	72	96	3
NMSCL	72	96	3	96	144	6
NMTAP	72	112	3
NMTAP	72	128	3
NMTAP	72	144	3
NMTAP	72	160	3
NMTAP	72	176	3
NMTAP	72	192	3
NMTAP	72	336	4
NMTAP	73	0	4
NMHLD	73	48	3	96
NMHLD	73	48	5	96
NMHLD	73	192	6	72
NMHLD	73	264	5	72
NMTAP	73	336	4
NMHLD	74	0	1	72
NMHLD	74	72	2	72
NMTAP	74	144	3
NMHLD	74	192	6	72
NMHLD	74	264	5	72
NMTAP	74	336	4
NMHLD	75	0	3	72
NMHLD	75	72	2	72
NMTAP	75	144	1
NMHLD	75	192	1	144
NMTAP	75	336	2
NMHLD	76	0	2	72
NMHLD	76	72	1	72
NMTAP	76	144	0
NMHLD	76	192	5	72
NMHLD	76	264	6	72
NMSTR	76	336	7
NMSLL	76	336	7	96	96	3
NMTAP	77	144	1
NMHLD	77	192	1	72
NMHLD	77	264	2	72
BRHLD	77	336	3	624
NMTTP	79	192	4	E	0	M1

T_REC_TAP	787
T_REC_BRK	15
T_REC_XTP	0
T_REC_BXX	0
T_REC_HLD	89
T_REC_XHO	0
T_REC_BHO	1
T_REC_BXH	0
T_REC_STR	16
T_REC_BST	0
T_REC_XST	0
T_REC_XBS	0
T_REC_TTP	1
T_REC_THO	0
T_REC_SLD	15
T_REC_BSL	1
T_REC_ALL	925
T_NUM_TAP	804
T_NUM_BRK	17
T_NUM_HLD	89
T_NUM_SLD	15
T_NUM_ALL	925
T_JUDGE_TAP	819
T_JUDGE_HLD	143
T_JUDGE_SLD	16
T_JUDGE_ALL	978
TTM_EACHPAIRS	42
TTM_SCR_TAP	402000
TTM_SCR_BRK	44200
TTM_SCR_HLD	89000
TTM_SCR_SLD	22500
TTM_SCR_ALL	557700
TTM_SCR_S	539350
TTM_SCR_SS	556000
TTM_RAT_ACV	10030

