VERSION	0.00.00	1.04.00
FES_MODE	1
BPM_DEF	195.000	195.000	195.000	195.000
MET_DEF	4	4
RESOLUTION	384
CLK_DEF	384
COMPATIBLE_CODE	MA2

BPM	0	0	195.000
MET	0	0	4	4

NMHLD	1	0	3	1152
NMHLD	2	0	5	768
NMHLD	3	0	4	384
NMTAP	4	192	3
NMTAP	4	192	4
NMTAP	4	192	5
NMHLD	5	0	2	1056
NMHLD	6	0	4	672
NMHLD	7	0	3	288
EXTAP	8	0	2
EXTAP	8	0	3
EXTAP	8	0	4
EXTAP	8	96	2
EXTAP	8	96	3
EXTAP	8	96	4
BXTAP	8	192	2
BXTAP	8	192	3
BXTAP	8	192	4
NMHLD	9	0	3	96
NMHLD	9	0	4	96
NMHLD	9	0	5	96
NMTAP	9	192	3
NMTAP	9	192	4
NMTAP	9	192	5
NMTAP	9	288	4
NMTAP	9	288	5
NMTAP	9	288	6
NMHLD	10	0	5	96
NMHLD	10	0	6	96
NMHLD	10	0	7	96
NMTAP	10	192	5
NMTAP	10	192	6
NMTAP	10	192	7
NMTAP	10	288	0
NMTAP	10	288	6
NMTAP	10	288	7
NMHLD	11	0	0	96
NMHLD	11	0	1	96
NMHLD	11	0	7	96
NMTAP	11	192	0
NMTAP	11	192	1
NMTAP	11	192	7
NMTAP	11	288	0
NMTAP	11	288	1
NMTAP	11	288	2
NMTAP	12	0	1
NMTAP	12	0	2
NMTAP	12	0	3
NMTAP	12	96	2
NMTAP	12	96	3
NMTAP	12	96	4
NMTAP	12	192	0
NMTAP	12	192	1
NMTAP	12	192	7
NMTAP	13	0	4
NMTAP	13	0	5
NMHLD	13	0	6	96
NMTAP	13	192	1
NMTAP	13	192	2
NMHLD	13	192	3	96
NMHLD	14	0	4	96
NMTAP	14	0	5
NMTAP	14	0	6
NMHLD	14	192	1	96
NMTAP	14	192	2
NMTAP	14	192	3
NMHLD	15	0	2	96
NMTAP	15	0	3
NMTAP	15	0	4
NMTAP	15	96	3
NMTAP	15	96	4
NMTAP	15	192	4
NMTAP	15	192	5
NMHLD	15	192	6	96
NMTAP	15	288	4
NMTAP	15	288	5
NMTAP	16	0	2
NMTAP	16	0	3
NMTAP	16	0	4
NMTAP	16	96	3
NMTAP	16	96	4
NMTAP	16	96	5
BRTAP	16	192	0
BRTAP	16	192	1
BRTAP	16	192	7
NMHLD	17	0	2	192
NMTAP	17	0	3
NMHLD	17	0	4	192
NMTAP	17	192	3
NMHLD	18	0	3	192
NMTAP	18	0	4
NMHLD	18	0	5	192
NMTAP	18	192	4
NMHLD	19	0	1	192
NMTAP	19	0	2
NMHLD	19	0	3	192
NMTAP	19	192	2
NMHLD	20	0	4	192
NMTAP	20	0	5
NMHLD	20	0	6	192
NMTAP	20	192	5
NMHLD	21	0	4	96
NMTAP	21	0	5
NMHLD	21	0	6	96
NMTAP	21	96	5
NMHLD	21	192	3	96
NMHLD	21	192	4	96
NMHLD	21	192	5	96
NMHLD	22	0	2	96
NMTAP	22	0	3
NMHLD	22	0	4	96
NMTAP	22	96	3
NMHLD	22	192	1	96
NMHLD	22	192	2	96
NMHLD	22	192	3	96
NMHLD	23	0	2	96
NMTAP	23	0	3
NMHLD	23	0	4	96
NMTAP	23	96	3
NMHLD	23	192	3	96
NMHLD	23	192	4	96
NMHLD	23	192	5	96
NMTAP	24	0	1
NMTAP	24	0	2
NMTAP	24	0	6
NMTAP	24	96	1
NMTAP	24	96	2
NMTAP	24	96	6
EXTAP	24	192	0
EXTAP	24	192	3
EXTAP	24	192	7
NMHLD	25	0	3	96
NMHLD	25	0	4	96
NMHLD	25	0	5	672
NMTAP	25	192	3
NMTAP	25	192	4
NMTAP	25	288	3
NMTAP	25	288	4
NMHLD	26	0	6	96
NMHLD	26	0	7	96
NMTAP	26	192	6
NMTAP	26	192	7
NMTAP	26	288	3
NMTAP	26	288	4
NMHLD	27	0	2	480
NMHLD	27	0	3	96
NMHLD	27	0	4	96
NMTAP	27	192	3
NMTAP	27	192	4
NMTAP	27	288	3
NMTAP	27	288	4
BRHLD	28	0	0	96
NMHLD	28	0	1	96
NMTAP	28	192	0
NMTAP	28	192	1
NMTAP	28	192	2
NMHLD	29	0	3	96
NMHLD	29	0	4	192
NMHLD	29	0	5	288
NMTAP	29	192	3
NMTAP	29	288	4
NMHLD	30	0	2	288
NMHLD	30	0	3	192
NMHLD	30	0	4	96
NMTAP	30	192	4
NMTAP	30	288	3
NMHLD	31	0	0	96
NMHLD	31	0	1	96
NMHLD	31	0	5	96
NMHLD	31	192	2	96
NMHLD	31	192	6	96
NMHLD	31	192	7	96
EXTAP	32	0	5
EXTAP	32	0	6
EXTAP	32	0	7
NMTAP	32	96	4
NMTAP	32	96	5
NMTAP	32	96	6
NMTAP	32	192	3
NMTAP	32	192	4
NMTAP	32	192	5
NMSTR	32	288	2
NMSCL	32	288	2	96	384	7
NMSTR	32	288	3
NMSUL	32	288	3	96	384	7
NMSTR	32	288	4
NMSI_	32	288	4	96	384	7
NMTAP	34	192	0
NMTAP	34	192	6
NMTAP	34	192	7
NMSTR	35	0	5
NMSI_	35	0	5	96	288	3
NMSTR	35	0	6
NMSI_	35	0	6	96	288	3
NMSTR	35	0	7
NMSI_	35	0	7	96	288	3
NMTAP	36	192	1
NMTAP	36	192	2
NMTAP	36	192	3
NMSTR	37	0	0
NMSI_	37	0	0	96	288	4
NMSTR	37	0	1
NMSI_	37	0	1	96	288	4
NMSTR	37	0	2
NMSI_	37	0	2	96	288	4
NMTAP	38	192	4
NMTAP	38	192	5
NMTAP	38	192	6
NMTAP	39	0	2
NMHLD	39	0	3	384
NMTAP	39	0	4
NMTTP	39	192	2	B	0	M1
NMTTP	39	192	4	B	0	M1
NMTTP	40	0	0	B	0	M1
NMTHO	40	0	0	192	C	0	M1
NMTTP	40	0	7	B	0	M1
NMTTP	40	192	1	B	0	M1
NMTTP	40	192	5	B	0	M1
NMTAP	41	0	0
NMTAP	41	0	6
NMTAP	41	0	7
NMTAP	41	96	0
NMTAP	41	96	6
NMTAP	41	96	7
NMTAP	41	192	1
NMTAP	41	192	5
NMTAP	41	192	6
NMTAP	41	288	2
NMTAP	41	288	4
NMTAP	41	288	5
NMTAP	42	0	3
NMTAP	42	0	5
NMTAP	42	0	6
NMTAP	42	96	3
NMTAP	42	96	5
NMTAP	42	96	6
NMTAP	42	192	1
NMTAP	42	192	2
NMTAP	42	192	4
NMTAP	42	288	1
NMTAP	42	288	2
NMTAP	42	288	4
NMTAP	43	0	0
NMTAP	43	0	1
NMTAP	43	0	5
NMTAP	43	96	0
NMTAP	43	96	1
NMTAP	43	96	5
NMTAP	43	192	2
NMTAP	43	192	6
NMTAP	43	192	7
NMTAP	43	288	2
NMTAP	43	288	6
NMTAP	43	288	7
EXHLD	44	0	0	96
EXHLD	44	0	1	96
EXHLD	44	0	5	96
NMTAP	44	192	0
NMTAP	44	192	1
NMTAP	44	192	5
NMTAP	45	0	2
NMTAP	45	0	3
NMHLD	45	0	5	96
NMTAP	45	96	3
NMTAP	45	96	4
NMHLD	45	192	2	96
NMTAP	45	192	4
NMTAP	45	192	5
NMTAP	45	288	3
NMTAP	45	288	4
NMTAP	46	0	2
NMTAP	46	0	3
NMHLD	46	0	6	96
NMTAP	46	96	3
NMTAP	46	96	4
NMHLD	46	192	1	96
NMTAP	46	192	4
NMTAP	46	192	5
NMTAP	46	288	3
NMTAP	46	288	4
NMTAP	47	0	0
NMHLD	47	0	6	96
NMTAP	47	0	7
NMTAP	47	96	0
NMTAP	47	96	7
NMTAP	47	192	0
NMHLD	47	192	1	96
NMTAP	47	192	7
NMTAP	47	288	0
NMSTR	47	288	7
NMSCL	47	288	7	96	192	3
NMTHO	49	0	0	384	C	1	M1
NMTTP	49	0	2	B	0	M1
NMTTP	49	0	5	B	0	M1
NMTTP	50	0	1	B	0	M1
NMTTP	50	0	6	B	0	M1
NMTTP	50	288	0	A	0	M1
NMTTP	50	288	0	D	1	M1
NMTTP	50	288	7	A	0	M1
BXTAP	51	0	4
BXTAP	51	0	5
BXTAP	51	0	6
NMTAP	51	96	1
NMTAP	51	96	2
NMTAP	51	96	3
NMTAP	51	192	5
NMTAP	51	192	6
NMTAP	51	192	7
NMTAP	51	288	0
NMTAP	51	288	1
NMTAP	51	288	2
NMTAP	52	0	4
NMTAP	52	0	5
NMTAP	52	0	6
NMTAP	52	96	1
NMTAP	52	96	2
NMTAP	52	96	3
NMTAP	52	192	5
NMTAP	52	192	6
NMTAP	52	192	7
NMTAP	52	288	5
NMTAP	52	288	6
NMTAP	52	288	7
NMTAP	53	0	0
NMTAP	53	0	1
NMHLD	53	0	4	96
NMTAP	53	96	5
NMTAP	53	96	6
NMHLD	53	192	3	96
NMTAP	53	192	6
NMTAP	53	192	7
NMTAP	53	288	1
NMTAP	53	288	2
NMTAP	54	0	1
NMTAP	54	0	4
NMTAP	54	0	5
NMTAP	54	96	2
NMTAP	54	96	3
NMTAP	54	96	6
BRTAP	54	192	3
BRTAP	54	192	4
BRTAP	54	192	7
NMHLD	55	0	1	96
NMTAP	55	0	4
NMTAP	55	0	5
NMTAP	55	96	2
NMTAP	55	96	3
NMTAP	55	192	2
NMTAP	55	192	3
NMHLD	55	192	6	96
NMTAP	55	288	4
NMTAP	55	288	5
NMHLD	56	0	2	96
NMTAP	56	0	3
NMTAP	56	0	4
NMTAP	56	96	0
NMTAP	56	96	1
NMTAP	56	192	3
NMTAP	56	192	4
NMHLD	56	192	5	96
NMTAP	56	288	6
NMTAP	56	288	7
NMTAP	57	0	1
NMTAP	57	0	2
NMTAP	57	0	3
NMTAP	57	96	4
NMTAP	57	96	5
NMTAP	57	96	6
NMTAP	57	192	0
NMTAP	57	192	1
NMTAP	57	192	2
BXTAP	57	288	5
BXTAP	57	288	6
BXTAP	57	288	7
BXTAP	58	0	1
BXTAP	58	0	2
BXTAP	58	0	3
BXTAP	58	64	1
BXTAP	58	64	2
BXTAP	58	64	3
BXHLD	58	160	0	128
BXHLD	58	160	6	128
BXHLD	58	160	7	128
BXTAP	59	0	0
BXTAP	59	0	6
BXTAP	59	0	7
NMTAP	59	96	3
NMTAP	59	96	4
NMTAP	59	96	5
NMTAP	59	192	0
NMTAP	59	192	1
NMTAP	59	192	7
NMTAP	59	288	2
NMTAP	59	288	3
NMTAP	59	288	4
NMTAP	60	0	4
NMTAP	60	0	5
NMTAP	60	0	6
NMTAP	60	96	0
NMTAP	60	96	6
NMTAP	60	96	7
NMTAP	60	192	0
NMTAP	60	192	1
NMTAP	60	192	2
NMTAP	60	288	0
NMTAP	60	288	1
NMTAP	60	288	2
NMTAP	61	0	3
NMTAP	61	0	4
NMHLD	61	0	7	96
NMHLD	61	96	5	96
NMHLD	61	96	6	96
NMTAP	61	192	4
NMTAP	61	288	3
NMTAP	61	288	4
NMTAP	61	288	5
NMHLD	62	0	3	96
NMTAP	62	0	4
NMTAP	62	0	5
NMHLD	62	96	0	96
NMHLD	62	96	1	96
NMTAP	62	192	2
NMTAP	62	288	2
NMTAP	62	288	3
NMTAP	62	288	4
NMTAP	63	0	0
NMTAP	63	0	1
NMSTR	63	0	7
NMSI_	63	0	7	96	96	4
NMTAP	63	192	2
NMSTR	63	192	3
NMSI_	63	192	3	96	96	0
NMTAP	64	0	6
NMHLD	64	0	7	96
NMHLD	64	96	5	96
NMHLD	64	96	6	96
NMHLD	64	192	4	96
NMTAP	64	288	2
NMTAP	64	288	3
NMTAP	65	0	2
NMTAP	65	0	3
NMSTR	65	0	4
NMSCR	65	0	4	96	96	7
NMSTR	65	192	0
NMSCR	65	192	0	96	96	3
NMTAP	65	192	1
NMTAP	66	0	4
NMHLD	66	0	5	96
NMHLD	66	96	6	96
NMHLD	66	96	7	96
NMHLD	66	192	0	96
NMSTR	66	288	1
NMSUR	66	288	1	96	192	6
NMTAP	66	288	2
NMHLD	67	288	0	96
NMTAP	67	288	1
NMTAP	67	288	7
EXTAP	68	0	6
EXTAP	68	0	7
EXTAP	68	64	0
EXTAP	68	64	6
EXTAP	68	64	7
EXTAP	68	128	0
EXTAP	68	128	6
EXTAP	68	128	7
EXTAP	68	192	0
EXTAP	68	192	1
EXTAP	68	192	6
EXTAP	68	256	0
EXTAP	68	256	1
EXTAP	68	256	6
EXTAP	68	320	0
EXTAP	68	320	1
EXTAP	68	320	6
EXHLD	69	0	2	96
EXHLD	69	0	4	96
EXHLD	69	0	5	96
NMTAP	69	192	2
NMTAP	69	192	3
NMTAP	69	192	4
NMTAP	69	288	2
NMTAP	69	288	3
NMTAP	69	288	4
BRTAP	70	0	4
BRTAP	70	0	5
BRTAP	70	0	6
BRTAP	70	96	0
BRTAP	70	96	1
BRTAP	70	96	2
BRTAP	70	192	2
BRTAP	70	192	3
BRTAP	70	192	4
BRTAP	70	288	5
BRTAP	70	288	6
BRTAP	70	288	7
BRHLD	71	0	0	672
BRTAP	71	0	4
BRTAP	71	0	5
NMTAP	71	192	2
NMTAP	71	192	3
NMTAP	71	288	2
NMTAP	71	288	3
NMTAP	72	0	4
NMTAP	72	0	5
NMTAP	72	96	4
NMTAP	72	96	5
NMTAP	72	192	2
NMTAP	72	192	3
NMTAP	72	288	2
NMTAP	72	288	3
NMTAP	73	0	1
NMTAP	73	0	4
NMTAP	73	0	5
NMTAP	73	96	1
NMTAP	73	96	4
NMTAP	73	96	5
NMTAP	73	192	2
NMTAP	73	192	3
NMTAP	73	192	6
NMSTR	73	288	4
NMSCL	73	288	4	96	192	7
NMTAP	73	288	5
NMTAP	73	288	7
EXTAP	74	288	5
EXTAP	74	288	6
EXTAP	74	288	7
NMTAP	75	0	5
NMTAP	75	0	6
NMTAP	75	0	7
NMTAP	75	96	4
NMTAP	75	96	5
NMTAP	75	96	6
NMHLD	75	192	3	96
NMTAP	75	192	4
NMTAP	75	192	5
NMTAP	75	288	1
NMTAP	75	288	2
NMTAP	76	0	0
NMTAP	76	0	1
NMTAP	76	0	2
NMTAP	76	96	1
NMTAP	76	96	2
NMTAP	76	96	3
NMTAP	76	192	2
NMTAP	76	192	3
NMHLD	76	192	4	96
NMTAP	76	288	5
NMTAP	76	288	6
NMTAP	77	0	1
NMTAP	77	0	2
NMTAP	77	0	7
NMTAP	77	96	3
NMTAP	77	96	4
NMTAP	77	96	5
NMTAP	77	192	0
NMTAP	77	192	5
NMTAP	77	192	6
NMTAP	77	288	2
NMTAP	77	288	3
NMTAP	77	288	4
NMHLD	78	0	3	96
NMHLD	78	0	4	96
NMHLD	78	0	5	96
NMTAP	78	192	3
NMTAP	78	192	4
NMTAP	78	192	5
NMTAP	78	288	3
NMTAP	78	288	4
NMTAP	78	288	5
BRTAP	79	0	3
BRTAP	79	0	4
BRHLD	79	0	5	64
NMTAP	79	96	4
NMTAP	79	96	6
NMTAP	79	96	7
NMHLD	79	192	2	64
NMTAP	79	192	3
NMTAP	79	192	4
NMTAP	79	288	0
NMTAP	79	288	1
NMTAP	79	288	3
NMTAP	80	0	2
NMTAP	80	0	3
NMHLD	80	0	5	64
NMTAP	80	96	4
NMTAP	80	96	6
NMTAP	80	96	7
NMHLD	80	192	0	96
NMHLD	80	192	1	96
NMTAP	80	192	7
NMTAP	80	288	3
NMTAP	81	0	0
NMHLD	81	0	6	64
NMTAP	81	0	7
NMTAP	81	96	4
NMTAP	81	96	5
NMTAP	81	96	7
NMTAP	81	192	0
NMHLD	81	192	1	64
NMTAP	81	192	7
NMTAP	81	288	0
NMTAP	81	288	2
NMTAP	81	288	3
NMTAP	82	0	0
NMHLD	82	0	6	64
NMTAP	82	0	7
NMTAP	82	96	4
NMTAP	82	96	5
NMTAP	82	96	7
BXHLD	82	192	0	96
BXTAP	82	192	3
BXTAP	82	192	4
BXTAP	82	288	1
BXTAP	82	288	2
NMTAP	83	0	3
NMTAP	83	0	4
NMHLD	83	0	5	64
NMTAP	83	96	4
NMTAP	83	96	6
NMTAP	83	96	7
NMHLD	83	192	2	64
NMTAP	83	192	3
NMTAP	83	192	4
NMTAP	83	288	0
NMTAP	83	288	1
NMTAP	83	288	3
NMTAP	84	0	0
NMHLD	84	0	6	64
NMTAP	84	0	7
NMTAP	84	96	4
NMTAP	84	96	5
NMTAP	84	96	7
NMTAP	84	192	0
NMHLD	84	192	1	64
NMTAP	84	192	7
NMTAP	84	288	0
NMTAP	84	288	2
NMTAP	84	288	3
NMTAP	85	0	3
NMTAP	85	0	4
NMTAP	85	0	7
NMTAP	85	96	4
NMTAP	85	96	5
NMTAP	85	96	6
NMTAP	85	192	1
NMTAP	85	192	2
NMTAP	85	192	5
NMTAP	85	256	1
NMTAP	85	256	2
NMTAP	85	256	5
BRHLD	85	352	0	224
BRHLD	85	352	1	224
BRHLD	85	352	4	224
BXTAP	87	0	0
BXHLD	87	0	1	64
BXTAP	87	0	7
NMTAP	87	96	4
NMTAP	87	96	5
NMHLD	87	96	6	64
NMHLD	87	192	2	64
NMTAP	87	192	3
NMTAP	87	192	4
NMTAP	87	288	0
NMTAP	87	288	1
NMTAP	87	288	3
BXTAP	88	0	0
BXHLD	88	0	6	64
BXTAP	88	0	7
NMHLD	88	96	1	64
NMTAP	88	96	2
NMTAP	88	96	3
NMTAP	88	192	3
NMTAP	88	192	4
NMHLD	88	192	5	64
NMTAP	88	288	4
NMTAP	88	288	6
NMTAP	88	288	7
NMHLD	89	0	0	64
NMHLD	89	0	1	64
NMTTP	89	0	4	E	0	M1
NMTTP	89	96	0	C	0	M1
NMHLD	89	96	5	64
NMHLD	89	96	6	64
NMTTP	89	192	0	E	0	M1
NMHLD	89	192	1	64
NMHLD	89	192	2	64
NMTTP	89	288	4	E	0	M1
NMHLD	89	288	4	64
NMHLD	89	288	5	64
NMTTP	90	0	0	E	1	M1
BXHLD	90	0	2	1120
BXHLD	90	0	3	1120
NMTHO	90	192	0	928	C	0	M1

T_REC_TAP	419
T_REC_BRK	22
T_REC_XTP	32
T_REC_BXX	26
T_REC_HLD	121
T_REC_XHO	6
T_REC_BHO	6
T_REC_BXH	8
T_REC_STR	16
T_REC_BST	0
T_REC_XST	0
T_REC_XBS	0
T_REC_TTP	18
T_REC_THO	3
T_REC_SLD	16
T_REC_BSL	0
T_REC_ALL	693
T_NUM_TAP	485
T_NUM_BRK	62
T_NUM_HLD	130
T_NUM_SLD	16
T_NUM_ALL	693
T_JUDGE_TAP	533
T_JUDGE_HLD	514
T_JUDGE_SLD	16
T_JUDGE_ALL	1063
TTM_EACHPAIRS	227
TTM_SCR_TAP	242500
TTM_SCR_BRK	161200
TTM_SCR_HLD	130000
TTM_SCR_SLD	24000
TTM_SCR_ALL	557700
TTM_SCR_S	535000
TTM_SCR_SS	551500
TTM_RAT_ACV	10112

