VERSION	0.00.00	1.05.00
FES_MODE	1
BPM_DEF	155.000	155.000	155.000	155.000
MET_DEF	4	4
RESOLUTION	384
CLK_DEF	384
COMPATIBLE_CODE	MA2

BPM	0	0	155.000
MET	0	0	4	4

EXTAP	2	0	2
NMTAP	2	0	3
EXTAP	2	0	4
EXTAP	2	192	2
NMTAP	2	192	3
EXTAP	2	192	4
EXTAP	3	0	2
NMTAP	3	0	3
EXTAP	3	0	4
EXTAP	4	0	3
NMTAP	4	0	4
EXTAP	4	0	5
EXTAP	4	192	3
NMTAP	4	192	4
EXTAP	4	192	5
EXTAP	5	0	3
NMTAP	5	0	4
EXTAP	5	0	5
EXTAP	5	372	2
NMTAP	6	0	3
EXTAP	6	12	4
EXTAP	6	180	4
NMTAP	6	192	3
EXTAP	6	204	2
EXTAP	6	372	4
NMTAP	7	0	3
EXTAP	7	12	2
EXTAP	7	372	5
NMTAP	8	0	4
EXTAP	8	12	3
EXTAP	8	180	3
NMTAP	8	192	4
EXTAP	8	204	5
EXTAP	8	372	3
NMTAP	9	0	4
EXTAP	9	12	5
EXTAP	9	372	3
NMTAP	10	0	2
EXTAP	10	12	1
EXTAP	10	180	0
NMTAP	10	192	1
EXTAP	10	204	2
EXTAP	10	372	1
NMTAP	11	0	2
EXTAP	11	12	3
EXTAP	11	180	4
NMTAP	11	192	3
EXTAP	11	204	2
EXTAP	11	372	4
NMTAP	12	0	5
EXTAP	12	12	6
EXTAP	12	180	7
NMTAP	12	192	6
EXTAP	12	204	5
EXTAP	12	372	6
NMTAP	13	0	5
EXTAP	13	12	4
BXTAP	13	180	3
BRTAP	13	192	4
BXTAP	13	204	5
EXTAP	13	372	4
NMTAP	14	0	5
EXTAP	14	12	6
EXTAP	14	180	7
NMTAP	14	192	6
EXTAP	14	204	5
EXTAP	14	372	6
NMTAP	15	0	5
EXTAP	15	12	4
EXTAP	15	180	3
NMTAP	15	192	4
EXTAP	15	204	5
EXTAP	15	372	3
NMTAP	16	0	2
EXTAP	16	12	1
EXTAP	16	180	0
NMTAP	16	192	1
EXTAP	16	204	2
EXTAP	16	372	1
NMTAP	17	0	2
EXTAP	17	12	3
BXTAP	17	180	4
BRTAP	17	192	3
BXTAP	17	204	2
EXTAP	18	184	4
BRTAP	18	192	6
EXTAP	18	200	5
EXTAP	18	208	7
EXTAP	19	176	2
EXTAP	19	184	3
BRTAP	19	192	1
EXTAP	19	208	0
EXTAP	20	176	4
EXTAP	20	184	7
BRTAP	20	192	5
EXTAP	20	208	6
EXTAP	21	176	1
EXTAP	21	184	0
BRTAP	21	192	2
EXTAP	21	208	3
EXTAP	22	80	1
EXTAP	22	88	2
BRTAP	22	96	0
EXTAP	22	112	7
EXTAP	22	184	2
BRTAP	22	192	1
EXTAP	22	200	0
EXTAP	22	208	7
EXTAP	23	80	6
EXTAP	23	88	5
BRTAP	23	96	7
EXTAP	23	112	0
EXTAP	23	184	5
BRTAP	23	192	6
EXTAP	23	200	7
EXTAP	23	208	0
EXHLD	23	368	3	208
EXHLD	23	376	5	200
BRHLD	24	0	6	192
EXHLD	24	8	4	184
EXHLD	24	376	2	200
BRHLD	25	0	1	192
EXHLD	25	8	3	184
EXHLD	25	16	4	176
EXTAP	25	376	1
BRTAP	26	0	0
BRTAP	26	0	3
EXTAP	26	8	2
BRTAP	26	96	0
BRTAP	26	96	3
EXTAP	26	104	2
EXTAP	26	112	1
EXTAP	26	176	1
EXTAP	26	184	2
BRTAP	26	192	0
BRTAP	26	192	3
BRTAP	26	288	0
BRTAP	26	288	3
EXTAP	26	296	2
EXTAP	26	304	1
EXTAP	26	368	6
EXTAP	26	376	5
BRTAP	27	0	4
BRTAP	27	0	7
EXTAP	27	80	6
EXTAP	27	88	5
BRTAP	27	96	4
BRTAP	27	96	7
BRTAP	27	192	4
BRTAP	27	192	7
EXTAP	27	200	6
EXTAP	27	208	5
BRTAP	27	288	4
BRTAP	27	288	7
EXTAP	27	296	5
EXTAP	27	304	6
EXTAP	27	376	1
BRTAP	28	0	0
BRTAP	28	0	3
EXTAP	28	8	2
EXTAP	28	88	1
BRTAP	28	96	0
BRTAP	28	96	3
EXTAP	28	104	2
EXTAP	28	176	2
BRTAP	28	192	0
BRTAP	28	192	3
EXTAP	28	208	1
BRTAP	28	288	0
BRTAP	28	288	3
EXTAP	28	296	2
EXTAP	28	304	1
EXTAP	28	376	6
BRTAP	29	0	4
BRTAP	29	0	7
EXTAP	29	16	5
EXTAP	29	88	6
BRTAP	29	96	4
BRTAP	29	96	7
EXTAP	29	112	5
EXTAP	29	176	6
EXTAP	29	184	5
BRTAP	29	192	4
BRTAP	29	192	7
EXTAP	29	280	6
BRTAP	29	288	4
BRTAP	29	288	7
EXTAP	29	304	5
EXTAP	29	368	5
EXTAP	29	376	4
BRTAP	30	0	3
BRTAP	30	0	6
EXTAP	30	176	6
EXTAP	30	184	7
BRTAP	30	192	0
BRTAP	30	192	5
EXTAP	30	376	3
BRTAP	31	0	1
BRTAP	31	0	4
EXTAP	31	16	2
EXTAP	31	184	0
BRTAP	31	192	2
BRTAP	31	192	7
EXTAP	31	200	1
EXTAP	31	376	0
BRTAP	32	0	7
EXTAP	32	8	1
EXTAP	32	80	2
EXTAP	32	88	1
BRTAP	32	96	0
BRTAP	32	192	1
EXTAP	32	200	3
EXTAP	32	208	2
EXTAP	32	280	3
BRTAP	32	288	2
EXTAP	32	296	4
EXTAP	32	368	5
EXTAP	32	376	4
BRTAP	33	0	3
BRTAP	33	96	4
EXTAP	33	104	5
EXTAP	33	112	6
BRTAP	33	192	5
EXTAP	33	200	7
EXTAP	33	208	6
EXTAP	33	272	0
EXTAP	33	280	7
BRTAP	33	288	6
EXTAP	33	376	6
BRTAP	34	0	4
BRTAP	34	0	7
EXTAP	34	8	5
EXTAP	34	80	5
EXTAP	34	88	6
BRTAP	34	96	4
BRTAP	34	96	7
EXTAP	34	176	6
EXTAP	34	184	5
BRTAP	34	192	4
BRTAP	34	192	7
EXTAP	34	272	5
EXTAP	34	280	6
BRTAP	34	288	4
BRTAP	34	288	7
BRTAP	35	0	0
BRTAP	35	0	3
EXTAP	35	8	2
EXTAP	35	16	1
BRTAP	35	96	0
BRTAP	35	96	3
EXTAP	35	104	1
EXTAP	35	112	2
BRTAP	35	192	0
BRTAP	35	192	3
EXTAP	35	200	2
EXTAP	35	208	1
BRTAP	35	288	0
BRTAP	35	288	3
EXTAP	35	296	2
EXTAP	35	304	1
EXTAP	35	368	5
EXTAP	35	376	6
BRTAP	36	0	4
BRTAP	36	0	7
EXTAP	36	80	5
EXTAP	36	88	6
BRTAP	36	96	4
BRTAP	36	96	7
BRTAP	36	192	4
BRTAP	36	192	7
EXTAP	36	200	5
EXTAP	36	208	6
BRTAP	36	288	4
BRTAP	36	288	7
EXTAP	36	296	6
EXTAP	36	304	5
EXTAP	36	368	2
EXTAP	36	376	1
BRTAP	37	0	0
BRTAP	37	0	3
EXTAP	37	80	1
EXTAP	37	88	2
BRTAP	37	96	0
BRTAP	37	96	3
BRTAP	37	192	0
BRTAP	37	192	3
EXTAP	37	200	1
EXTAP	37	208	2
BRTAP	37	288	0
BRTAP	37	288	3
EXTAP	37	296	2
EXTAP	37	304	1
EXTAP	37	368	2
EXTAP	37	376	3
BRTAP	38	0	1
BRTAP	38	0	4
EXTAP	38	176	1
EXTAP	38	184	0
BRTAP	38	192	2
BRTAP	38	192	7
EXTAP	38	376	4
BRTAP	39	0	3
BRTAP	39	0	6
EXTAP	39	16	5
EXTAP	39	184	7
BRTAP	39	192	0
BRTAP	39	192	5
EXTAP	39	200	6
EXTAP	39	376	7
BRTAP	40	0	0
EXTAP	40	8	6
EXTAP	40	80	5
EXTAP	40	88	6
BRTAP	40	96	7
BRTAP	40	192	6
EXTAP	40	200	4
EXTAP	40	208	5
EXTAP	40	280	4
BRTAP	40	288	5
EXTAP	40	296	3
EXTAP	40	368	2
EXTAP	40	376	3
BRTAP	41	0	4
BRTAP	41	96	3
EXTAP	41	104	2
EXTAP	41	112	1
BRTAP	41	192	2
EXTAP	41	200	0
EXTAP	41	208	1
EXTAP	41	272	7
EXTAP	41	280	0
BRTAP	41	288	1
EXTAP	41	368	6
EXTAP	41	376	7
BRSTR	42	0	0
NMSUR	42	0	0	96	192	4
EXTAP	42	376	0
BRSTR	43	0	7
NMSUL	43	0	7	96	192	3
EXTAP	43	8	1
EXTAP	43	368	5
BRSTR	44	0	3
NMSUL	44	0	3	96	192	7
EXTAP	44	8	4
EXTAP	44	376	2
BRSTR	45	0	4
NMSUR	45	0	4	96	192	0
EXTAP	45	8	3
EXTAP	45	376	2
BRSTR	46	0	1
NMSUR	46	0	1	96	192	5
EXTAP	46	8	3
EXTAP	46	368	7
BRSTR	47	0	5
NMSUL	47	0	5	96	192	1
EXTAP	47	8	6
EXTAP	47	376	1
BRSTR	48	0	2
NMSUL	48	0	2	96	192	6
EXTAP	48	8	0
EXTAP	48	368	4
BRSTR	49	0	6
NMSUR	49	0	6	96	192	2
EXTAP	49	8	5
NMHLD	50	0	1	768
EXTAP	50	8	0
NMTAP	50	192	3
EXTAP	50	200	4
EXTAP	50	280	4
NMTAP	50	288	3
EXTAP	50	376	4
NMTAP	51	0	3
EXTAP	51	80	4
NMTAP	51	96	3
NMTAP	51	192	3
EXTAP	51	208	4
NMHLD	52	0	6	768
EXTAP	52	8	7
NMTAP	52	192	4
EXTAP	52	200	3
EXTAP	52	280	3
NMTAP	52	288	4
EXTAP	52	376	3
NMTAP	53	0	4
NMTAP	53	96	4
EXTAP	53	112	3
EXTAP	53	176	3
NMTAP	53	192	4
NMHLD	54	0	2	768
EXTAP	54	8	3
NMTAP	54	192	0
EXTAP	54	200	7
EXTAP	54	280	7
NMTAP	54	288	0
EXTAP	54	376	7
NMTAP	55	0	0
EXTAP	55	80	7
NMTAP	55	96	0
NMTAP	55	192	0
EXTAP	55	208	7
NMHLD	56	0	5	672
EXTAP	56	8	4
NMTAP	56	192	7
EXTAP	56	200	0
EXTAP	56	280	0
NMTAP	56	288	7
EXTAP	56	376	0
NMTAP	57	0	7
NMTAP	57	96	7
EXTAP	57	112	0
EXTAP	57	176	0
NMTAP	57	192	7
EXTAP	57	376	4
BRTAP	58	0	2
BRTAP	58	0	5
EXTAP	58	8	3
EXTAP	58	376	6
BRTAP	59	0	4
BRTAP	59	0	7
EXTAP	59	8	5
BRTAP	59	96	4
BRTAP	59	96	7
EXTAP	59	104	5
EXTAP	59	112	6
EXTAP	59	176	2
EXTAP	59	184	1
BRTAP	59	192	0
BRTAP	59	192	3
BRTAP	59	288	4
BRTAP	59	288	7
EXTAP	59	296	5
EXTAP	59	304	6
EXTAP	59	368	1
EXTAP	59	376	2
BRTAP	60	0	0
BRTAP	60	0	3
EXTAP	60	80	1
EXTAP	60	88	2
BRTAP	60	96	0
BRTAP	60	96	3
BRTAP	60	192	4
BRTAP	60	192	7
EXTAP	60	200	5
EXTAP	60	208	6
BRTAP	60	288	0
BRTAP	60	288	3
EXTAP	60	296	2
EXTAP	60	304	1
EXTAP	60	376	6
BRTAP	61	0	4
BRTAP	61	0	7
EXTAP	61	8	5
EXTAP	61	88	6
BRTAP	61	96	4
BRTAP	61	96	7
EXTAP	61	104	5
EXTAP	61	176	1
BRTAP	61	192	0
BRTAP	61	192	3
EXTAP	61	208	2
BRTAP	61	288	4
BRTAP	61	288	7
EXTAP	61	296	5
EXTAP	61	304	6
EXTAP	61	376	1
BRTAP	62	0	0
BRTAP	62	0	3
EXTAP	62	16	2
EXTAP	62	88	1
BRTAP	62	96	0
BRTAP	62	96	3
EXTAP	62	112	2
EXTAP	62	176	5
EXTAP	62	184	6
BRTAP	62	192	4
BRTAP	62	192	7
EXTAP	62	280	1
BRTAP	62	288	0
BRTAP	62	288	3
EXTAP	62	304	2
EXTAP	62	368	2
EXTAP	62	376	3
BRTAP	63	0	1
BRTAP	63	0	4
EXTAP	63	176	1
EXTAP	63	184	0
BRTAP	63	192	2
BRTAP	63	192	7
EXTAP	63	376	4
BRTAP	64	0	3
BRTAP	64	0	6
EXTAP	64	16	5
EXTAP	64	184	7
BRTAP	64	192	0
BRTAP	64	192	5
EXTAP	64	200	6
EXTAP	64	376	3
BRTAP	65	0	4
EXTAP	65	8	2
EXTAP	65	80	1
EXTAP	65	88	2
BRTAP	65	96	3
BRTAP	65	192	2
EXTAP	65	200	0
EXTAP	65	208	1
EXTAP	65	280	0
BRTAP	65	288	1
EXTAP	65	296	7
EXTAP	65	368	6
EXTAP	65	376	7
BRTAP	66	0	0
BRTAP	66	96	7
EXTAP	66	104	6
EXTAP	66	112	5
BRTAP	66	192	6
EXTAP	66	200	4
EXTAP	66	208	5
EXTAP	66	272	3
EXTAP	66	280	4
BRTAP	66	288	5
EXTAP	66	376	1
BRTAP	67	0	0
BRTAP	67	0	3
EXTAP	67	8	2
EXTAP	67	80	2
EXTAP	67	88	1
BRTAP	67	96	0
BRTAP	67	96	3
EXTAP	67	176	5
EXTAP	67	184	6
BRTAP	67	192	4
BRTAP	67	192	7
EXTAP	67	272	2
EXTAP	67	280	1
BRTAP	67	288	0
BRTAP	67	288	3
BRTAP	68	0	4
BRTAP	68	0	7
EXTAP	68	8	5
EXTAP	68	16	6
BRTAP	68	96	4
BRTAP	68	96	7
EXTAP	68	104	6
EXTAP	68	112	5
BRTAP	68	192	0
BRTAP	68	192	3
EXTAP	68	200	1
EXTAP	68	208	2
BRTAP	68	288	4
BRTAP	68	288	7
EXTAP	68	296	5
EXTAP	68	304	6
EXTAP	68	368	2
EXTAP	68	376	1
BRTAP	69	0	0
BRTAP	69	0	3
EXTAP	69	80	2
EXTAP	69	88	1
BRTAP	69	96	0
BRTAP	69	96	3
BRTAP	69	192	4
BRTAP	69	192	7
EXTAP	69	200	6
EXTAP	69	208	5
BRTAP	69	288	0
BRTAP	69	288	3
EXTAP	69	296	1
EXTAP	69	304	2
EXTAP	69	368	5
EXTAP	69	376	6
BRTAP	70	0	4
BRTAP	70	0	7
EXTAP	70	80	6
EXTAP	70	88	5
BRTAP	70	96	4
BRTAP	70	96	7
BRTAP	70	192	0
BRTAP	70	192	3
EXTAP	70	200	2
EXTAP	70	208	1
BRTAP	70	288	4
BRTAP	70	288	7
EXTAP	70	296	5
EXTAP	70	304	6
EXTAP	70	368	5
EXTAP	70	376	4
BRTAP	71	0	3
BRTAP	71	0	6
EXTAP	71	176	6
EXTAP	71	184	7
BRTAP	71	192	0
BRTAP	71	192	5
EXTAP	71	376	3
BRTAP	72	0	1
BRTAP	72	0	4
EXTAP	72	16	2
EXTAP	72	184	0
BRTAP	72	192	2
BRTAP	72	192	7
EXTAP	72	200	1
EXTAP	72	376	4
BRTAP	73	0	3
EXTAP	73	8	5
EXTAP	73	80	6
EXTAP	73	88	5
BRTAP	73	96	4
BRTAP	73	192	5
EXTAP	73	200	7
EXTAP	73	208	6
EXTAP	73	280	7
BRTAP	73	288	6
EXTAP	73	296	0
EXTAP	73	368	1
EXTAP	73	376	0
BRTAP	74	0	7
BRTAP	74	96	0
EXTAP	74	104	1
EXTAP	74	112	2
BRTAP	74	192	1
EXTAP	74	200	3
EXTAP	74	208	2
EXTAP	74	272	4
EXTAP	74	280	3
BRTAP	74	288	2
EXTAP	74	376	5
BRTAP	75	0	3
BRTAP	75	0	6
EXTAP	75	8	4
EXTAP	75	80	2
EXTAP	75	88	3
BRTAP	75	96	1
BRTAP	75	96	4
EXTAP	75	176	5
EXTAP	75	184	4
BRTAP	75	192	3
BRTAP	75	192	6
EXTAP	75	280	3
BRTAP	75	288	1
BRTAP	75	288	4
EXTAP	75	296	2
BRTAP	76	0	3
BRTAP	76	0	6
EXTAP	76	8	5
EXTAP	76	16	4
BRTAP	76	96	1
BRTAP	76	96	4
EXTAP	76	104	2
EXTAP	76	112	3
BRTAP	76	192	3
BRTAP	76	192	6
EXTAP	76	200	5
EXTAP	76	208	4
BRTAP	76	288	1
BRTAP	76	288	4
EXTAP	76	296	3
EXTAP	76	304	2
EXTAP	76	368	0
EXTAP	76	376	1
BRTAP	77	0	2
BRTAP	77	0	7
EXTAP	77	80	6
EXTAP	77	88	7
BRTAP	77	96	0
BRTAP	77	96	5
BRTAP	77	192	2
BRTAP	77	192	7
EXTAP	77	200	0
EXTAP	77	208	1
BRTAP	77	288	0
BRTAP	77	288	5
EXTAP	77	296	7
EXTAP	77	304	6
EXTAP	77	376	0
BRTAP	78	0	2
BRTAP	78	0	7
EXTAP	78	8	1
EXTAP	78	80	6
EXTAP	78	88	7
BRTAP	78	96	0
BRTAP	78	96	5
BRTAP	78	192	2
BRTAP	78	192	7
EXTAP	78	200	0
EXTAP	78	208	1
BRTAP	78	288	0
BRTAP	78	288	5
EXTAP	78	296	7
EXTAP	78	304	6
BRTAP	79	0	3
BRTAP	79	0	6
EXTAP	79	8	5
EXTAP	79	16	4
EXTAP	79	176	2
EXTAP	79	184	3
BRTAP	79	192	1
BRTAP	79	192	4
BRTAP	80	0	4
BRTAP	80	0	7
EXTAP	80	8	6
EXTAP	80	16	5
EXTAP	80	176	1
EXTAP	80	184	2
BRTAP	80	192	0
BRTAP	80	192	3
EXTAP	80	368	4
EXTAP	80	376	3
BRTAP	81	0	2
BRTAP	81	0	5
EXTAP	81	80	5
EXTAP	81	88	4
BRTAP	81	96	3
BRTAP	81	96	6
EXTAP	81	176	6
BRTAP	81	192	4
BRTAP	81	192	7
EXTAP	81	200	5
EXTAP	81	280	6
BRTAP	81	288	0
BRTAP	81	288	5
EXTAP	81	296	7
EXTAP	81	368	0
EXTAP	81	376	7
BRTAP	82	0	1
BRTAP	82	0	6
EXTAP	82	88	0
BRTAP	82	96	2
BRTAP	82	96	7
EXTAP	82	104	1
EXTAP	82	176	2
EXTAP	82	184	1
BRTAP	82	192	0
BRTAP	82	192	3
BRTAP	82	288	1
BRTAP	82	288	4
EXTAP	82	296	3
EXTAP	82	304	2
BXTAP	82	376	3
BRTAP	83	0	2
BRTAP	83	0	5
BXTAP	83	8	4

T_REC_TAP	46
T_REC_BRK	262
T_REC_XTP	398
T_REC_BXX	6
T_REC_HLD	4
T_REC_XHO	6
T_REC_BHO	2
T_REC_BXH	0
T_REC_STR	0
T_REC_BST	8
T_REC_XST	0
T_REC_XBS	0
T_REC_TTP	0
T_REC_THO	0
T_REC_SLD	8
T_REC_BSL	0
T_REC_ALL	740
T_NUM_TAP	444
T_NUM_BRK	278
T_NUM_HLD	10
T_NUM_SLD	8
T_NUM_ALL	740
T_JUDGE_TAP	720
T_JUDGE_HLD	97
T_JUDGE_SLD	8
T_JUDGE_ALL	825
TTM_EACHPAIRS	116
TTM_SCR_TAP	222000
TTM_SCR_BRK	722800
TTM_SCR_HLD	10000
TTM_SCR_SLD	12000
TTM_SCR_ALL	966800
TTM_SCR_S	910850
TTM_SCR_SS	939000
TTM_RAT_ACV	10296

