VERSION	0.00.00	1.04.00
FES_MODE	1
BPM_DEF	120.000	120.000	120.000	120.000
MET_DEF	4	4
RESOLUTION	384
CLK_DEF	384
COMPATIBLE_CODE	MA2

BPM	0	0	120.000
MET	0	0	4	4

BXSTR	2	0	0
NMSCR	2	0	0	96	768	0
NMSCR	4	0	0	96	768	0
NMTTP	6	0	0	C	0	M1
NMSCR	6	0	0	96	768	0
NMTTP	7	0	0	C	0	M1
NMTTP	8	0	0	C	0	M1
NMSCR	8	0	0	96	768	0
NMTTP	9	0	0	C	0	M1
NMSCR	10	0	0	96	768	0
NMTTP	10	0	4	B	0	M1
NMTTP	10	192	6	B	0	M1
NMTTP	11	0	0	B	0	M1
NMTTP	11	192	2	B	0	M1
NMSCR	12	0	0	96	768	0
NMTTP	12	0	4	B	0	M1
NMTTP	12	192	6	B	0	M1
NMTTP	13	0	0	B	0	M1
NMTTP	13	192	2	B	0	M1
NMSCR	14	0	0	96	768	0
NMTTP	14	0	4	B	0	M1
NMTTP	14	96	5	B	0	M1
NMTTP	14	192	6	B	0	M1
NMTTP	15	0	0	B	0	M1
NMTTP	15	96	1	B	0	M1
NMTTP	15	192	2	B	0	M1
NMSCR	16	0	0	96	768	0
NMTTP	16	0	4	B	0	M1
NMTTP	16	96	5	B	0	M1
NMTTP	16	192	6	B	0	M1
NMTTP	17	0	0	B	0	M1
NMTTP	17	96	1	B	0	M1
NMTTP	17	192	2	B	0	M1
NMSCR	18	0	0	96	768	0
NMTTP	18	0	4	E	0	M1
NMTTP	18	192	6	E	0	M1
NMTTP	19	0	0	E	0	M1
NMTTP	19	192	2	E	0	M1
NMSCR	20	0	0	96	768	0
NMTTP	20	0	4	E	0	M1
NMTTP	20	192	6	E	0	M1
NMTTP	21	0	0	E	0	M1
NMTTP	21	192	2	E	1	M1
NMSCR	22	0	0	96	768	0
NMTTP	22	0	4	B	0	M1
NMTTP	22	96	5	B	0	M1
NMTTP	22	192	6	B	0	M1
NMTTP	22	288	7	B	0	M1
NMTTP	23	0	0	B	0	M1
NMTTP	23	96	1	B	0	M1
NMTTP	23	192	2	B	0	M1
NMTTP	23	288	3	B	0	M1
NMSCR	24	0	0	96	768	0
NMTTP	24	0	4	B	0	M1
NMTTP	24	96	5	B	0	M1
NMTTP	24	192	6	B	0	M1
NMTTP	24	288	7	B	0	M1
NMTTP	25	0	0	B	0	M1
NMTTP	25	96	1	B	0	M1
NMTTP	25	192	2	B	0	M1
NMTTP	25	288	3	B	0	M1
NMSCR	26	0	0	96	768	0
NMTTP	26	0	4	B	0	M1
NMTTP	26	96	5	B	0	M1
NMTTP	26	192	6	B	0	M1
NMTTP	26	288	7	B	0	M1
NMTTP	27	0	0	B	0	M1
NMTTP	27	96	1	B	0	M1
NMTTP	27	192	2	B	0	M1
NMTTP	27	288	3	B	0	M1
NMSCR	28	0	0	96	768	0
NMTTP	28	0	4	B	0	M1
NMTTP	28	96	5	B	0	M1
NMTTP	28	192	6	B	0	M1
NMTTP	28	288	7	B	0	M1
NMTTP	29	0	0	B	0	M1
NMTTP	29	96	1	B	0	M1
NMTTP	29	192	2	B	0	M1
NMSCR	30	0	0	96	768	0
NMTTP	30	0	4	E	0	M1
NMTTP	30	192	2	E	0	M1
NMTTP	31	0	0	E	0	M1
NMTTP	31	192	6	E	0	M1
NMSCR	32	0	0	96	768	0
NMTTP	32	0	4	E	0	M1
NMTTP	32	192	2	E	0	M1
NMTTP	33	0	0	E	0	M1
NMTTP	33	192	6	E	0	M1
NMSCR	34	0	0	96	768	0
NMTTP	34	0	3	B	0	M1
NMTTP	34	96	2	B	0	M1
NMTTP	34	192	1	B	0	M1
NMTTP	35	0	7	B	0	M1
NMTTP	35	96	6	B	0	M1
NMTTP	35	192	5	B	0	M1
NMSCR	36	0	0	96	768	0
NMTTP	36	0	3	B	0	M1
NMTTP	36	96	2	B	0	M1
NMTTP	36	192	1	B	0	M1
NMTTP	37	0	7	B	0	M1
NMTTP	37	96	6	B	0	M1
NMTTP	37	192	5	B	0	M1
NMSCR	38	0	0	96	768	0
NMTTP	38	0	3	A	0	M1
NMTTP	38	96	2	B	0	M1
NMTTP	38	192	1	B	0	M1
NMTTP	38	288	0	A	0	M1
NMTTP	39	0	7	A	0	M1
NMTTP	39	96	6	B	0	M1
NMTTP	39	192	5	B	0	M1
NMTTP	39	288	4	A	0	M1
NMSCR	40	0	0	96	768	0
NMTTP	40	0	3	A	0	M1
NMTTP	40	96	2	B	0	M1
NMTTP	40	192	1	B	0	M1
NMTTP	40	288	0	A	0	M1
NMTTP	41	0	7	A	0	M1
NMTTP	41	96	6	B	0	M1
NMTTP	41	192	5	B	0	M1
NMTTP	41	288	4	A	0	M1
NMSCR	42	0	0	96	768	0
NMTTP	42	0	3	A	0	M1
NMTTP	42	96	2	B	0	M1
NMTTP	42	192	1	B	0	M1
NMTTP	42	288	0	A	0	M1
NMTTP	43	0	7	A	0	M1
NMTTP	43	96	6	B	0	M1
NMTTP	43	192	5	B	0	M1
NMTTP	43	288	4	A	0	M1
NMSCR	44	0	0	96	768	0
NMTTP	44	0	3	A	0	M1
NMTTP	44	96	2	B	0	M1
NMTTP	44	192	1	B	0	M1
NMTTP	44	288	0	A	0	M1
NMTTP	45	0	7	A	0	M1
NMTTP	45	96	6	B	0	M1
NMTTP	45	192	5	B	0	M1
NMTTP	45	288	4	A	0	M1
NMSCR	46	0	0	96	768	0
NMTTP	46	0	3	A	0	M1
NMTTP	46	48	3	B	0	M1
NMTTP	46	96	3	E	0	M1
NMTTP	46	144	2	B	0	M1
NMTTP	46	192	1	B	0	M1
NMTTP	46	240	1	E	0	M1
NMTTP	46	288	0	B	0	M1
NMTTP	46	336	0	A	0	M1
NMTTP	47	0	7	A	0	M1
NMTTP	47	48	7	B	0	M1
NMTTP	47	96	7	E	0	M1
NMTTP	47	144	6	B	0	M1
NMTTP	47	192	5	B	0	M1
NMTTP	47	240	5	E	0	M1
NMTTP	47	288	4	B	0	M1
NMTTP	47	336	4	A	0	M1
NMSCR	48	0	0	96	768	0
NMTTP	48	0	3	A	0	M1
NMTTP	48	48	3	B	0	M1
NMTTP	48	96	3	E	0	M1
NMTTP	48	144	2	B	0	M1
NMTTP	48	192	1	B	0	M1
NMTTP	48	240	1	E	0	M1
NMTTP	48	288	0	B	0	M1
NMTTP	48	336	0	A	0	M1
NMTTP	49	0	7	A	0	M1
NMTTP	49	48	7	B	0	M1
NMTTP	49	96	7	E	0	M1
NMTTP	49	144	6	B	0	M1
NMTTP	49	192	5	B	0	M1
NMTTP	49	240	5	E	0	M1
NMTTP	49	288	4	B	0	M1
NMTTP	49	336	4	A	0	M1
NMSCR	50	0	0	96	768	0
NMTTP	50	0	3	A	0	M1
NMTTP	50	48	3	B	0	M1
NMTTP	50	96	3	E	0	M1
NMTTP	50	144	2	B	0	M1
NMTTP	50	192	1	B	0	M1
NMTTP	50	240	1	E	0	M1
NMTTP	50	288	0	B	0	M1
NMTTP	50	336	0	A	0	M1
NMTTP	51	0	7	A	0	M1
NMTTP	51	48	7	B	0	M1
NMTTP	51	96	7	E	0	M1
NMTTP	51	144	6	B	0	M1
NMTTP	51	192	5	B	0	M1
NMTTP	51	240	5	E	0	M1
NMTTP	51	288	4	B	0	M1
NMTTP	51	336	4	A	0	M1
NMSCR	52	0	0	96	768	0
NMTTP	52	0	3	A	0	M1
NMTTP	52	48	3	B	0	M1
NMTTP	52	96	3	E	0	M1
NMTTP	52	144	2	B	0	M1
NMTTP	52	192	1	B	0	M1
NMTTP	52	240	1	E	0	M1
NMTTP	52	288	0	B	0	M1
NMTTP	52	336	0	A	0	M1
NMTTP	53	0	7	A	0	M1
NMTTP	53	48	7	B	0	M1
NMTTP	53	96	7	E	0	M1
NMTTP	53	144	6	B	0	M1
NMTTP	53	192	5	B	0	M1
NMTTP	53	240	5	E	0	M1
NMTTP	53	288	4	B	0	M1
NMSCR	54	0	0	96	768	0
NMTTP	54	0	3	E	0	M1
NMTTP	54	96	2	E	0	M1
NMTTP	54	192	1	B	0	M1
NMTTP	54	288	0	E	0	M1
NMTTP	55	0	7	E	0	M1
NMTTP	55	96	6	E	0	M1
NMTTP	55	192	5	E	0	M1
NMTTP	55	288	4	E	0	M1
NMSCR	56	0	0	96	768	0
NMTTP	56	0	3	E	0	M1
NMTTP	56	96	2	E	0	M1
NMTTP	56	192	1	E	0	M1
NMTTP	56	288	0	E	0	M1
NMTTP	57	0	7	E	0	M1
NMTTP	57	96	6	E	0	M1
NMTTP	57	192	5	E	0	M1
NMSCR	58	0	0	96	768	0
NMTTP	58	0	5	E	0	M1
NMTTP	58	48	5	B	0	M1
NMTTP	58	96	6	B	0	M1
NMTTP	58	144	7	E	0	M1
NMTTP	59	0	3	E	0	M1
NMTTP	59	48	2	B	0	M1
NMTTP	59	96	1	B	0	M1
NMTTP	59	144	1	E	0	M1
NMSCR	60	0	0	96	768	0
NMTTP	60	0	5	E	0	M1
NMTTP	60	48	5	B	0	M1
NMTTP	60	96	6	B	0	M1
NMTTP	60	144	7	E	0	M1
NMTTP	61	0	3	E	0	M1
NMTTP	61	48	2	B	0	M1
NMTTP	61	96	1	B	0	M1
NMTTP	61	144	1	E	0	M1
NMSCR	62	0	0	96	768	0
NMTTP	62	0	4	E	0	M1
NMTTP	62	96	3	E	0	M1
NMTTP	62	192	2	E	0	M1
NMTTP	62	288	1	E	0	M1
NMTTP	63	0	0	E	0	M1
NMTTP	63	96	7	E	0	M1
NMTTP	63	192	6	E	0	M1
NMTTP	63	288	5	E	0	M1
NMSCR	64	0	0	96	768	0
NMTTP	64	0	4	E	0	M1
NMTTP	64	192	2	E	0	M1
NMTTP	65	0	0	A	0	M1
NMTTP	65	192	0	A	0	M1

T_REC_TAP	0
T_REC_BRK	0
T_REC_XTP	0
T_REC_BXX	0
T_REC_HLD	0
T_REC_XHO	0
T_REC_BHO	0
T_REC_BXH	0
T_REC_STR	0
T_REC_BST	0
T_REC_XST	0
T_REC_XBS	1
T_REC_TTP	221
T_REC_THO	0
T_REC_SLD	32
T_REC_BSL	0
T_REC_ALL	254
T_NUM_TAP	221
T_NUM_BRK	1
T_NUM_HLD	0
T_NUM_SLD	32
T_NUM_ALL	254
T_JUDGE_TAP	222
T_JUDGE_HLD	0
T_JUDGE_SLD	32
T_JUDGE_ALL	254
TTM_EACHPAIRS	0
TTM_SCR_TAP	110500
TTM_SCR_BRK	2600
TTM_SCR_HLD	0
TTM_SCR_SLD	48000
TTM_SCR_ALL	161100
TTM_SCR_S	156200
TTM_SCR_SS	161000
TTM_RAT_ACV	10006

