VERSION	0.00.00	1.04.00
FES_MODE	1
BPM_DEF	175.000	175.000	175.000	175.000
MET_DEF	4	4
RESOLUTION	384
CLK_DEF	384
COMPATIBLE_CODE	MA2

BPM	0	0	175.000
MET	0	0	4	4

BRSTR	1	0	0
NMSCR	1	0	0	96	96	3
NMHLD	1	0	7	576
NMSTR	2	0	0
BRSUR	2	0	0	96	96	5
BRSTR	3	0	0
NMSCR	3	0	0	96	96	3
NMSUR	3	0	0	480	96	5
NMHLD	3	0	7	576
NMSTR	4	0	0
NMHLD	5	0	0	576
BRSTR	5	0	7
NMSUL	5	0	7	96	96	3
NMSTR	6	0	7
BRSUR	6	0	7	96	96	4
NMHLD	7	0	0	576
BRSTR	7	0	7
NMSUL	7	0	7	96	96	3
NMSUR	7	0	7	480	96	4
NMSTR	8	0	7
BRSTR	9	0	1
NMSI_	9	0	1	96	48	3
NMHLD	9	0	6	576
NMSTR	9	192	0
NMSI_	9	192	0	96	48	4
NMSTR	10	0	7
BRSI_	10	0	7	96	48	5
NMSI_	11	0	0	288	48	4
BRSTR	11	0	1
NMSI_	11	0	1	96	48	3
NMHLD	11	0	6	576
NMSI_	11	0	7	480	48	5
NMSTR	11	192	0
NMSTR	12	0	7
NMHLD	13	0	0	576
BRSTR	13	0	6
NMSCL	13	0	6	96	48	3
NMSTR	13	192	6
NMSCR	13	192	6	96	48	1
NMSTR	14	0	6
BRSSL	14	0	6	96	96	2
NMHLD	15	0	0	576
NMSTR	15	0	6
NMSCL	15	0	6	96	48	3
NMSCR	15	0	6	288	48	1
NMSSL	15	0	6	480	96	2
NMSTR	15	192	6
NMSTR	16	0	6
NMSTR	17	0	1
NMSCL	17	0	1	96	48	7
NMHLD	17	0	5	672
NMSTR	17	192	1
NMSCR	17	192	1	96	48	3
NMSTR	18	0	1
NMSV_	18	0	1	96	48	6
NMSTR	18	192	1
BRSV_	18	192	1	96	48	4
NMSTR	19	0	1
NMSCL	19	0	1	96	48	7
NMSCR	19	0	1	288	48	3
NMSV_	19	0	1	480	48	6
NMSV_	19	0	1	672	48	4
NMHLD	19	0	5	672
NMSTR	19	192	1
NMSTR	20	0	1
NMSTR	20	192	1
NMHLD	21	0	1	672
NMSTR	21	0	7
NMSCL	21	0	7	96	48	4
NMSTR	21	192	7
NMSUR	21	192	7	96	48	3
NMSTR	22	0	7
NMSUL	22	0	7	96	48	3
NMSTR	22	192	7
BRSCR	22	192	7	96	48	2
NMHLD	23	0	1	672
NMSTR	23	0	7
NMSCL	23	0	7	96	48	4
NMSUR	23	0	7	288	48	3
NMSUL	23	0	7	480	48	3
NMSCR	23	0	7	672	48	2
NMSTR	23	192	7
NMSTR	24	0	7
NMSTR	24	192	7
NMSTR	25	0	1
NMSI_	25	0	1	96	48	3
NMHLD	25	0	6	576
NMSTR	25	192	5
NMSI_	25	192	5	96	48	7
NMSTR	26	0	0
NMSV_	26	0	0	96	48	3
NMSTR	26	96	0
BRSV_	26	96	0	96	48	5
NMSV_	27	0	0	480	48	3
NMSV_	27	0	0	576	48	5
NMSTR	27	0	1
NMSI_	27	0	1	96	48	3
NMSI_	27	0	5	288	48	7
NMHLD	27	0	6	576
NMSTR	27	192	5
NMSTR	28	0	0
NMSTR	28	96	0
NMHLD	29	0	0	576
NMSTR	29	0	5
NMSI_	29	0	5	96	48	3
NMSTR	29	192	1
NMSI_	29	192	1	96	48	7
NMSTR	30	0	6
NMSV_	30	0	6	96	48	3
NMSTR	30	96	6
BRSV_	30	96	6	96	48	1
NMHLD	31	0	0	576
NMSI_	31	0	1	288	48	7
NMSTR	31	0	5
NMSI_	31	0	5	96	48	3
NMSV_	31	0	6	480	48	3
NMSV_	31	0	6	576	48	1
NMSTR	31	192	1
NMSTR	32	0	6
NMSTR	32	96	6
BRSTR	33	0	0
NMSXL	33	0	0	96	480	3
NMHLD	33	0	7	1344
NMSTR	35	0	0
BRSXR	35	0	0	96	480	5
BRSTR	37	0	0
NMSXL	37	0	0	96	480	3
NMSXR	37	0	0	864	480	5
NMHLD	37	0	7	1344
NMSTR	39	0	0
NMHLD	41	0	1	1344
NMSTR	41	0	4
NMSXL	41	0	4	96	480	0
NMSTR	43	0	0
BRSXL	43	0	0	96	480	4
NMSXL	45	0	0	864	480	4
NMHLD	45	0	1	1344
NMSTR	45	0	4
NMSXL	45	0	4	96	480	0
NMSTR	47	0	0
BRSTR	49	0	0
NMSCR	49	0	0	96	48	3
NMSTR	49	192	7
NMSCL	49	192	7	96	48	4
NMSTR	50	0	0
BRSI_	50	0	0	96	48	4
BRSTR	51	0	0
NMSCR	51	0	0	96	48	3
NMSI_	51	0	0	480	48	4
NMSCL	51	0	7	288	48	4
NMSTR	51	192	7
NMSTR	52	0	0
BRSTR	53	0	7
NMSI_	53	0	7	96	48	5
NMSTR	53	192	0
NMSI_	53	192	0	96	48	2
NMSTR	54	0	7
NMSI_	54	0	7	96	48	3
NMSTR	54	192	0
BRSI_	54	192	0	96	48	4
NMSI_	55	0	0	288	48	2
NMSI_	55	0	0	672	48	4
BRSTR	55	0	7
NMSI_	55	0	7	96	48	5
NMSI_	55	0	7	480	48	3
NMSTR	55	192	0
NMSTR	56	0	7
NMSTR	56	192	0
BRSTR	57	0	6
NMSCL	57	0	6	96	48	3
NMSTR	57	192	7
NMSCR	57	192	7	96	48	1
NMSTR	58	0	6
NMSV_	58	0	6	96	48	4
NMSTR	58	192	7
NMSV_	58	192	7	96	48	1
NMSTR	59	0	6
NMSCL	59	0	6	96	48	3
NMSTR	59	192	7
NMSCR	59	192	7	96	48	1
NMSTR	60	0	6
BRSSR	60	0	6	96	96	2
BRSTR	61	0	6
NMSCL	61	0	6	96	48	3
NMSV_	61	0	6	480	48	4
NMSSR	61	0	6	1248	96	2
NMSCR	61	0	7	288	48	1
NMSV_	61	0	7	672	48	1
NMSCL	61	192	6	672	48	3
NMSTR	61	192	7
NMSTR	62	0	6
NMSCR	62	0	7	672	48	1
NMSTR	62	192	7
NMSTR	63	0	6
NMSTR	63	192	7
NMSTR	64	0	6
NMSTR	65	0	0
NMSI_	65	0	0	96	48	2
NMHLD	65	0	7	1344
NMSTR	65	192	0
NMSI_	65	192	0	96	48	5
NMSTR	66	0	0
NMSI_	66	0	0	96	48	3
NMSTR	66	192	0
NMSI_	66	192	0	96	48	4
NMSTR	67	0	0
NMSI_	67	0	0	96	48	5
NMSTR	67	192	0
NMSI_	67	192	0	96	48	3
NMSTR	68	0	0
BRSLL	68	0	0	96	96	2
NMSTR	69	0	0
NMSI_	69	0	0	96	48	2
NMSI_	69	0	0	288	48	5
NMSI_	69	0	0	480	48	3
NMSI_	69	0	0	672	48	4
NMSLL	69	0	0	1248	96	2
NMHLD	69	0	7	1344
NMSTR	69	192	0
NMSTR	70	0	0
NMSI_	70	0	0	480	48	5
NMSTR	70	192	0
NMSI_	70	192	0	480	48	3
NMSTR	71	0	0
NMSTR	71	192	0
NMSTR	72	0	0
NMHLD	73	0	3	1344
NMSTR	73	0	4
NMSI_	73	0	4	96	48	6
NMSTR	73	192	4
NMSI_	73	192	4	96	48	7
NMSTR	74	0	4
NMSI_	74	0	4	96	48	0
NMSTR	74	192	4
NMSI_	74	192	4	96	48	1
NMSTR	75	0	4
NMSI_	75	0	4	96	48	6
NMSTR	75	192	4
NMSI_	75	192	4	96	48	0
NMSTR	76	0	4
BRSLL	76	0	4	96	96	6
NMHLD	77	0	3	1344
NMSTR	77	0	4
NMSI_	77	0	4	96	48	6
NMSI_	77	0	4	288	48	7
NMSI_	77	0	4	480	48	0
NMSI_	77	0	4	672	48	1
NMSLL	77	0	4	1248	96	6
NMSTR	77	192	4
NMSI_	77	192	4	672	48	6
NMSTR	78	0	4
NMSTR	78	192	4
NMSI_	78	192	4	480	48	0
NMSTR	79	0	4
NMSTR	79	192	4
NMSTR	80	0	4
BRSTR	81	0	1
NMSI_	81	0	1	96	48	3
NMSTR	81	96	5
NMSI_	81	96	5	96	48	7
NMSTR	81	192	1
NMSV_	81	192	1	96	48	4
NMSTR	81	288	5
NMSV_	81	288	5	96	48	0
NMSTR	82	0	1
BRSCL	82	0	1	96	96	3
BRSTR	83	0	1
NMSI_	83	0	1	96	48	3
NMSV_	83	0	1	288	48	4
NMSCL	83	0	1	480	96	3
NMSI_	83	0	5	192	48	7
NMSV_	83	0	5	384	48	0
NMSTR	83	96	5
NMSTR	83	192	1
NMSTR	83	288	5
NMSTR	84	0	1
BRSTR	85	0	2
NMSCL	85	0	2	96	48	7
NMSTR	85	96	6
NMSCL	85	96	6	96	48	3
NMSTR	85	192	2
NMSI_	85	192	2	96	48	5
NMSTR	85	288	6
NMSI_	85	288	6	96	48	1
NMSTR	86	0	2
BRSLR	86	0	2	96	96	0
BRSTR	87	0	2
NMSCL	87	0	2	96	48	7
NMSI_	87	0	2	288	48	5
NMSLR	87	0	2	480	96	0
NMSCL	87	0	6	192	48	3
NMSI_	87	0	6	384	48	1
NMSTR	87	96	6
NMSTR	87	192	2
NMSTR	87	288	6
NMSTR	88	0	2
BRSTR	89	0	1
NMSI_	89	0	1	96	48	3
NMSTR	89	96	4
NMSI_	89	96	4	96	48	0
NMSTR	89	192	1
NMSI_	89	192	1	96	48	5
NMSTR	89	288	4
NMSCR	89	288	4	96	48	7
NMSTR	90	0	1
BRSI_	90	0	1	96	48	6
CNSI_	90	144	6	0	48	0
BRSTR	91	0	1
NMSI_	91	0	1	96	48	3
NMSI_	91	0	1	288	48	5
NMSI_	91	0	1	480	48	6
NMSI_	91	0	4	192	48	0
NMSCR	91	0	4	384	48	7
NMSTR	91	96	4
NMSTR	91	192	1
NMSTR	91	288	4
NMSTR	92	0	1
CNSI_	92	144	6	0	48	0
BRSTR	93	0	1
NMSV_	93	0	1	96	48	4
NMSTR	93	96	5
NMSV_	93	96	5	96	48	0
NMSTR	93	192	1
NMSV_	93	192	1	96	48	2
NMSTR	93	288	5
NMSV_	93	288	5	96	48	6
NMSTR	94	0	1
NMSV_	94	0	1	96	48	3
NMSTR	94	96	5
BRSV_	94	96	5	96	48	7
BRSTR	95	0	1
NMSV_	95	0	1	96	48	4
NMSV_	95	0	1	288	48	2
NMSV_	95	0	1	480	48	3
NMSV_	95	0	5	192	48	0
NMSV_	95	0	5	384	48	6
NMSV_	95	0	5	576	48	7
NMSTR	95	96	5
NMSTR	95	192	1
NMSTR	95	288	5
NMSTR	96	0	1
NMSTR	96	96	5
BXSTR	97	0	1
NMSI_	97	0	1	96	48	5
BRSTR	97	0	7
NMSI_	97	0	7	96	48	5
NMSTR	97	192	1
NMSI_	97	192	1	96	48	3
NMSTR	97	192	7
NMSI_	97	192	7	96	48	3
NMSTR	98	0	1
BRSXL	98	0	1	96	192	4
NMSTR	98	0	7
BRSXR	98	0	7	96	192	4
BXSTR	99	0	1
NMSI_	99	0	1	96	48	5
NMSI_	99	0	1	288	48	3
NMSXL	99	0	1	480	192	4
BXSTR	99	0	7
NMSI_	99	0	7	96	48	5
NMSI_	99	0	7	288	48	3
NMSXR	99	0	7	480	192	4
NMSTR	99	192	1
NMSTR	99	192	7
NMSTR	100	0	1
NMSTR	100	0	7
BRSTR	101	0	3
NMSCL	101	0	3	96	48	1
BRSTR	101	0	5
NMSI_	101	0	5	96	48	1
NMSTR	101	192	3
NMSI_	101	192	3	96	48	7
NMSTR	101	192	5
NMSCR	101	192	5	96	48	7
NMSTR	102	0	3
BRSLL	102	0	3	96	96	4
NMSTR	102	0	5
BRSLR	102	0	5	96	96	4
CNSI_	102	192	4	0	96	0
CNSI_	102	192	4	0	96	0
BRSTR	103	0	3
NMSCL	103	0	3	96	48	1
NMSI_	103	0	3	288	48	7
NMSLL	103	0	3	480	96	4
BRSTR	103	0	5
NMSI_	103	0	5	96	48	1
NMSCR	103	0	5	288	48	7
NMSLR	103	0	5	480	96	4
NMSTR	103	192	3
NMSTR	103	192	5
NMSTR	104	0	3
NMSTR	104	0	5
CNSI_	104	192	4	0	96	0
CNSI_	104	192	4	0	96	0
BRTAP	105	0	1
BRTAP	105	0	6

T_REC_TAP	0
T_REC_BRK	2
T_REC_XTP	0
T_REC_BXX	0
T_REC_HLD	24
T_REC_XHO	0
T_REC_BHO	0
T_REC_BXH	0
T_REC_STR	151
T_REC_BST	28
T_REC_XST	0
T_REC_XBS	3
T_REC_TTP	0
T_REC_THO	0
T_REC_SLD	159
T_REC_BSL	23
T_REC_ALL	390
T_NUM_TAP	151
T_NUM_BRK	56
T_NUM_HLD	24
T_NUM_SLD	159
T_NUM_ALL	390
T_JUDGE_TAP	184
T_JUDGE_HLD	424
T_JUDGE_SLD	182
T_JUDGE_ALL	790
TTM_EACHPAIRS	37
TTM_SCR_TAP	75500
TTM_SCR_BRK	145600
TTM_SCR_HLD	24000
TTM_SCR_SLD	238500
TTM_SCR_ALL	483600
TTM_SCR_S	463700
TTM_SCR_SS	478000
TTM_RAT_ACV	10117

