VERSION	0.00.00	1.04.00
FES_MODE	1
BPM_DEF	150.000	150.000	150.000	150.000
MET_DEF	4	4
RESOLUTION	384
CLK_DEF	384
COMPATIBLE_CODE	MA2

BPM	0	0	150.000
MET	0	0	4	4

NMHLD	1	0	3	1248
NMHLD	1	0	4	1248
NMHLD	2	0	0	768
NMHLD	2	0	2	768
NMHLD	3	0	5	288
NMHLD	3	0	7	288
NMTAP	4	0	5
NMTAP	4	0	7
NMTAP	4	96	0
NMTAP	4	96	2
NMTAP	4	192	3
NMTAP	4	192	4
NMTAP	4	288	0
NMTAP	4	288	2
NMTAP	4	288	3
NMTAP	4	288	4
NMTAP	4	288	5
NMTAP	4	288	7
NMTAP	5	0	3
NMTAP	5	0	4
NMTAP	5	0	5
NMTAP	5	0	7
NMHLD	5	48	3	240
NMHLD	5	48	4	240
NMHLD	5	48	5	240
NMHLD	5	48	7	240
NMTAP	5	96	0
NMTAP	5	144	0
NMTAP	5	192	2
NMTAP	5	240	2
NMTAP	5	288	1
NMTAP	6	0	0
NMTAP	6	0	2
NMTAP	6	0	3
NMTAP	6	0	4
NMHLD	6	48	0	240
NMHLD	6	48	2	240
NMHLD	6	48	3	240
NMHLD	6	48	4	240
NMTAP	6	96	7
NMTAP	6	144	7
BRTAP	6	192	5
NMTAP	6	240	5
BRTAP	6	288	6
NMTAP	7	0	0
NMTAP	7	0	2
NMTAP	7	0	5
NMTAP	7	0	7
NMHLD	7	48	0	240
NMHLD	7	48	2	240
NMHLD	7	48	5	240
NMHLD	7	48	7	240
NMTAP	7	96	3
NMTAP	7	144	3
NMTAP	7	192	4
NMTAP	7	240	4
NMTAP	7	288	3
NMHLD	8	0	0	48
NMHLD	8	0	2	48
NMHLD	8	0	3	48
NMHLD	8	0	4	48
NMHLD	8	0	5	48
NMHLD	8	0	7	48
NMHLD	8	96	0	48
NMHLD	8	96	2	48
NMHLD	8	96	3	48
NMHLD	8	96	4	48
NMHLD	8	96	5	48
NMHLD	8	96	7	48
NMHLD	8	192	0	48
NMHLD	8	192	2	48
NMHLD	8	192	3	48
NMHLD	8	192	4	48
NMHLD	8	192	5	48
NMHLD	8	192	7	48
BRTAP	8	288	0
BRTAP	8	288	2
BRTAP	8	288	3
BRTAP	8	288	4
BRTAP	8	288	5
BRTAP	8	288	7
NMTAP	9	0	1
NMTAP	9	0	3
NMTAP	9	0	4
NMTAP	9	0	5
NMTAP	9	0	6
NMTAP	9	48	0
NMTAP	9	96	1
NMTAP	9	96	3
NMTAP	9	96	4
NMTAP	9	96	5
NMTAP	9	96	6
NMTAP	9	144	0
NMTAP	9	192	1
NMTAP	9	192	3
NMTAP	9	192	4
NMTAP	9	192	5
NMTAP	9	192	6
NMTAP	9	240	0
NMTAP	9	288	1
NMTAP	9	288	3
NMTAP	9	288	4
NMTAP	9	288	5
NMTAP	9	288	6
NMTAP	9	336	0
NMTAP	10	0	0
NMTAP	10	0	2
NMHLD	10	48	0	192
NMHLD	10	48	2	192
NMTAP	10	96	3
NMTAP	10	96	4
NMHLD	10	144	3	96
NMHLD	10	144	4	96
NMTAP	10	192	5
NMTAP	10	192	7
NMTAP	10	240	5
NMTAP	10	240	7
NMTAP	10	288	0
NMTAP	10	288	2
NMTAP	10	288	3
NMTAP	10	288	4
NMTAP	10	288	5
NMTAP	10	288	7
NMTAP	10	336	0
NMTAP	10	336	2
NMTAP	10	336	3
NMTAP	10	336	4
NMTAP	10	336	5
NMTAP	10	336	7
NMTAP	11	0	1
NMTAP	11	0	2
NMTAP	11	0	3
NMTAP	11	0	4
NMTAP	11	0	6
NMTAP	11	48	7
NMTAP	11	96	1
NMTAP	11	96	2
NMTAP	11	96	3
NMTAP	11	96	4
NMTAP	11	96	6
NMTAP	11	144	7
NMTAP	11	192	1
NMTAP	11	192	2
NMTAP	11	192	3
NMTAP	11	192	4
NMTAP	11	192	6
NMTAP	11	240	7
NMTAP	11	288	1
NMTAP	11	288	2
NMTAP	11	288	3
NMTAP	11	288	4
NMTAP	11	288	6
NMTAP	11	336	7
NMTAP	12	0	5
NMTAP	12	0	7
NMHLD	12	48	5	192
NMHLD	12	48	7	192
NMTAP	12	96	3
NMTAP	12	96	4
NMHLD	12	144	3	96
NMHLD	12	144	4	96
NMTAP	12	192	0
NMTAP	12	192	2
NMTAP	12	240	0
NMTAP	12	240	2
BRTAP	12	288	0
BRTAP	12	288	2
BRTAP	12	288	3
BRTAP	12	288	4
BRTAP	12	288	5
BRTAP	12	288	7
NMHLD	13	0	0	1056
NMHLD	13	0	1	1056
NMTAP	13	0	3
NMHLD	13	0	6	1056
NMHLD	13	0	7	1056
NMTAP	13	48	3
NMTAP	13	96	4
NMTAP	13	144	4
NMTAP	13	192	3
NMTAP	13	240	3
NMTAP	13	288	5
NMHLD	13	336	5	96
NMTAP	14	48	4
NMTAP	14	96	4
NMTAP	14	144	3
NMTAP	14	192	2
NMTAP	14	192	4
NMTAP	14	288	2
NMTAP	14	288	4
NMTAP	15	0	2
NMTAP	15	48	2
NMTAP	15	96	3
NMTAP	15	144	3
NMTAP	15	192	4
NMTAP	15	240	4
NMTAP	15	288	5
NMSTR	16	0	0
NMSI_	16	0	0	96	48	2
NMHLD	16	0	3	96
NMHLD	16	0	4	96
NMSTR	16	0	7
NMSI_	16	0	7	96	48	5
NMSTR	16	192	2
NMSI_	16	192	2	96	48	0
NMHLD	16	192	3	96
NMHLD	16	192	4	96
NMSTR	16	192	5
NMSI_	16	192	5	96	48	7
NMHLD	17	0	1	1056
NMHLD	17	0	2	1056
NMHLD	17	0	3	1056
NMHLD	17	0	4	1056
EXTAP	17	0	7
NMTAP	17	48	7
NMTAP	17	96	6
NMTAP	17	144	6
NMTAP	17	192	0
NMTAP	17	240	0
NMTAP	17	288	5
NMHLD	17	336	5	96
NMTAP	18	48	7
NMTAP	18	96	7
NMTAP	18	192	0
NMTAP	18	192	6
NMTAP	18	288	0
NMTAP	18	288	6
NMTAP	19	0	5
NMTAP	19	0	7
NMTAP	19	48	5
NMTAP	19	96	6
NMTAP	19	144	7
NMTAP	19	192	0
NMTAP	19	288	5
NMTAP	19	288	7
NMSTR	20	0	0
NMSV_	20	0	0	96	192	1
NMSTR	20	0	3
NMSV_	20	0	3	96	192	4
NMSTR	20	0	7
NMSV_	20	0	7	96	192	6
EXTAP	21	0	0
NMHLD	21	0	3	1056
NMHLD	21	0	4	1056
NMHLD	21	0	5	1056
NMHLD	21	0	6	1056
NMTAP	21	48	0
NMTAP	21	96	1
NMTAP	21	144	1
NMTAP	21	192	7
NMTAP	21	240	7
NMTAP	21	288	2
NMHLD	21	336	2	96
NMTAP	22	48	1
NMTAP	22	96	0
NMTAP	22	144	7
NMHLD	22	192	7	192
NMTAP	22	288	0
NMTAP	22	336	0
NMTAP	23	0	1
NMTAP	23	48	2
NMTAP	23	96	1
NMTAP	23	144	0
NMTAP	23	192	7
NMTAP	23	288	0
NMTAP	23	288	2
NMSTR	24	0	0
NMSCR	24	0	0	96	48	2
NMHLD	24	0	3	96
NMHLD	24	0	4	96
NMSTR	24	0	5
NMSCR	24	0	5	96	48	7
NMSTR	24	192	2
NMSCL	24	192	2	96	48	0
NMHLD	24	192	3	96
NMHLD	24	192	4	96
NMSTR	24	192	7
NMSCL	24	192	7	96	48	5
NMHLD	25	0	4	48
NMHLD	25	0	5	48
NMHLD	25	0	7	48
NMHLD	25	96	4	48
NMHLD	25	96	5	48
NMHLD	25	96	7	48
NMHLD	25	192	0	48
NMHLD	25	192	2	48
NMHLD	25	192	3	48
NMHLD	25	288	0	48
NMHLD	25	288	2	48
NMHLD	25	288	3	48
BRTAP	26	48	0
BRTAP	26	48	2
BRTAP	26	48	3
BRTAP	26	48	4
BRTAP	26	48	5
BRTAP	26	48	7
BRTAP	26	96	0
BRTAP	26	96	2
BRTAP	26	96	3
BRTAP	26	96	4
BRTAP	26	96	5
BRTAP	26	96	7
BRHLD	26	192	0	96
BRHLD	26	192	2	96
BRHLD	26	192	3	96
BRHLD	26	192	4	96
BRHLD	26	192	5	96
BRHLD	26	192	7	96
NMTAP	26	336	0
NMTAP	26	336	1
NMTAP	26	336	6
NMTAP	26	336	7
NMHLD	27	0	0	96
NMHLD	27	0	1	96
NMHLD	27	0	6	96
NMHLD	27	0	7	96
NMTAP	27	48	3
NMTAP	27	48	4
NMHLD	27	96	3	96
NMHLD	27	96	4	96
NMTAP	27	144	0
NMTAP	27	144	1
NMTAP	27	144	6
NMTAP	27	144	7
NMHLD	27	192	0	96
NMHLD	27	192	1	96
NMHLD	27	192	6	96
NMHLD	27	192	7	96
NMTAP	27	240	3
NMTAP	27	240	4
NMTAP	27	288	3
NMTAP	27	288	4
NMTAP	27	336	0
NMTAP	27	336	1
NMTAP	27	336	3
NMTAP	27	336	4
NMTAP	27	336	6
NMTAP	27	336	7
NMTAP	28	0	0
NMTAP	28	0	1
NMTAP	28	0	3
NMTAP	28	0	4
NMTAP	28	0	6
NMTAP	28	0	7
EXTAP	28	48	0
EXTAP	28	48	1
NMTAP	28	48	3
NMTAP	28	48	4
EXTAP	28	48	6
EXTAP	28	48	7
EXTAP	28	96	0
EXTAP	28	96	1
NMTAP	28	96	3
NMTAP	28	96	4
EXTAP	28	96	6
EXTAP	28	96	7
NMTAP	28	144	0
NMTAP	28	144	1
NMTAP	28	144	3
NMTAP	28	144	4
NMTAP	28	144	6
NMTAP	28	144	7
NMHLD	28	192	0	96
NMHLD	28	192	1	96
NMHLD	28	192	3	96
NMHLD	28	192	4	48
NMHLD	28	192	6	48
NMHLD	28	192	7	48
NMHLD	29	0	0	672
NMHLD	29	0	1	672
NMTAP	29	0	3
NMSTR	29	0	4
NMSSL	29	0	4	96	192	0
NMHLD	29	0	6	672
EXHLD	29	0	7	672
CNSI_	29	288	0	0	96	6
CNSI_	30	0	6	0	144	2
CNSI_	30	144	2	0	144	4
NMHLD	31	0	0	672
NMHLD	31	0	1	672
NMSTR	31	0	3
NMSXL	31	0	3	96	144	3
NMSXR	31	0	3	96	144	3
NMTAP	31	0	4
NMHLD	31	0	6	672
NMHLD	31	0	7	672
NMSTR	32	0	3
NMSXL	32	0	3	96	96	4
NMSXR	32	0	3	96	96	2
NMTTP	32	288	3	A	0	M1
NMHLD	33	96	0	96
NMHLD	33	96	4	96
NMHLD	33	96	7	96
NMHLD	33	192	2	96
NMHLD	33	192	3	96
NMHLD	33	192	5	96
NMHLD	33	288	0	96
NMHLD	33	288	4	96
NMHLD	33	288	7	96
NMTAP	34	0	1
NMTAP	34	0	3
NMTAP	34	0	6
NMTAP	34	48	3
NMTAP	34	96	0
NMTAP	34	96	4
NMTAP	34	96	7
NMTAP	34	144	4
NMHLD	34	192	0	96
NMHLD	34	192	1	96
NMHLD	34	192	3	96
NMHLD	34	192	4	96
NMHLD	34	192	6	96
NMHLD	34	192	7	96
NMTAP	35	0	3
NMSTR	35	0	4
NMSI_	35	0	4	96	192	0
NMSV_	35	0	4	96	192	2
NMSV_	35	0	4	96	192	6
NMSTR	36	0	0
NMSI_	36	0	0	96	192	4
NMSTR	36	0	2
NMSV_	36	0	2	96	192	4
NMSTR	36	0	6
NMSV_	36	0	6	96	192	4
NMHLD	37	0	1	288
NMHLD	37	0	3	288
NMSTR	37	0	4
NMSI_	37	0	4	96	96	0
NMHLD	37	0	5	288
NMHLD	37	0	7	288
CNSI_	37	192	0	0	96	4
NMHLD	38	0	0	768
NMTAP	38	0	3
NMTAP	38	0	4
NMHLD	38	0	7	768
NMTAP	38	48	4
NMTAP	38	96	3
NMTAP	38	96	4
NMTAP	38	144	4
NMTAP	38	192	3
NMTAP	38	192	4
NMTAP	38	240	4
NMTAP	38	288	3
NMTAP	38	288	4
NMTAP	38	336	4
NMHLD	39	0	2	384
NMTAP	39	0	3
NMTAP	39	0	4
NMHLD	39	0	5	384
NMTAP	39	48	3
NMTAP	39	96	3
NMTAP	39	96	4
NMTAP	39	144	3
NMTAP	39	192	3
NMTAP	39	192	4
NMTAP	39	240	3
NMTAP	39	288	3
NMTAP	39	288	4
NMTAP	39	336	3
NMTAP	40	0	3
NMTAP	40	0	4
NMTAP	40	288	3
NMTAP	40	336	4
NMTAP	41	0	0
NMTAP	41	0	3
NMTAP	41	0	4
NMTAP	41	0	7
NMTAP	41	96	0
NMTAP	41	96	1
NMTAP	41	96	3
NMTAP	41	96	4
NMHLD	41	96	6	192
NMHLD	41	96	7	192
NMTAP	41	192	1
NMTAP	41	192	4
NMTAP	41	240	1
NMTAP	41	240	4
NMHLD	41	288	0	192
NMHLD	41	288	2	192
NMTAP	41	288	4
NMTAP	42	0	3
NMTAP	42	0	6
NMTAP	42	48	3
NMTAP	42	48	6
NMTAP	42	96	3
NMHLD	42	96	5	96
NMHLD	42	96	7	96
NMTAP	42	192	1
NMTAP	42	192	4
NMTAP	42	240	1
NMTAP	42	240	4
NMTAP	42	288	0
NMTAP	42	288	2
NMTAP	42	288	3
NMTAP	42	288	4
NMTAP	42	288	6
BRHLD	43	0	0	480
BRHLD	43	0	1	480
BRTAP	43	0	3
BRHLD	43	0	6	480
BRHLD	43	0	7	480
NMTAP	43	48	3
NMTAP	43	96	4
NMTAP	43	144	4
NMTAP	43	192	2
NMTAP	43	240	2
NMTAP	43	288	5
NMTAP	43	336	5
NMTAP	44	0	3
NMTAP	44	48	4
NMTAP	44	96	2
NMTAP	44	144	5
NMTAP	44	192	0
NMTAP	44	192	1
NMTAP	44	192	3
NMTAP	44	192	4
NMTAP	44	192	6
NMTAP	44	192	7
NMTAP	44	240	0
NMTAP	44	240	1
NMTAP	44	240	3
NMTAP	44	240	4
NMTAP	44	240	6
NMTAP	44	240	7
NMTAP	44	288	0
NMTAP	44	288	1
NMTAP	44	288	3
NMTAP	44	288	4
NMTAP	44	288	6
NMTAP	44	288	7
NMTAP	45	0	0
NMTAP	45	0	2
NMHLD	45	0	3	768
NMHLD	45	0	4	768
NMHLD	45	0	5	192
NMHLD	45	0	7	192
NMTAP	45	96	0
NMTAP	45	96	2
NMTAP	45	192	0
NMTAP	45	240	0
NMTAP	45	288	0
NMTAP	45	288	2
NMTAP	45	288	5
NMTAP	45	288	7
NMTAP	46	0	1
NMHLD	46	0	6	384
NMTAP	46	48	1
NMTAP	46	96	0
NMTAP	46	96	2
NMTAP	46	192	2
NMTAP	46	240	2
NMHLD	46	288	0	96
NMHLD	46	288	2	96
NMTAP	46	288	5
NMTAP	46	336	5
NMHLD	47	96	0	96
NMHLD	47	96	4	96
NMHLD	47	96	7	96
NMHLD	47	192	1	96
NMHLD	47	192	3	96
NMHLD	47	192	6	96
NMHLD	47	288	2	96
NMHLD	47	288	4	96
NMHLD	47	288	5	96
NMHLD	48	0	1	96
NMHLD	48	0	3	96
NMHLD	48	0	6	96
NMHLD	48	96	0	96
NMHLD	48	96	4	96
NMHLD	48	96	7	96
NMHLD	48	192	1	96
NMHLD	48	192	3	96
NMHLD	48	192	6	96
NMHLD	49	0	0	288
NMTAP	49	0	2
NMTAP	49	0	3
NMHLD	49	0	5	192
NMTAP	49	96	2
NMTAP	49	96	3
NMTAP	49	96	6
NMTAP	49	192	2
NMTAP	49	192	4
NMHLD	49	192	6	192
NMTAP	49	288	2
NMTAP	49	288	4
NMTAP	49	288	7
NMTAP	50	0	1
NMTAP	50	0	3
NMHLD	50	0	7	192
NMTAP	50	48	1
NMTAP	50	48	3
NMTAP	50	96	0
NMTAP	50	96	4
NMTAP	50	96	6
NMTAP	50	144	0
NMTAP	50	144	4
NMTAP	50	192	2
NMTAP	50	192	3
NMHLD	50	192	6	192
NMTAP	50	240	2
NMTAP	50	240	3
NMTAP	50	288	1
NMTAP	50	288	4
NMHLD	50	288	5	96
NMTAP	50	336	1
NMTAP	50	336	4
NMTAP	51	48	0
NMTAP	51	48	3
NMTAP	51	48	4
NMTAP	51	48	6
NMTAP	51	48	7
NMTAP	51	96	0
NMHLD	51	96	3	192
NMHLD	51	96	4	192
NMHLD	51	96	6	192
NMHLD	51	96	7	192
NMTAP	51	144	1
NMTAP	51	168	2
NMTAP	51	192	1
NMTAP	51	240	1
NMTAP	51	288	1
NMTAP	51	336	0
NMTAP	51	336	2
BRTAP	52	0	0
BRTAP	52	0	2
BRTAP	52	0	3
BRTAP	52	0	4
BRTAP	52	0	5
BRTAP	52	0	7
BRTAP	52	96	0
BRTAP	52	96	2
BRTAP	52	96	3
BRTAP	52	96	4
BRTAP	52	96	5
BRTAP	52	96	7
BRHLD	52	192	0	96
BRHLD	52	192	2	96
BRHLD	52	192	3	96
BRHLD	52	192	4	96
BRHLD	52	192	5	96
BRHLD	52	192	7	96
NMTAP	53	0	1
NMHLD	53	0	3	336
NMHLD	53	0	4	336
NMHLD	53	0	5	336
NMHLD	53	0	6	336
NMTAP	53	48	0
NMTAP	53	48	2
NMTAP	53	96	1
NMTAP	53	144	0
NMTAP	53	144	2
NMTAP	53	192	1
NMTAP	53	240	0
NMTAP	53	240	2
NMTAP	53	288	1
NMTAP	53	336	0
NMTAP	53	336	2
NMTAP	54	0	3
NMTAP	54	0	4
NMTAP	54	48	3
NMTAP	54	48	4
NMTAP	54	96	5
NMTAP	54	96	7
NMTAP	54	144	5
NMTAP	54	144	7
NMTAP	54	192	0
NMTAP	54	192	2
NMTAP	54	240	0
NMTAP	54	240	2
NMTAP	54	288	3
NMTAP	54	288	4
NMTAP	54	336	3
NMTAP	54	336	4
NMHLD	55	0	1	336
NMHLD	55	0	2	336
NMHLD	55	0	3	336
NMHLD	55	0	4	336
NMTAP	55	0	6
NMTAP	55	48	5
NMTAP	55	48	7
NMTAP	55	96	6
NMTAP	55	144	5
NMTAP	55	144	7
NMTAP	55	192	6
NMTAP	55	240	5
NMTAP	55	240	7
NMTAP	55	288	6
NMTAP	55	336	5
NMTAP	55	336	7
NMTAP	56	0	3
NMTAP	56	0	4
NMTAP	56	48	3
NMTAP	56	48	4
NMTAP	56	96	0
NMTAP	56	96	2
NMTAP	56	144	0
NMTAP	56	144	2
NMTAP	56	192	5
NMTAP	56	192	7
NMTAP	56	240	5
NMTAP	56	240	7
NMTAP	56	288	3
NMTAP	56	288	4
NMTAP	56	336	3
NMTAP	56	336	4
NMHLD	57	0	0	288
NMHLD	57	0	1	288
NMSTR	57	0	3
NMSI_	57	0	3	96	96	7
NMSTR	57	0	4
NMSI_	57	0	4	96	96	0
NMHLD	57	0	6	288
NMHLD	57	0	7	288
CNSI_	57	192	0	0	96	2
CNSI_	57	192	7	0	96	5
BRTAP	58	0	3
BRTAP	58	0	4
BRTAP	58	48	3
BRTAP	58	48	4
BRTAP	58	96	3
BRTAP	58	96	4
BRTAP	58	192	0
BRTAP	58	192	2
BRTAP	58	192	3
BRTAP	58	192	4
BRTAP	58	192	5
BRTAP	58	192	7
NMHLD	59	0	0	288
NMHLD	59	0	1	288
NMTAP	59	0	3
NMHLD	59	0	4	288
NMTAP	59	0	6
NMSTR	59	0	7
NMSCL	59	0	7	96	192	3
NMSUL	59	0	7	96	192	3
BRTAP	60	0	5
BRTAP	60	0	7
BRTAP	60	48	5
BRTAP	60	48	7
BRTAP	60	96	5
BRTAP	60	96	7
BRTAP	60	192	0
BRTAP	60	192	2
BRTAP	60	192	3
BRTAP	60	192	4
BRTAP	60	192	5
BRTAP	60	192	7
NMSTR	61	0	0
NMSI_	61	0	0	96	192	4
NMSTR	61	0	1
NMSI_	61	0	1	96	192	4
NMHLD	61	0	3	288
NMTAP	61	0	4
NMHLD	61	0	6	288
NMHLD	61	0	7	288
BRTAP	62	0	0
BRTAP	62	0	2
BRTAP	62	48	0
BRTAP	62	48	2
BRTAP	62	96	0
BRTAP	62	96	2
BRTAP	62	192	0
BRTAP	62	192	2
BRTAP	62	192	3
BRTAP	62	192	4
BRTAP	62	192	5
BRTAP	62	192	7
NMHLD	63	0	0	96
NMTAP	63	0	2
NMTAP	63	0	3
NMTAP	63	0	4
NMTAP	63	0	5
NMHLD	63	0	7	96
NMTAP	63	96	1
NMTAP	63	96	3
NMTAP	63	96	4
NMTAP	63	96	6
NMHLD	63	192	0	96
NMTAP	63	192	2
NMTAP	63	192	3
NMTAP	63	192	4
NMTAP	63	192	5
NMHLD	63	192	7	96
NMTAP	63	288	1
NMTAP	63	288	3
NMTAP	63	288	4
NMTAP	63	288	6
NMHLD	64	0	1	96
NMTAP	64	0	2
NMTAP	64	0	3
NMTAP	64	0	4
NMTAP	64	0	5
NMHLD	64	0	6	96
NMTAP	64	96	0
NMTAP	64	96	3
NMTAP	64	96	4
NMTAP	64	96	7
NMTAP	64	192	0
NMHLD	64	192	1	96
NMTAP	64	192	3
NMTAP	64	192	4
NMHLD	64	192	6	96
NMTAP	64	192	7
NMTAP	64	240	3
NMTAP	64	240	4
NMTAP	64	288	0
NMTAP	64	288	3
NMTAP	64	288	4
NMTAP	64	288	7
NMTAP	64	336	3
NMTAP	64	336	4
BRTAP	65	0	0
BRHLD	65	0	1	384
BRTAP	65	0	3
BRTAP	65	0	4
BRHLD	65	0	6	384
BRTAP	65	0	7
BRTAP	65	48	0
BRTAP	65	48	3
BRTAP	65	48	4
BRTAP	65	48	7
BRTAP	65	96	0
BRTAP	65	96	2
BRTAP	65	96	5
BRTAP	65	96	7
BRTAP	65	144	0
BRTAP	65	144	2
BRTAP	65	144	5
BRTAP	65	144	7
BRTAP	65	192	0
BRTAP	65	192	3
BRTAP	65	192	4
BRTAP	65	192	7
BRTAP	65	240	0
BRTAP	65	240	3
BRTAP	65	240	4
BRTAP	65	240	7
BRTAP	65	288	0
BRTAP	65	288	2
BRTAP	65	288	5
BRTAP	65	288	7
BRTAP	65	336	0
BRTAP	65	336	2
BRTAP	65	336	5
BRTAP	65	336	7
BRTAP	66	0	0
BRTAP	66	0	3
BRTAP	66	0	4
BRTAP	66	0	7
NMTAP	67	0	0
NMHLD	67	0	2	1440
NMSTR	67	0	3
BRSI_	67	0	3	96	2784	7
NMSTR	67	0	4
BRSI_	67	0	4	96	2784	0
NMHLD	67	0	5	1440
NMTAP	67	0	7
NMTAP	67	192	0
NMTAP	67	192	7
NMTAP	68	0	1
NMTAP	68	0	6
NMTAP	68	192	1
NMTAP	68	192	6
NMTAP	69	0	2
NMTAP	69	0	5
NMTAP	69	192	2
NMTAP	69	192	5
NMTAP	70	0	1
NMTAP	70	0	6
NMHLD	70	192	1	96
NMHLD	70	192	6	96
NMHLD	71	0	1	1344
NMHLD	71	0	2	96
NMHLD	71	0	5	96
NMHLD	71	0	6	1344
NMTAP	71	192	2
NMTAP	71	192	5
NMTAP	72	0	1
NMTAP	72	0	6
NMTAP	72	192	1
NMTAP	72	192	6
NMTAP	73	0	2
NMTAP	73	0	5
NMTAP	73	192	2
NMTAP	73	192	5
NMTAP	74	0	3
NMTAP	74	0	4
NMTAP	74	192	3
NMTAP	74	192	4
BRHLD	75	0	0	672
NMHLD	75	0	1	48
NMHLD	75	0	3	48
NMHLD	75	0	4	48
NMHLD	75	0	6	48
BRHLD	75	0	7	672
NMHLD	75	96	1	48
NMHLD	75	96	2	48
NMHLD	75	96	5	48
NMHLD	75	96	6	48
NMHLD	75	192	1	48
NMHLD	75	192	3	48
NMHLD	75	192	4	48
NMHLD	75	192	6	48
NMHLD	75	288	1	48
NMHLD	75	288	2	48
NMHLD	75	288	5	48
NMHLD	75	288	6	48
NMHLD	76	0	1	24
NMHLD	76	0	6	24
NMHLD	76	48	3	24
NMHLD	76	48	4	24
NMSTR	76	96	1
NMSV_	76	96	1	96	96	2
NMSTR	76	96	6
NMSV_	76	96	6	96	96	5
BRTAP	77	0	0
NMTAP	77	0	1
NMTAP	77	0	2
NMTAP	77	0	5
NMTAP	77	0	6
BRTAP	77	0	7
BRTAP	77	48	0
NMTAP	77	48	1
NMTAP	77	48	2
NMTAP	77	48	5
NMTAP	77	48	6
BRTAP	77	48	7
BRTAP	77	96	0
NMTAP	77	96	1
NMTAP	77	96	2
NMTAP	77	96	5
NMTAP	77	96	6
BRTAP	77	96	7
BRTAP	77	144	0
NMTAP	77	144	1
NMTAP	77	144	2
NMTAP	77	144	5
NMTAP	77	144	6
BRTAP	77	144	7
BRHLD	77	192	0	96
NMHLD	77	192	1	96
NMHLD	77	192	2	96
NMHLD	77	192	5	96
NMHLD	77	192	6	96
BRHLD	77	192	7	96
BRSTR	78	0	0
NMSI_	78	0	0	96	48	4
BXTAP	78	0	1
BXTAP	78	0	2
BXTAP	78	0	5
BXTAP	78	0	6
BRSTR	78	0	7
NMSI_	78	0	7	96	48	3
NMTAP	78	96	1
NMTAP	78	96	2
NMTAP	78	96	5
NMTAP	78	96	6
NMHLD	78	192	1	96
NMHLD	78	192	2	96
BRSTR	78	192	3
NMSI_	78	192	3	96	48	7
BRSTR	78	192	4
NMSI_	78	192	4	96	48	0
NMTAP	78	192	5
NMTAP	78	192	6
NMTTP	78	288	5	A	0	M1
NMTTP	78	288	6	E	0	M1
NMTTP	78	288	6	A	0	M1
NMTTP	78	288	6	D	1	M1
BRSTR	79	0	0
NMSI_	79	0	0	96	48	4
NMHLD	79	0	1	96
NMHLD	79	0	2	96
NMTAP	79	0	5
NMTAP	79	0	6
BRSTR	79	0	7
NMSI_	79	0	7	96	48	3
NMTTP	79	96	5	A	0	M1
NMTTP	79	96	6	E	0	M1
NMTTP	79	96	6	A	0	M1
NMTTP	79	96	6	D	1	M1
NMHLD	79	192	1	96
NMHLD	79	192	2	96
BRSTR	79	192	3
NMSI_	79	192	3	96	48	7
BRSTR	79	192	4
NMSI_	79	192	4	96	48	0
NMTAP	79	192	5
NMTAP	79	192	6
NMTTP	79	288	5	A	0	M1
NMTTP	79	288	6	E	0	M1
NMTTP	79	288	6	A	0	M1
NMTTP	79	288	6	D	1	M1
BRSTR	80	0	0
NMSI_	80	0	0	96	48	4
NMTAP	80	0	2
NMTAP	80	0	5
BRSTR	80	0	7
NMSI_	80	0	7	96	48	3
NMTAP	80	48	2
NMTAP	80	48	5
NMTAP	80	96	1
NMTAP	80	96	6
NMTAP	80	144	1
NMTAP	80	144	6
NMTAP	80	192	2
BRSTR	80	192	3
NMSI_	80	192	3	96	48	7
BRSTR	80	192	4
NMSI_	80	192	4	96	48	0
NMTAP	80	192	5
NMTAP	80	240	2
NMTAP	80	240	5
NMTAP	80	288	1
NMTAP	80	288	6
NMTAP	80	336	1
NMTAP	80	336	6
BRSTR	81	0	0
NMSI_	81	0	0	96	48	4
NMTAP	81	0	2
NMTAP	81	0	5
BRSTR	81	0	7
NMSI_	81	0	7	96	48	3
NMTAP	81	48	1
NMTAP	81	48	6
NMTAP	81	96	2
NMTAP	81	96	5
NMTAP	81	144	1
NMTAP	81	144	6
NMTAP	81	192	1
NMTAP	81	192	2
NMTAP	81	192	3
NMTAP	81	192	4
NMTAP	81	192	5
NMTAP	81	192	6
NMTAP	81	240	1
NMTAP	81	240	2
NMTAP	81	240	3
NMTAP	81	240	4
NMTAP	81	240	5
NMTAP	81	240	6
NMTAP	81	288	1
NMTAP	81	288	2
NMTAP	81	288	3
NMTAP	81	288	4
NMTAP	81	288	5
NMTAP	81	288	6
NMTAP	82	0	1
NMTAP	82	0	2
BRSTR	82	0	3
NMSI_	82	0	3	96	48	7
BRSTR	82	0	4
NMSI_	82	0	4	96	48	0
NMTAP	82	0	5
NMTAP	82	0	6
NMTAP	82	96	1
NMTAP	82	96	2
NMTAP	82	96	5
NMTAP	82	96	6
BRSTR	82	192	0
NMSI_	82	192	0	96	48	4
NMTAP	82	192	1
NMTAP	82	192	2
NMHLD	82	192	5	96
NMHLD	82	192	6	96
BRSTR	82	192	7
NMSI_	82	192	7	96	48	3
NMTTP	82	288	1	A	0	M1
NMTTP	82	288	2	E	0	M1
NMTTP	82	288	2	A	0	M1
NMTTP	82	288	2	D	1	M1
NMTAP	83	0	1
NMTAP	83	0	2
BRSTR	83	0	3
NMSI_	83	0	3	96	48	7
BRSTR	83	0	4
NMSI_	83	0	4	96	48	0
NMHLD	83	0	5	96
NMHLD	83	0	6	96
NMTTP	83	96	1	A	0	M1
NMTTP	83	96	2	E	0	M1
NMTTP	83	96	2	A	0	M1
NMTTP	83	96	2	D	1	M1
BRSTR	83	192	0
NMSI_	83	192	0	96	48	4
NMTAP	83	192	1
NMTAP	83	192	2
NMHLD	83	192	5	96
NMHLD	83	192	6	96
BRSTR	83	192	7
NMSI_	83	192	7	96	48	3
NMTTP	83	288	1	A	0	M1
NMTTP	83	288	2	E	0	M1
NMTTP	83	288	2	A	0	M1
NMTTP	83	288	2	D	1	M1
EXTAP	84	0	1
EXTAP	84	0	2
BRSTR	84	0	3
NMSI_	84	0	3	96	48	7
BRSTR	84	0	4
NMSI_	84	0	4	96	48	0
EXTAP	84	0	5
EXTAP	84	0	6
NMTAP	84	96	1
NMTAP	84	96	6
NMTAP	84	144	1
NMTAP	84	144	6
BRSTR	84	192	0
NMSI_	84	192	0	96	48	4
NMTAP	84	192	2
NMTAP	84	192	5
BRSTR	84	192	7
NMSI_	84	192	7	96	48	3
NMTAP	84	240	2
NMTAP	84	240	5
NMTAP	84	288	1
NMTAP	84	288	6
NMTAP	84	336	1
NMTAP	84	336	6
NMTAP	85	0	2
BRSTR	85	0	3
NMSI_	85	0	3	96	48	7
BRSTR	85	0	4
NMSI_	85	0	4	96	48	0
NMTAP	85	0	5
NMTAP	85	48	2
NMTAP	85	48	5
NMTAP	85	96	1
NMTAP	85	96	6
NMTAP	85	144	1
NMTAP	85	144	6
BRSTR	85	192	0
NMSI_	85	192	0	96	48	4
NMHLD	85	192	1	96
NMHLD	85	192	2	96
NMHLD	85	192	5	96
NMHLD	85	192	6	96
BRSTR	85	192	7
NMSI_	85	192	7	96	48	3
NMHLD	86	0	1	288
NMTAP	86	0	2
BRSTR	86	0	3
NMSI_	86	0	3	96	48	7
BRSTR	86	0	4
NMSI_	86	0	4	96	48	0
NMTAP	86	0	6
NMTAP	86	48	3
NMTAP	86	48	4
NMTAP	86	48	6
NMTAP	86	96	2
NMTAP	86	96	5
NMTAP	86	144	6
BRSTR	86	192	0
NMSI_	86	192	0	96	48	4
NMTAP	86	192	2
NMTAP	86	192	6
BRSTR	86	192	7
NMSI_	86	192	7	96	48	3
BRTAP	86	240	0
NMTAP	86	240	6
BRTAP	86	240	7
NMTAP	86	288	2
NMTAP	86	288	5
NMTAP	86	336	2
NMTAP	86	336	6
NMTAP	87	0	1
BRSTR	87	0	3
NMSI_	87	0	3	96	48	7
BRSTR	87	0	4
NMSI_	87	0	4	96	48	0
NMTAP	87	0	6
NMTAP	87	48	1
NMTAP	87	48	3
NMTAP	87	48	4
NMTAP	87	48	6
NMTAP	87	96	2
NMTAP	87	96	5
NMTAP	87	144	2
NMTAP	87	144	6
BRSTR	87	192	0
NMSI_	87	192	0	96	48	4
NMTAP	87	192	1
NMTAP	87	192	6
BRSTR	87	192	7
NMSI_	87	192	7	96	48	3
BRTAP	87	240	0
NMTAP	87	240	1
NMTAP	87	240	6
BRTAP	87	240	7
NMTAP	87	264	2
NMTAP	87	288	1
NMTAP	87	288	5
NMTAP	87	336	1
NMTAP	87	336	2
NMTAP	87	336	6
NMTAP	88	48	0
NMTAP	88	48	2
NMHLD	88	48	3	240
NMHLD	88	48	4	240
NMHLD	88	48	5	240
NMHLD	88	48	7	240
NMTAP	88	96	0
NMTAP	88	96	2
NMTAP	88	144	1
NMTAP	88	168	2
NMTAP	88	192	1
NMTAP	88	240	0
NMTAP	88	240	1
NMTAP	88	288	0
NMTAP	88	288	1
NMTAP	88	336	0
NMTAP	88	336	2
NMHLD	89	48	0	240
NMHLD	89	48	2	240
NMHLD	89	48	3	240
NMHLD	89	48	4	240
NMTAP	89	48	5
NMTAP	89	48	7
NMTAP	89	96	5
NMTAP	89	96	7
NMTAP	89	144	6
NMTAP	89	168	5
NMTAP	89	192	6
NMTAP	89	240	6
NMTAP	89	240	7
NMTAP	89	288	6
NMTAP	89	288	7
NMTAP	89	336	5
NMTAP	89	336	7
NMTAP	90	48	0
NMTAP	90	48	1
NMTAP	90	48	3
NMTAP	90	48	4
NMTAP	90	48	6
NMTAP	90	48	7
NMTAP	90	96	0
NMTAP	90	96	1
NMTAP	90	96	3
NMTAP	90	96	4
NMTAP	90	96	6
NMTAP	90	96	7
NMTAP	90	144	1
NMTAP	90	144	3
NMTAP	90	144	6
NMTAP	90	168	2
NMTAP	90	168	4
NMTAP	90	168	5
NMTAP	90	192	1
NMTAP	90	192	3
NMTAP	90	192	6
NMTAP	90	240	0
NMTAP	90	240	3
NMTAP	90	240	4
NMTAP	90	240	7
NMTAP	90	288	0
NMTAP	90	288	3
NMTAP	90	288	4
NMTAP	90	288	7
NMTAP	90	336	0
NMTAP	90	336	2
NMTAP	90	336	3
NMTAP	90	336	4
NMTAP	90	336	5
NMTAP	90	336	7
BRTAP	91	0	0
BRTAP	91	0	2
BRTAP	91	0	3
BRTAP	91	0	4
BRTAP	91	0	5
BRTAP	91	0	7
BRTAP	91	96	0
BRTAP	91	96	2
BRTAP	91	96	3
BRTAP	91	96	4
BRTAP	91	96	5
BRTAP	91	96	7
BXTAP	91	192	0
BXSTR	91	192	3
BRSI_	91	192	3	96	48	7
BXTAP	91	192	4
BXSTR	91	192	5
NMSI_	91	192	5	96	48	7
BXTAP	91	192	7
BXSTR	91	193	2
NMSI_	91	193	2	96	48	7
BRTAP	92	0	1
BRTAP	92	0	4
BRTAP	92	0	6

T_REC_TAP	682
T_REC_BRK	138
T_REC_XTP	14
T_REC_BXX	7
T_REC_HLD	250
T_REC_XHO	1
T_REC_BHO	22
T_REC_BXH	0
T_REC_STR	28
T_REC_BST	38
T_REC_XST	0
T_REC_XBS	3
T_REC_TTP	25
T_REC_THO	0
T_REC_SLD	71
T_REC_BSL	3
T_REC_ALL	1282
T_NUM_TAP	749
T_NUM_BRK	211
T_NUM_HLD	251
T_NUM_SLD	71
T_NUM_ALL	1282
T_JUDGE_TAP	935
T_JUDGE_HLD	1365
T_JUDGE_SLD	74
T_JUDGE_ALL	2374
TTM_EACHPAIRS	303
TTM_SCR_TAP	374500
TTM_SCR_BRK	548600
TTM_SCR_HLD	251000
TTM_SCR_SLD	106500
TTM_SCR_ALL	1280600
TTM_SCR_S	1221750
TTM_SCR_SS	1259500
TTM_RAT_ACV	10167

