VERSION	0.00.00	1.04.00
FES_MODE	1
BPM_DEF	150.000	150.000	150.000	150.000
MET_DEF	4	4
RESOLUTION	384
CLK_DEF	384
COMPATIBLE_CODE	MA2

BPM	0	0	150.000
MET	0	0	4	4

NMTHO	1	0	0	2112	C	0	M1
NMTAP	3	0	7
NMTAP	3	192	6
NMTAP	4	0	5
NMTAP	4	192	4
NMTAP	5	0	3
NMTAP	5	192	2
NMTAP	6	0	1
NMTAP	6	192	0
NMTAP	7	0	1
NMTAP	7	0	6
NMTAP	7	48	2
NMTAP	7	72	3
NMTAP	7	96	2
NMTAP	7	144	5
NMTAP	7	168	4
NMTAP	7	192	5
NMTAP	7	240	2
NMTAP	7	264	3
NMTAP	7	288	1
NMTAP	7	336	5
NMTAP	7	360	4
NMTAP	8	0	6
NMTAP	8	48	1
NMTAP	8	72	3
NMTAP	8	96	2
NMTAP	8	144	6
NMTAP	8	168	4
NMTAP	8	192	5
NMTAP	8	240	3
NMTAP	8	288	2
NMTAP	8	288	4
NMTAP	8	336	1
NMTAP	8	336	5
NMTAP	9	0	0
NMTAP	9	0	6
NMTAP	9	48	5
NMTAP	9	72	4
NMTAP	9	96	6
NMTAP	9	144	2
NMTAP	9	168	3
NMTAP	9	192	1
NMTAP	9	240	5
NMTAP	9	264	4
NMSTR	9	288	6
NMSSL	9	288	6	96	120	2
NMSTR	10	192	0
NMSI_	10	192	0	96	48	4
NMHLD	10	192	4	96
EXTAP	10	288	0
NMHLD	11	0	3	48
NMHLD	11	0	5	48
NMTAP	11	96	4
NMTAP	11	96	6
NMTAP	11	144	3
NMTAP	11	144	5
NMHLD	11	192	2	48
NMHLD	11	192	4	48
NMTAP	11	288	1
NMTAP	11	288	3
NMTAP	11	336	2
NMTAP	11	336	4
NMHLD	12	0	3	48
NMHLD	12	0	5	48
NMTAP	12	96	2
NMTAP	12	96	6
NMTAP	12	144	1
NMTAP	12	144	5
NMHLD	12	192	0	48
NMTAP	12	192	4
NMHLD	12	264	1	48
NMHLD	12	264	7	48
NMTAP	12	336	2
NMTAP	12	336	6
NMHLD	13	0	3	48
NMHLD	13	0	5	48
NMTAP	13	96	1
NMTAP	13	96	3
NMTAP	13	144	2
NMTAP	13	144	4
NMHLD	13	192	3	48
NMHLD	13	192	5	48
NMTAP	13	288	4
NMTAP	13	288	6
NMTAP	13	336	3
NMTAP	13	336	5
NMHLD	14	0	2	48
NMHLD	14	0	4	48
NMTAP	14	96	1
NMTAP	14	96	5
NMTAP	14	144	2
NMTAP	14	144	6
NMTAP	14	192	3
NMHLD	14	192	7	48
NMHLD	14	264	0	48
NMHLD	14	264	6	48
NMTAP	14	336	1
NMTAP	14	336	5
NMSTR	15	0	2
NMSI_	15	0	2	96	48	5
NMSTR	15	0	4
NMSI_	15	0	4	96	48	7
NMSTR	15	192	0
NMSI_	15	192	0	96	48	3
NMSTR	15	192	1
NMSI_	15	192	1	96	48	6
NMTAP	16	0	4
NMTAP	16	0	5
NMTAP	16	96	3
NMTAP	16	96	6
NMTAP	16	144	2
NMTAP	16	144	5
NMHLD	16	192	1	48
NMHLD	16	192	4	48
NMHLD	16	264	0	48
NMHLD	16	264	3	48
NMTAP	16	336	1
NMTAP	16	336	2
NMSTR	17	0	2
NMSI_	17	0	2	96	48	5
NMSTR	17	0	3
NMSI_	17	0	3	96	48	0
NMSTR	17	192	6
NMSI_	17	192	6	96	48	1
NMSTR	17	192	7
NMSI_	17	192	7	96	48	4
NMHLD	18	0	2	240
BRTAP	18	0	3
NMTTP	18	240	4	B	0	M1
NMTTP	18	240	4	E	0	M1
NMTTP	18	288	7	B	0	M1
NMTTP	18	288	7	E	0	M1
NMTAP	19	0	2
NMTAP	19	48	2
NMTAP	19	96	1
NMSTR	19	96	3
NMSCR	19	96	3	96	48	6
NMTAP	19	144	0
NMTAP	19	192	1
NMTAP	19	240	2
NMTAP	19	288	3
NMSTR	19	288	7
NMSUL	19	288	7	96	48	3
NMSUR	19	288	7	96	48	3
EXTAP	20	96	2
EXTAP	20	96	4
EXSTR	20	144	2
NMSI_	20	144	2	96	48	0
EXTAP	20	144	4
NMTAP	20	240	5
NMTAP	20	288	4
NMTAP	20	336	3
NMHLD	21	0	0	96
NMTAP	21	48	2
NMTAP	21	96	3
NMTAP	21	144	4
NMTAP	21	192	3
NMTAP	21	192	5
NMTAP	21	240	2
NMHLD	21	240	6	96
NMSTR	21	336	4
NMSI_	21	336	4	96	96	0
NMTAP	22	0	7
NMTAP	22	48	6
NMTAP	22	96	5
NMSTR	22	144	4
NMSI_	22	144	4	96	96	0
NMTAP	22	240	2
NMTAP	22	288	2
NMSTR	23	0	3
NMSLL	23	0	3	96	96	7
NMSTR	23	96	7
NMSCR	23	96	7	96	96	3
NMTAP	23	144	6
NMTAP	23	192	5
NMTAP	23	240	4
NMHLD	23	288	5	96
NMTTP	24	0	0	C	1	M1
NMTAP	24	96	0
NMTAP	24	144	0
NMTAP	24	192	1
NMTAP	24	192	7
NMTAP	24	240	2
NMTAP	24	240	6
NMSTR	24	288	3
NMSI_	24	288	3	96	48	1
NMTAP	24	288	5
NMTAP	24	336	4
NMSTR	25	0	5
NMSI_	25	0	5	96	48	7
NMTAP	25	48	5
NMSTR	25	96	3
NMSI_	25	96	3	96	48	0
NMSTR	25	192	4
NMSI_	25	192	4	96	48	6
NMTAP	25	240	4
NMSTR	25	288	2
NMSI_	25	288	2	96	48	0
NMSI_	25	288	2	96	48	4
NMTAP	25	336	2
EXTAP	26	96	0
EXTAP	26	96	4
EXTAP	26	144	0
EXTAP	26	144	4
NMTAP	26	240	3
NMTAP	26	240	5
NMTAP	26	288	1
BRTAP	26	288	7
NMHLD	27	0	2	96
NMTAP	27	0	6
NMHLD	27	192	3	96
NMTAP	27	192	5
NMHLD	28	0	2	96
NMTAP	28	0	4
NMHLD	28	192	1	96
NMTAP	28	192	3
NMHLD	29	0	0	96
NMTAP	29	0	2
NMHLD	29	192	1	96
NMTAP	29	192	2
NMHLD	30	0	2	96
NMTAP	30	0	3
NMTAP	30	192	1
NMTAP	30	192	4
NMTAP	30	288	2
NMTAP	30	288	3
NMTAP	30	336	2
NMTAP	30	336	3
NMHLD	31	0	2	48
NMHLD	31	0	3	48
NMHLD	31	96	2	48
NMHLD	31	96	3	48
NMHLD	31	192	1	48
NMHLD	31	192	3	48
NMHLD	31	288	2	48
NMHLD	31	288	3	48
NMHLD	32	0	2	48
NMHLD	32	0	3	48
NMHLD	32	96	0	48
NMHLD	32	96	3	48
NMHLD	32	192	2	48
NMHLD	32	192	3	48
NMHLD	32	288	1	48
NMHLD	32	288	3	48
NMHLD	33	0	2	48
NMHLD	33	0	3	48
NMHLD	33	96	1	48
NMHLD	33	96	2	48
NMHLD	33	192	2	48
NMHLD	33	192	3	48
NMTAP	33	288	2
NMSTR	33	288	3
NMSCL	33	288	3	96	288	4
NMSUR	33	288	3	96	288	4
EXTAP	34	0	3
NMTAP	35	0	3
NMTAP	35	0	5
NMTAP	35	48	2
NMTAP	35	48	4
NMTAP	35	96	3
NMTAP	35	96	5
NMTAP	35	144	2
NMTAP	35	144	4
NMSTR	35	192	1
NMSI_	35	192	1	96	48	5
NMTAP	35	192	5
NMTAP	35	240	2
NMTAP	35	240	6
BRTAP	35	288	1
NMTAP	35	288	5
NMSTR	36	0	7
NMSI_	36	0	7	96	48	3
NMTAP	36	48	0
NMTAP	36	48	6
NMTAP	36	96	7
NMSTR	36	192	2
NMSI_	36	192	2	96	48	4
NMTAP	36	240	2
NMSTR	36	288	7
NMSI_	36	288	7	96	48	2
NMTAP	36	336	7
NMTAP	37	0	5
NMTAP	37	48	4
NMSTR	37	96	3
NMSCL	37	96	3	96	48	0
NMSCR	37	96	3	96	48	6
NMTAP	37	192	3
EXTAP	37	288	1
EXTAP	37	288	5
NMTAP	37	336	2
NMSTR	38	0	6
NMSI_	38	0	6	96	48	2
NMTAP	38	48	3
NMTAP	38	96	2
NMTAP	38	144	1
NMSTR	38	192	0
NMSI_	38	192	0	96	48	4
NMTAP	38	240	4
NMTAP	38	288	5
NMTAP	38	336	6
NMSTR	39	0	1
NMSCR	39	0	1	96	48	4
NMSTR	39	0	7
NMSCL	39	0	7	96	48	4
NMTAP	39	96	1
NMSTR	39	96	7
NMSSR	39	96	7	96	96	3
EXTAP	39	192	4
EXTAP	39	288	2
NMTAP	39	336	1
NMSTR	40	0	0
NMSI_	40	0	0	96	48	4
NMTAP	40	48	0
NMSTR	40	96	6
NMSCR	40	96	6	96	48	1
NMSTR	40	192	2
NMSI_	40	192	2	96	48	6
NMTAP	40	240	2
NMSTR	40	288	4
NMSI_	40	288	4	96	48	0
NMTAP	40	336	4
NMTAP	41	0	1
NMTAP	41	48	2
NMSTR	41	96	3
NMSCL	41	96	3	96	48	0
NMSCR	41	96	3	96	48	6
NMTAP	41	192	3
EXTAP	41	288	1
EXTAP	41	288	5
NMTAP	41	336	4
NMSTR	42	0	3
NMSI_	42	0	3	96	48	1
NMTAP	42	48	2
NMSTR	42	96	4
NMSI_	42	96	4	96	48	7
NMTAP	42	144	5
NMSTR	42	192	3
NMSI_	42	192	3	96	48	0
NMTAP	42	240	2
NMSTR	42	288	4
NMSI_	42	288	4	96	48	6
NMTAP	42	336	5
EXSTR	43	0	0
NMSI_	43	0	0	96	48	4
NMSTR	43	96	0
NMSV_	43	96	0	96	48	3
NMSV_	43	96	0	96	48	5
NMTAP	43	192	0
BRTAP	43	288	1
BRTAP	43	288	7
NMSTR	44	0	0
NMSCR	44	0	0	96	96	4
NMTAP	44	0	4
NMTAP	44	96	5
NMTAP	44	144	6
NMSTR	44	192	7
NMSCL	44	192	7	96	96	3
NMTAP	44	288	1
NMTAP	44	336	0
NMSTR	45	0	7
NMSLR	45	0	7	96	96	3
NMTAP	45	96	5
NMTAP	45	144	6
NMSTR	45	192	7
NMSI_	45	192	7	96	48	3
NMTAP	45	288	1
NMHLD	45	336	0	96
NMTAP	46	48	4
NMSTR	46	96	1
NMSV_	46	96	1	96	48	4
NMSTR	46	96	5
NMSV_	46	96	5	96	48	0
EXTAP	46	192	1
EXTAP	46	192	5
EXTAP	46	288	3
EXTAP	46	288	7
NMTAP	46	336	2
NMTAP	47	0	1
NMSTR	47	0	5
NMSI_	47	0	5	96	48	0
NMTAP	47	48	0
NMSTR	47	96	1
NMSCR	47	96	1	96	96	6
NMTAP	47	96	5
NMTAP	47	192	7
NMTTP	47	288	0	C	1	M1
NMSTR	48	0	7
NMSXR	48	0	7	96	144	0
NMTAP	48	96	0
NMTAP	48	144	1
NMSTR	48	192	2
NMSXR	48	192	2	96	144	3
NMTAP	48	288	7
NMTAP	48	336	6
NMSTR	49	0	5
NMSXL	49	0	5	96	144	4
NMTAP	49	96	4
NMTAP	49	144	3
NMSTR	49	192	2
NMSCL	49	192	2	96	48	7
NMTAP	49	288	3
NMHLD	49	336	4	96
NMTAP	50	48	0
NMSTR	50	96	2
NMSI_	50	96	2	96	48	6
NMSTR	50	96	6
NMSI_	50	96	6	96	48	2
NMTAP	50	192	2
NMTAP	50	192	6
EXTAP	50	288	0
NMSTR	50	336	1
NMSLR	50	336	1	96	96	7
NMTAP	50	336	7
NMTAP	51	48	3
NMSTR	51	96	4
NMSI_	51	96	4	96	48	0
NMSI_	51	96	4	96	48	6
NMTAP	51	192	4
EXHLD	51	288	2	240
EXTAP	51	288	7
NMTAP	51	336	6
NMHLD	52	0	5	144
NMTAP	52	192	2
NMTAP	52	192	5
NMSTR	52	288	3
NMSI_	52	288	3	96	48	7
NMSTR	52	288	4
NMSCR	52	288	4	96	48	6
EXTAP	53	0	3
EXTAP	53	0	4
NMSTR	53	96	3
NMSI_	53	96	3	96	48	7
NMSTR	53	96	4
NMSCR	53	96	4	96	48	6
EXTAP	53	192	3
EXTAP	53	192	4
NMTAP	53	288	3
NMTAP	53	288	4
NMHLD	54	0	6	48
NMHLD	54	0	7	48
NMHLD	54	96	5	48
NMHLD	54	96	6	48
NMTAP	54	192	3
NMTAP	54	192	4
NMTAP	54	240	1
NMTAP	54	240	6
NMSTR	54	288	3
NMSCL	54	288	3	96	48	1
NMSTR	54	288	4
NMSI_	54	288	4	96	48	0
EXTAP	55	0	3
EXTAP	55	0	4
NMSTR	55	96	3
NMSCL	55	96	3	96	48	1
NMSTR	55	96	4
NMSI_	55	96	4	96	48	0
EXTAP	55	192	3
EXTAP	55	192	4
NMTAP	55	288	3
NMTAP	55	288	4
NMHLD	56	0	0	48
NMHLD	56	0	1	48
NMHLD	56	96	1	48
NMHLD	56	96	2	48
NMSTR	56	192	3
NMSI_	56	192	3	96	48	6
NMSTR	56	192	4
NMSI_	56	192	4	96	48	1
NMTAP	56	240	2
NMTAP	56	240	5
EXTAP	57	0	2
EXTAP	57	0	5
NMHLD	59	0	2	384
NMTAP	59	0	5
NMTTP	59	288	3	B	0	M1
NMHLD	60	0	5	480
NMTTP	60	288	4	B	0	M1
NMHLD	61	0	3	96
NMHLD	61	192	2	96
NMHLD	61	192	4	96
NMHLD	62	0	1	96
NMHLD	62	0	5	96
NMHLD	62	192	2	96
NMHLD	62	192	6	96
NMTAP	63	0	3
NMHLD	63	0	5	96
NMHLD	63	192	2	96
NMTAP	63	192	4
NMTTP	64	0	0	C	0	M1
NMHLD	64	0	6	96
NMTTP	64	192	0	C	0	M1
NMHLD	64	192	1	96
EXSTR	65	0	0
NMSI_	65	0	0	96	48	4
NMTAP	65	96	4
NMHLD	65	192	5	72
NMHLD	65	264	6	72
NMTAP	65	336	7
NMSTR	66	0	7
NMSI_	66	0	7	96	48	3
NMTAP	66	96	3
NMHLD	66	192	2	72
NMHLD	66	264	1	72
NMTAP	66	336	0
NMSTR	67	0	0
NMSI_	67	0	0	96	48	4
NMTAP	67	96	4
NMHLD	67	192	6	72
NMHLD	67	264	5	72
NMTAP	67	336	4
NMSTR	68	0	4
NMSI_	68	0	4	96	48	7
NMSTR	68	96	1
NMSI_	68	96	1	96	48	4
NMTAP	68	192	0
NMTAP	68	264	6
NMHLD	68	336	3	192
NMTAP	68	336	4
NMHLD	69	0	4	144
NMTAP	70	0	2
BRTAP	70	0	5
NMTAP	70	48	3
BRTAP	70	48	4
NMTAP	70	96	1
BRTAP	70	96	6
NMTAP	70	144	3
BRTAP	70	144	4
NMTAP	70	192	0
BRTAP	70	192	7
NMTAP	70	240	2
BRTAP	70	240	5
NMTTP	70	288	0	C	1	M1
NMTTP	70	288	1	B	0	M1
NMTTP	70	288	2	B	0	M1
NMTTP	70	288	2	E	0	M1
NMTTP	70	288	3	B	0	M1
NMTTP	70	288	4	B	0	M1
NMTTP	70	288	4	E	0	M1
NMTTP	70	288	5	B	0	M1
NMTTP	70	288	6	B	0	M1
NMTTP	70	288	6	E	0	M1
NMSTR	71	0	0
NMSI_	71	0	0	96	48	4
BRSTR	71	0	7
BRSI_	71	0	7	96	48	3
NMTAP	71	48	0
BRTAP	71	48	7
NMTAP	71	96	0
BRTAP	71	96	7
NMSTR	71	192	0
NMSI_	71	192	0	96	48	4
NMTAP	71	240	7
NMSTR	71	288	6
BRSCR	71	288	6	96	48	1
NMTAP	71	336	5
NMSTR	72	0	3
NMSI_	72	0	3	96	48	7
NMTAP	72	48	2
BRSTR	72	96	4
NMSF_	72	96	4	96	48	0
BRTAP	72	192	4
EXTAP	72	288	2
EXTAP	72	288	6
NMTAP	72	336	3
NMSTR	73	0	7
BRSCL	73	0	7	96	48	4
NMTAP	73	48	4
NMTAP	73	96	3
NMTAP	73	144	2
NMSTR	73	192	1
NMSCR	73	192	1	96	48	4
NMTAP	73	240	4
NMTAP	73	288	5
NMTAP	73	336	6
EXSTR	74	0	7
BRSCL	74	0	7	96	48	4
NMSCR	74	0	7	96	48	2
BRSTR	74	96	7
NMSF_	74	96	7	96	48	3
BRTAP	74	192	7
EXTAP	74	288	0
EXTAP	74	288	6
NMTAP	74	336	1
NMSTR	75	0	2
NMSI_	75	0	2	96	48	6
NMTAP	75	48	4
NMSTR	75	96	5
BRSCR	75	96	5	96	48	0
NMSTR	75	192	3
NMSI_	75	192	3	96	48	7
NMTAP	75	240	2
NMSTR	75	288	4
BRSI_	75	288	4	96	48	0
NMTAP	75	336	5
NMTAP	76	0	1
NMTAP	76	48	2
BRSTR	76	96	3
NMSF_	76	96	3	96	48	7
BRTAP	76	192	3
EXTAP	76	288	1
EXTAP	76	288	5
NMTAP	76	336	4
NMSTR	77	0	2
NMSI_	77	0	2	96	48	0
NMTAP	77	0	3
NMTAP	77	48	4
NMTAP	77	96	2
NMSTR	77	96	5
BRSI_	77	96	5	96	48	3
NMTAP	77	144	6
NMSTR	77	192	2
NMSI_	77	192	2	96	48	7
NMTAP	77	192	5
NMTAP	77	240	1
NMTAP	77	288	2
NMSTR	77	288	5
BRSI_	77	288	5	96	48	1
NMTAP	77	336	6
EXSTR	78	0	0
NMSCL	78	0	0	96	48	5
NMSCR	78	0	0	96	48	3
NMTAP	78	0	5
BRSTR	78	96	0
NMSF_	78	96	0	96	48	4
BRTAP	78	192	0
BRTAP	78	288	1
BRTAP	78	288	7
NMTAP	78	336	2
NMSTR	79	0	3
NMSCL	79	0	3	96	96	7
NMTAP	79	0	4
NMTAP	79	96	6
NMTAP	79	144	5
NMSTR	79	192	4
BRSCR	79	192	4	96	96	0
NMTAP	79	288	2
NMTAP	79	336	3
NMSTR	80	0	4
NMSLL	80	0	4	96	96	0
NMTAP	80	96	6
NMTAP	80	144	5
NMSTR	80	192	4
BRSI_	80	192	4	96	48	0
NMTAP	80	288	2
NMHLD	80	336	3	96
NMTAP	81	48	7
NMSTR	81	96	2
NMSCL	81	96	2	96	48	7
NMSTR	81	96	6
BRSCL	81	96	6	96	48	3
EXTAP	81	192	2
EXTAP	81	192	6
EXTAP	81	288	0
EXTAP	81	288	4
NMTAP	81	336	1
NMSTR	82	0	2
NMSI_	82	0	2	96	48	7
NMTAP	82	0	6
NMTAP	82	48	7
NMTAP	82	96	2
NMSTR	82	96	6
BRSCL	82	96	6	96	96	1
NMTAP	82	192	0
NMTTP	82	288	0	C	1	M1
NMSTR	83	0	0
NMSXL	83	0	0	96	144	7
NMTAP	83	96	7
NMTAP	83	144	6
NMSTR	83	192	5
BRSXL	83	192	5	96	144	4
NMTAP	83	288	0
NMTAP	83	336	1
NMSTR	84	0	2
NMSXR	84	0	2	96	144	3
NMTAP	84	96	3
NMTAP	84	144	4
NMSTR	84	192	5
BRSCR	84	192	5	96	48	0
NMTAP	84	288	4
NMHLD	84	336	3	96
NMTAP	85	48	7
NMSTR	85	96	2
NMSCL	85	96	2	96	48	7
NMSTR	85	96	6
BRSCL	85	96	6	96	48	3
NMTAP	85	192	2
NMTAP	85	192	6
EXTAP	85	288	0
NMSTR	85	336	1
NMSLR	85	336	1	96	96	7
NMTAP	85	336	7
NMTAP	86	48	5
NMSTR	86	96	4
BRSI_	86	96	4	96	48	0
BRSI_	86	96	4	96	48	6
NMTAP	86	192	4
EXTAP	86	288	7
BRTAP	87	0	3
BRTAP	87	0	5
NMTAP	87	48	2
BRTAP	87	48	4
NMTAP	87	96	3
BRTAP	87	96	6
NMTAP	87	144	1
BRTAP	87	144	4
NMTAP	87	192	3
BRTAP	87	192	6
NMTAP	87	240	0
BRTAP	87	240	4
NMTAP	87	288	2
BRSTR	87	288	7
BRSI_	87	288	7	96	48	3
NMTAP	87	336	1
BRTAP	87	336	5
NMTAP	88	0	3
BRTAP	88	0	7
NMSTR	88	96	1
NMSCR	88	96	1	96	144	7
BRSTR	88	192	5
BRSCR	88	192	5	96	96	1
NMSTR	88	288	1
NMSCR	88	288	1	96	96	5
BRSTR	89	0	5
BRSCR	89	0	5	96	96	1
NMSTR	89	96	1
NMSXR	89	96	1	96	156	4
NMTTP	89	192	0	C	1	M1
NMTAP	90	0	5
NMTAP	90	48	5
NMTAP	90	96	4
NMTAP	90	96	6
NMTAP	90	144	3
NMTAP	90	192	2
NMTAP	90	192	4
NMTAP	90	240	5
NMTAP	90	288	3
NMTAP	90	288	6
NMTAP	90	336	2
NMHLD	91	0	1	48
NMTAP	91	0	4
NMTAP	91	48	5
NMTAP	91	96	3
NMHLD	91	96	6	48
NMTAP	91	144	2
NMSTR	91	192	1
NMSI_	91	192	1	96	48	5
NMTAP	91	192	4
NMTAP	91	240	5
BRTAP	91	288	7
NMTAP	92	0	3
NMTAP	92	0	6
NMTAP	92	48	5
NMTAP	92	72	4
NMTAP	92	96	5
NMTAP	92	144	2
NMTAP	92	168	3
NMTAP	92	192	2
NMTAP	92	240	5
NMTAP	92	264	4
NMTAP	92	288	6
NMTAP	92	336	2
NMTAP	92	360	3
NMTAP	93	0	1
NMTAP	93	48	6
NMTAP	93	72	4
NMTAP	93	96	5
NMTAP	93	144	1
NMTAP	93	168	3
NMTAP	93	192	2
NMTAP	93	240	4
NMTAP	93	288	3
NMTAP	93	288	5
NMTAP	93	336	2
NMTAP	93	336	6
NMTAP	94	0	1
NMTAP	94	24	0
NMTAP	94	48	2
NMTAP	94	72	7
NMTAP	94	96	3
NMTAP	94	120	6
NMTAP	94	144	4
NMTAP	94	168	5
NMTAP	94	192	2
NMTAP	94	216	3
NMTAP	94	240	1
NMTAP	94	264	4
NMTAP	94	288	0
NMTAP	94	312	5
NMTAP	94	336	7
NMTAP	94	360	6
NMTAP	95	0	4
NMTAP	95	24	5
NMTAP	95	48	3
NMTAP	95	72	4
NMTAP	95	96	2
NMTAP	95	120	3
NMTAP	95	144	2
NMSTR	95	192	1
NMSI_	95	192	1	96	48	4
NMSTR	95	192	5
BRSI_	95	192	5	96	48	0
NMTAP	95	240	0
NMTAP	95	240	4
BRSTR	95	288	1
NMSLL	95	288	1	96	192	4
BRTAP	95	288	5

T_REC_TAP	363
T_REC_BRK	30
T_REC_XTP	43
T_REC_BXX	0
T_REC_HLD	92
T_REC_XHO	1
T_REC_BHO	0
T_REC_BXH	0
T_REC_STR	108
T_REC_BST	9
T_REC_XST	5
T_REC_XBS	0
T_REC_TTP	22
T_REC_THO	1
T_REC_SLD	111
T_REC_BSL	21
T_REC_ALL	806
T_NUM_TAP	541
T_NUM_BRK	60
T_NUM_HLD	94
T_NUM_SLD	111
T_NUM_ALL	806
T_JUDGE_TAP	580
T_JUDGE_HLD	200
T_JUDGE_SLD	132
T_JUDGE_ALL	912
TTM_EACHPAIRS	173
TTM_SCR_TAP	270500
TTM_SCR_BRK	156000
TTM_SCR_HLD	94000
TTM_SCR_SLD	166500
TTM_SCR_ALL	687000
TTM_SCR_S	660600
TTM_SCR_SS	681000
TTM_RAT_ACV	10088

