VERSION	0.00.00	1.04.00
FES_MODE	1
BPM_DEF	150.000	150.000	150.000	150.000
MET_DEF	4	4
RESOLUTION	384
CLK_DEF	384
COMPATIBLE_CODE	MA2

BPM	0	0	150.000
MET	0	0	4	4

NMTHO	1	0	0	2112	C	0	M1
NMTAP	3	0	7
NMTAP	3	192	6
NMTAP	4	0	5
NMTAP	4	192	4
NMTAP	5	0	3
NMTAP	5	192	2
NMTAP	6	0	1
NMTAP	6	192	0
NMTAP	7	0	1
NMTAP	7	0	6
NMTAP	7	48	2
NMTAP	7	72	3
NMTAP	7	96	2
NMTAP	7	144	5
NMTAP	7	168	4
NMTAP	7	192	5
NMTAP	7	240	2
NMTAP	7	264	3
NMTAP	7	288	1
NMTAP	7	336	5
NMTAP	7	360	4
NMTAP	8	0	6
NMTAP	8	48	1
NMTAP	8	72	3
NMTAP	8	96	2
NMTAP	8	144	6
NMTAP	8	168	4
NMTAP	8	192	5
NMTAP	8	240	3
NMTAP	8	288	2
NMTAP	8	288	4
NMTAP	8	336	1
NMTAP	8	336	5
NMTAP	9	0	0
NMTAP	9	0	6
NMTAP	9	48	5
NMTAP	9	72	4
NMTAP	9	96	6
NMTAP	9	144	2
NMTAP	9	168	3
NMTAP	9	192	1
NMTAP	9	240	5
NMTAP	9	264	4
NMSTR	9	288	6
NMSSL	9	288	6	96	120	2
NMSTR	10	192	0
NMSI_	10	192	0	96	48	4
NMHLD	10	192	4	96
EXTAP	10	288	0
NMTAP	11	0	5
NMTAP	11	48	5
NMSTR	11	96	4
NMSI_	11	96	4	96	48	2
NMTAP	11	96	6
NMTAP	11	144	5
NMTAP	11	192	7
NMTAP	11	240	6
NMHLD	11	288	0	96
NMTAP	11	288	5
NMSTR	12	0	2
NMSI_	12	0	2	96	48	4
NMTAP	12	96	1
NMHLD	12	144	1	96
NMTAP	12	240	5
NMTAP	12	288	3
NMTAP	12	288	6
NMTAP	12	336	7
NMTAP	13	0	2
NMTAP	13	48	2
NMTAP	13	96	1
NMSTR	13	96	3
NMSI_	13	96	3	96	48	5
NMTAP	13	144	2
NMTAP	13	192	0
NMTAP	13	240	0
NMSTR	13	288	7
NMSLL	13	288	7	96	96	3
NMTAP	13	336	2
EXSTR	14	0	3
NMSV_	14	0	3	96	96	5
NMTAP	14	48	2
NMTAP	14	96	1
NMTAP	14	144	1
NMTAP	14	240	2
NMTAP	14	288	3
NMTAP	14	288	4
NMTAP	14	336	5
NMSTR	15	0	6
NMSI_	15	0	6	96	48	4
NMTAP	15	48	3
NMTAP	15	96	2
NMTAP	15	144	1
NMSTR	15	192	0
NMSI_	15	192	0	96	48	2
NMTAP	15	192	3
NMTAP	15	240	4
NMTAP	15	288	5
NMTAP	15	336	6
NMHLD	16	0	3	96
NMSTR	16	0	7
NMSI_	16	0	7	96	48	3
NMTAP	16	144	2
NMTAP	16	192	1
NMTAP	16	240	0
NMTAP	16	288	7
NMTAP	16	336	6
BRTAP	17	0	2
NMTAP	17	48	1
NMTAP	17	48	3
EXTAP	17	96	5
NMTAP	17	144	4
NMTAP	17	144	6
NMTAP	17	192	2
NMTAP	17	240	1
NMTAP	17	240	3
NMTAP	17	288	0
NMTAP	17	336	7
NMTTP	18	0	0	C	1	M1
EXTAP	18	0	6
EXTAP	18	96	0
EXSTR	18	96	5
NMSUL	18	96	5	96	120	3
NMHLD	18	144	0	144
NMTAP	18	144	5
NMHLD	19	0	1	48
NMTAP	19	48	3
NMTAP	19	72	2
NMHLD	19	96	4	48
NMTAP	19	144	3
NMTAP	19	168	4
NMHLD	19	192	2	48
NMTAP	19	240	4
NMTAP	19	264	3
NMHLD	19	288	5	48
NMTAP	19	336	4
NMTAP	19	360	5
NMHLD	20	0	3	48
NMTAP	20	48	5
NMTAP	20	72	4
NMHLD	20	96	6	48
NMTAP	20	144	4
NMTAP	20	168	5
NMTAP	20	192	3
NMTAP	20	240	3
NMTAP	20	288	7
NMTAP	20	336	7
NMHLD	21	0	6	48
NMTAP	21	48	4
NMTAP	21	72	5
NMHLD	21	96	3	48
NMTAP	21	144	4
NMTAP	21	168	3
NMHLD	21	192	5	48
NMTAP	21	240	3
NMTAP	21	264	4
NMHLD	21	288	2	48
NMTAP	21	336	3
NMTAP	21	360	2
NMHLD	22	0	4	48
NMTAP	22	48	2
NMTAP	22	72	3
NMHLD	22	96	1	48
NMTAP	22	144	3
NMTAP	22	168	2
NMTAP	22	192	4
NMTAP	22	240	4
NMTAP	22	288	0
NMTAP	22	336	0
NMHLD	23	0	1	48
NMTAP	23	48	3
NMTAP	23	72	2
NMHLD	23	96	4	48
NMTAP	23	144	3
NMTAP	23	168	4
NMHLD	23	192	2	48
NMTAP	23	240	5
NMTAP	23	264	4
NMTAP	23	288	6
NMTAP	23	336	6
NMHLD	24	0	6	48
NMTAP	24	48	4
NMTAP	24	72	5
NMHLD	24	96	3	48
NMTAP	24	144	4
NMTAP	24	168	3
NMHLD	24	192	5	48
NMTAP	24	240	2
NMTAP	24	264	3
NMTAP	24	288	1
NMTAP	24	336	1
NMHLD	25	0	1	48
NMTAP	25	48	0
NMTAP	25	72	1
NMHLD	25	96	7	48
NMTAP	25	144	0
NMTAP	25	168	7
NMHLD	25	192	1	48
NMTAP	25	240	6
NMTAP	25	264	7
NMTAP	25	288	5
NMTAP	25	336	5
NMTAP	26	0	4
NMTAP	26	48	4
NMTAP	26	96	3
NMTAP	26	144	5
NMTAP	26	192	0
NMTAP	26	240	6
NMTAP	26	288	1
BRTAP	26	288	7
NMHLD	27	0	5	96
NMHLD	27	96	4	96
NMHLD	27	192	6	96
NMHLD	27	288	4	96
NMHLD	28	0	6	96
NMHLD	28	96	5	96
NMHLD	28	192	4	96
NMHLD	28	288	5	96
NMHLD	29	0	7	96
NMHLD	29	96	6	96
NMHLD	29	192	5	96
NMHLD	29	288	4	96
NMHLD	30	0	6	96
NMHLD	30	96	5	96
NMTAP	30	192	4
NMTAP	30	288	4
NMTAP	31	0	4
NMHLD	31	48	4	48
NMTAP	31	96	5
NMHLD	31	144	5	48
NMTAP	31	192	6
NMHLD	31	240	6	48
NMTAP	31	288	7
NMHLD	31	336	7	48
NMTAP	32	0	6
NMHLD	32	48	6	48
NMTAP	32	96	5
NMHLD	32	144	5	48
NMTAP	32	192	4
NMHLD	32	240	4	48
NMTAP	32	288	5
NMTAP	32	336	5
NMTAP	33	0	6
NMTAP	33	48	7
NMTAP	33	96	0
NMTAP	33	144	1
NMTAP	33	192	2
NMTAP	33	240	3
NMTAP	33	288	2
NMSTR	33	288	3
NMSCL	33	288	3	96	288	4
NMSUR	33	288	3	96	288	4
EXTAP	34	0	3
NMTAP	35	0	2
NMTAP	35	0	4
NMTAP	35	48	3
NMTAP	35	48	5
NMTAP	35	96	2
NMTAP	35	96	4
NMTAP	35	144	3
NMTAP	35	144	5
NMTAP	35	192	2
NMSTR	35	192	6
NMSI_	35	192	6	96	48	2
NMTAP	35	240	1
NMTAP	35	240	5
NMTAP	35	288	2
BRTAP	35	288	6
NMSTR	36	0	0
NMSI_	36	0	0	96	48	4
NMTAP	36	48	1
NMTAP	36	48	7
NMTAP	36	96	0
NMSTR	36	192	5
NMSI_	36	192	5	96	48	3
NMTAP	36	240	5
NMSTR	36	288	0
NMSI_	36	288	0	96	48	5
NMTAP	36	336	0
NMTAP	37	0	2
NMTAP	37	48	3
NMSTR	37	96	4
NMSCL	37	96	4	96	48	1
NMSCR	37	96	4	96	48	7
NMTAP	37	192	4
EXTAP	37	288	2
EXTAP	37	288	6
NMTAP	37	336	5
NMSTR	38	0	1
NMSI_	38	0	1	96	48	5
NMTAP	38	48	4
NMTAP	38	96	5
NMTAP	38	144	6
NMSTR	38	192	7
NMSI_	38	192	7	96	48	3
NMTAP	38	240	3
NMTAP	38	288	2
NMTAP	38	336	1
NMSTR	39	0	0
NMSCR	39	0	0	96	48	3
NMSTR	39	0	6
NMSCL	39	0	6	96	48	3
NMSTR	39	96	0
NMSSL	39	96	0	96	96	4
NMTAP	39	96	6
EXTAP	39	192	3
EXTAP	39	288	5
NMTAP	39	336	6
NMSTR	40	0	7
NMSI_	40	0	7	96	48	3
NMTAP	40	48	7
NMSTR	40	96	1
NMSCL	40	96	1	96	48	6
NMSTR	40	192	5
NMSI_	40	192	5	96	48	1
NMTAP	40	240	5
NMSTR	40	288	3
NMSI_	40	288	3	96	48	7
NMTAP	40	336	3
NMTAP	41	0	6
NMTAP	41	48	5
NMSTR	41	96	4
NMSCL	41	96	4	96	48	1
NMSCR	41	96	4	96	48	7
NMTAP	41	192	4
EXTAP	41	288	2
EXTAP	41	288	6
NMTAP	41	336	3
NMSTR	42	0	4
NMSI_	42	0	4	96	48	6
NMTAP	42	48	5
NMSTR	42	96	3
NMSI_	42	96	3	96	48	0
NMTAP	42	144	2
NMSTR	42	192	4
NMSI_	42	192	4	96	48	7
NMTAP	42	240	5
NMSTR	42	288	3
NMSI_	42	288	3	96	48	1
NMTAP	42	336	2
EXSTR	43	0	7
NMSI_	43	0	7	96	48	3
NMSTR	43	96	7
NMSV_	43	96	7	96	48	2
NMSV_	43	96	7	96	48	4
NMTAP	43	192	7
BRTAP	43	288	0
BRTAP	43	288	6
NMTAP	44	0	3
NMSTR	44	0	7
NMSCL	44	0	7	96	96	3
NMTAP	44	96	2
NMTAP	44	144	1
NMSTR	44	192	0
NMSCR	44	192	0	96	96	4
NMTAP	44	288	6
NMTAP	44	336	7
NMSTR	45	0	0
NMSLL	45	0	0	96	96	4
NMTAP	45	96	2
NMTAP	45	144	1
NMSTR	45	192	0
NMSI_	45	192	0	96	48	4
NMTAP	45	288	6
NMHLD	45	336	7	96
NMTAP	46	48	3
NMSTR	46	96	2
NMSV_	46	96	2	96	48	7
NMSTR	46	96	6
NMSV_	46	96	6	96	48	3
EXTAP	46	192	2
EXTAP	46	192	6
EXTAP	46	288	0
EXTAP	46	288	4
NMTAP	46	336	5
NMSTR	47	0	2
NMSI_	47	0	2	96	48	7
NMTAP	47	0	6
NMTAP	47	48	7
NMTAP	47	96	2
NMSTR	47	96	6
NMSCL	47	96	6	96	96	1
NMTAP	47	192	0
NMTTP	47	288	0	C	1	M1
NMSTR	48	0	0
NMSXL	48	0	0	96	144	7
NMTAP	48	96	7
NMTAP	48	144	6
NMSTR	48	192	5
NMSXL	48	192	5	96	144	4
NMTAP	48	288	0
NMTAP	48	336	1
NMSTR	49	0	2
NMSXR	49	0	2	96	144	3
NMTAP	49	96	3
NMTAP	49	144	4
NMSTR	49	192	5
NMSCR	49	192	5	96	48	0
NMTAP	49	288	4
NMHLD	49	336	3	96
NMTAP	50	48	7
NMSTR	50	96	1
NMSI_	50	96	1	96	48	5
NMSTR	50	96	5
NMSI_	50	96	5	96	48	1
NMTAP	50	192	1
NMTAP	50	192	5
EXTAP	50	288	7
NMTAP	50	336	0
NMSTR	50	336	6
NMSLL	50	336	6	96	96	0
NMTAP	51	48	4
NMSTR	51	96	3
NMSI_	51	96	3	96	48	1
NMSI_	51	96	3	96	48	7
NMTAP	51	192	3
EXHLD	51	288	2	240
EXTAP	51	288	7
NMTAP	51	336	6
NMHLD	52	0	5	144
NMTAP	52	192	2
NMTAP	52	192	5
NMSTR	52	288	3
NMSI_	52	288	3	96	48	7
NMSTR	52	288	4
NMSCR	52	288	4	96	48	6
EXTAP	53	0	3
EXTAP	53	0	4
NMSTR	53	96	3
NMSI_	53	96	3	96	48	7
NMSTR	53	96	4
NMSCR	53	96	4	96	48	6
EXTAP	53	192	3
EXTAP	53	192	4
NMTAP	53	288	3
NMTAP	53	288	4
NMHLD	54	0	6	48
NMHLD	54	0	7	48
NMHLD	54	96	5	48
NMHLD	54	96	6	48
NMTAP	54	192	3
NMTAP	54	192	4
NMTAP	54	240	1
NMTAP	54	240	6
NMSTR	54	288	3
NMSCL	54	288	3	96	48	1
NMSTR	54	288	4
NMSI_	54	288	4	96	48	0
EXTAP	55	0	3
EXTAP	55	0	4
NMSTR	55	96	3
NMSCL	55	96	3	96	48	1
NMSTR	55	96	4
NMSI_	55	96	4	96	48	0
EXTAP	55	192	3
EXTAP	55	192	4
NMTAP	55	288	3
NMTAP	55	288	4
NMHLD	56	0	0	48
NMHLD	56	0	1	48
NMHLD	56	96	1	48
NMHLD	56	96	2	48
NMSTR	56	192	3
NMSI_	56	192	3	96	48	6
NMSTR	56	192	4
NMSI_	56	192	4	96	48	1
NMTAP	56	240	2
NMTAP	56	240	5
EXTAP	57	0	2
EXTAP	57	0	5
NMHLD	59	0	2	384
NMTAP	59	0	5
NMTTP	59	288	3	B	0	M1
NMHLD	60	0	5	480
NMTTP	60	288	4	B	0	M1
NMHLD	61	0	3	96
NMHLD	61	192	2	96
NMHLD	61	192	4	96
NMHLD	62	0	1	96
NMHLD	62	0	5	96
NMHLD	62	192	2	96
NMHLD	62	192	6	96
NMTAP	63	0	3
NMHLD	63	0	5	96
NMHLD	63	192	2	96
NMTAP	63	192	4
NMTTP	64	0	0	C	0	M1
NMHLD	64	0	6	96
NMTTP	64	192	0	C	0	M1
NMHLD	64	192	1	96
EXSTR	65	0	7
NMSI_	65	0	7	96	48	3
NMTAP	65	96	3
NMHLD	65	192	2	72
NMHLD	65	264	1	72
NMTAP	65	336	0
NMSTR	66	0	0
NMSI_	66	0	0	96	48	4
NMTAP	66	96	4
NMHLD	66	192	5	72
NMHLD	66	264	6	72
NMTAP	66	336	7
NMSTR	67	0	7
NMSI_	67	0	7	96	48	3
NMTAP	67	96	3
NMHLD	67	192	1	72
NMHLD	67	264	2	72
NMTAP	67	336	3
NMSTR	68	0	3
NMSI_	68	0	3	96	48	0
NMSTR	68	96	6
NMSI_	68	96	6	96	48	3
NMTAP	68	192	7
NMTAP	68	264	1
NMHLD	68	336	3	192
NMTAP	68	336	4
NMHLD	69	0	4	144
NMTAP	70	0	2
BRTAP	70	0	5
NMTAP	70	48	3
BRTAP	70	48	4
NMTAP	70	96	1
BRTAP	70	96	6
NMTAP	70	144	3
BRTAP	70	144	4
NMTAP	70	192	0
BRTAP	70	192	7
NMTAP	70	240	2
BRTAP	70	240	5
NMTTP	70	288	0	C	1	M1
NMTTP	70	288	1	B	0	M1
NMTTP	70	288	2	B	0	M1
NMTTP	70	288	2	E	0	M1
NMTTP	70	288	3	B	0	M1
NMTTP	70	288	4	B	0	M1
NMTTP	70	288	4	E	0	M1
NMTTP	70	288	5	B	0	M1
NMTTP	70	288	6	B	0	M1
NMTTP	70	288	6	E	0	M1
NMSTR	71	0	0
NMSI_	71	0	0	96	48	4
BRSTR	71	0	7
BRSI_	71	0	7	96	48	3
NMTAP	71	48	0
BRTAP	71	48	7
NMTAP	71	96	0
BRTAP	71	96	7
NMSTR	71	192	0
NMSI_	71	192	0	96	48	4
NMTAP	71	240	7
NMSTR	71	288	6
BRSCR	71	288	6	96	48	1
NMTAP	71	336	5
NMSTR	72	0	3
NMSI_	72	0	3	96	48	7
NMTAP	72	48	2
BRSTR	72	96	4
NMSF_	72	96	4	96	48	0
BRTAP	72	192	4
EXTAP	72	288	2
EXTAP	72	288	6
NMTAP	72	336	3
NMSTR	73	0	7
BRSCL	73	0	7	96	48	4
NMTAP	73	48	4
NMTAP	73	96	3
NMTAP	73	144	2
NMSTR	73	192	1
NMSCR	73	192	1	96	48	4
NMTAP	73	240	4
NMTAP	73	288	5
NMTAP	73	336	6
EXSTR	74	0	7
BRSCL	74	0	7	96	48	4
NMSCR	74	0	7	96	48	2
BRSTR	74	96	7
NMSF_	74	96	7	96	48	3
BRTAP	74	192	7
EXTAP	74	288	0
EXTAP	74	288	6
NMTAP	74	336	1
NMSTR	75	0	2
NMSI_	75	0	2	96	48	6
NMTAP	75	48	4
NMSTR	75	96	5
BRSCR	75	96	5	96	48	0
NMSTR	75	192	3
NMSI_	75	192	3	96	48	7
NMTAP	75	240	2
NMSTR	75	288	4
BRSI_	75	288	4	96	48	0
NMTAP	75	336	5
NMTAP	76	0	1
NMTAP	76	48	2
BRSTR	76	96	3
NMSF_	76	96	3	96	48	7
BRTAP	76	192	3
EXTAP	76	288	1
EXTAP	76	288	5
NMTAP	76	336	4
NMSTR	77	0	2
NMSI_	77	0	2	96	48	0
NMTAP	77	0	3
NMTAP	77	48	4
NMTAP	77	96	2
NMSTR	77	96	5
BRSI_	77	96	5	96	48	3
NMTAP	77	144	6
NMSTR	77	192	2
NMSI_	77	192	2	96	48	7
NMTAP	77	192	5
NMTAP	77	240	1
NMTAP	77	288	2
NMSTR	77	288	5
BRSI_	77	288	5	96	48	1
NMTAP	77	336	6
EXSTR	78	0	0
NMSCL	78	0	0	96	48	5
NMSCR	78	0	0	96	48	3
NMTAP	78	0	5
BRSTR	78	96	0
NMSF_	78	96	0	96	48	4
BRTAP	78	192	0
BRTAP	78	288	1
BRTAP	78	288	7
NMTAP	78	336	2
NMSTR	79	0	3
NMSCL	79	0	3	96	96	7
NMTAP	79	0	4
NMTAP	79	96	6
NMTAP	79	144	5
NMSTR	79	192	4
BRSCR	79	192	4	96	96	0
NMTAP	79	288	2
NMTAP	79	336	3
NMSTR	80	0	4
NMSLL	80	0	4	96	96	0
NMTAP	80	96	6
NMTAP	80	144	5
NMSTR	80	192	4
BRSI_	80	192	4	96	48	0
NMTAP	80	288	2
NMHLD	80	336	3	96
NMTAP	81	48	7
NMSTR	81	96	2
NMSCL	81	96	2	96	48	7
NMSTR	81	96	6
BRSCL	81	96	6	96	48	3
EXTAP	81	192	2
EXTAP	81	192	6
EXTAP	81	288	0
EXTAP	81	288	4
NMTAP	81	336	1
NMSTR	82	0	2
NMSI_	82	0	2	96	48	7
NMTAP	82	0	6
NMTAP	82	48	7
NMTAP	82	96	2
NMSTR	82	96	6
BRSCL	82	96	6	96	96	1
NMTAP	82	192	0
NMTTP	82	288	0	C	1	M1
NMSTR	83	0	0
NMSXL	83	0	0	96	144	7
NMTAP	83	96	7
NMTAP	83	144	6
NMSTR	83	192	5
BRSXL	83	192	5	96	144	4
NMTAP	83	288	0
NMTAP	83	336	1
NMSTR	84	0	2
NMSXR	84	0	2	96	144	3
NMTAP	84	96	3
NMTAP	84	144	4
NMSTR	84	192	5
BRSCR	84	192	5	96	48	0
NMTAP	84	288	4
NMHLD	84	336	3	96
NMTAP	85	48	7
NMSTR	85	96	2
NMSCL	85	96	2	96	48	7
NMSTR	85	96	6
BRSCL	85	96	6	96	48	3
NMTAP	85	192	2
NMTAP	85	192	6
EXTAP	85	288	0
NMSTR	85	336	1
NMSLR	85	336	1	96	96	7
NMTAP	85	336	7
NMTAP	86	48	5
NMSTR	86	96	4
BRSI_	86	96	4	96	48	0
BRSI_	86	96	4	96	48	6
NMTAP	86	192	4
EXTAP	86	288	7
BRTAP	87	0	3
BRTAP	87	0	5
NMTAP	87	48	2
BRTAP	87	48	4
NMTAP	87	96	3
BRTAP	87	96	6
NMTAP	87	144	1
BRTAP	87	144	4
NMTAP	87	192	3
BRTAP	87	192	6
NMTAP	87	240	0
BRTAP	87	240	4
NMTAP	87	288	2
BRSTR	87	288	7
BRSI_	87	288	7	96	48	3
NMTAP	87	336	1
BRTAP	87	336	5
NMTAP	88	0	3
BRTAP	88	0	7
NMSTR	88	96	1
NMSCR	88	96	1	96	144	7
BRSTR	88	192	5
BRSCR	88	192	5	96	96	1
NMSTR	88	288	1
NMSCR	88	288	1	96	96	5
BRSTR	89	0	5
BRSCR	89	0	5	96	96	1
NMSTR	89	96	1
NMSXR	89	96	1	96	156	4
NMTTP	89	192	0	C	1	M1
NMTAP	90	0	5
NMTAP	90	48	5
NMTAP	90	96	4
NMTAP	90	96	6
NMTAP	90	144	3
NMTAP	90	192	2
NMTAP	90	192	4
NMTAP	90	240	5
NMTAP	90	288	3
NMTAP	90	288	6
NMTAP	90	336	2
NMHLD	91	0	1	48
NMTAP	91	0	4
NMTAP	91	48	5
NMTAP	91	96	3
NMHLD	91	96	6	48
NMTAP	91	144	2
NMSTR	91	192	1
NMSI_	91	192	1	96	48	5
NMTAP	91	192	4
NMTAP	91	240	5
BRTAP	91	288	7
NMTAP	92	0	3
NMTAP	92	0	6
NMTAP	92	48	5
NMTAP	92	72	4
NMTAP	92	96	5
NMTAP	92	144	2
NMTAP	92	168	3
NMTAP	92	192	2
NMTAP	92	240	5
NMTAP	92	264	4
NMTAP	92	288	6
NMTAP	92	336	2
NMTAP	92	360	3
NMTAP	93	0	1
NMTAP	93	48	6
NMTAP	93	72	4
NMTAP	93	96	5
NMTAP	93	144	1
NMTAP	93	168	3
NMTAP	93	192	2
NMTAP	93	240	4
NMTAP	93	288	3
NMTAP	93	288	5
NMTAP	93	336	2
NMTAP	93	336	6
NMTAP	94	0	1
NMTAP	94	24	0
NMTAP	94	48	2
NMTAP	94	72	7
NMTAP	94	96	3
NMTAP	94	120	6
NMTAP	94	144	4
NMTAP	94	168	5
NMTAP	94	192	2
NMTAP	94	216	3
NMTAP	94	240	1
NMTAP	94	264	4
NMTAP	94	288	0
NMTAP	94	312	5
NMTAP	94	336	7
NMTAP	94	360	6
NMTAP	95	0	4
NMTAP	95	24	5
NMTAP	95	48	3
NMTAP	95	72	4
NMTAP	95	96	2
NMTAP	95	120	3
NMTAP	95	144	2
NMSTR	95	192	1
NMSI_	95	192	1	96	48	4
NMSTR	95	192	5
BRSI_	95	192	5	96	48	0
NMTAP	95	240	0
NMTAP	95	240	4
BRTAP	95	288	1
BRSTR	95	288	5
BRSLL	95	288	5	96	192	0

T_REC_TAP	402
T_REC_BRK	30
T_REC_XTP	39
T_REC_BXX	0
T_REC_HLD	83
T_REC_XHO	1
T_REC_BHO	0
T_REC_BXH	0
T_REC_STR	96
T_REC_BST	9
T_REC_XST	6
T_REC_XBS	0
T_REC_TTP	18
T_REC_THO	1
T_REC_SLD	97
T_REC_BSL	22
T_REC_ALL	804
T_NUM_TAP	561
T_NUM_BRK	61
T_NUM_HLD	85
T_NUM_SLD	97
T_NUM_ALL	804
T_JUDGE_TAP	600
T_JUDGE_HLD	196
T_JUDGE_SLD	119
T_JUDGE_ALL	915
TTM_EACHPAIRS	117
TTM_SCR_TAP	280500
TTM_SCR_BRK	158600
TTM_SCR_HLD	85000
TTM_SCR_SLD	145500
TTM_SCR_ALL	669600
TTM_SCR_S	643600
TTM_SCR_SS	663500
TTM_RAT_ACV	10091

