VERSION	0.00.00	1.04.00
FES_MODE	1
BPM_DEF	202.000	202.000	202.000	202.000
MET_DEF	4	4
RESOLUTION	384
CLK_DEF	384
COMPATIBLE_CODE	MA2

BPM	0	0	202.000
MET	0	0	4	4

BRTAP	1	300	1
NMTTP	1	306	1	B	0	M1
NMTTP	1	312	0	C	1	M1
NMTTP	1	318	5	B	0	M1
BRTAP	1	348	6
NMTTP	1	354	6	B	0	M1
NMTTP	1	360	0	C	1	M1
NMTTP	1	366	2	B	0	M1
BRTAP	2	12	0
NMTTP	2	18	0	B	0	M1
NMTTP	2	24	0	C	1	M1
NMTTP	2	30	4	B	0	M1
BRTAP	2	60	7
NMTTP	2	66	7	B	0	M1
NMTTP	2	72	0	C	1	M1
NMTTP	2	78	3	B	0	M1
BRTAP	2	108	1
NMTTP	2	114	1	B	0	M1
NMTTP	2	120	0	C	1	M1
NMTTP	2	126	5	B	0	M1
BRTAP	2	156	6
NMTTP	2	162	6	B	0	M1
NMTTP	2	168	0	C	1	M1
NMTTP	2	174	2	B	0	M1
BRTAP	2	204	0
NMTTP	2	210	0	B	0	M1
NMTTP	2	216	0	C	1	M1
NMTTP	2	222	4	B	0	M1
NMTHO	4	0	0	624	C	1	M1
NMTTP	4	0	3	B	0	M1
NMTTP	4	0	4	B	0	M1
NMTTP	4	0	4	E	1	M1
BRTAP	4	0	7
NMTAP	4	96	7
NMTAP	4	192	7
NMTAP	4	288	7
NMTAP	5	0	7
NMTAP	5	96	7
NMTAP	5	192	7
NMTAP	5	288	7
NMTAP	6	0	7
NMTAP	6	96	7
NMTAP	6	192	7
NMTAP	6	288	7
NMTAP	7	0	7
NMTAP	7	96	7
BRTAP	7	192	2
BRSTR	7	192	7
BRSCL	7	192	7	96	48	4
BRTAP	7	288	1
NMTTP	7	288	7	A	1	M1
BRTAP	8	0	0
NMTHO	8	0	0	624	C	1	M1
NMTTP	8	0	3	B	0	M1
NMTTP	8	0	4	B	0	M1
NMTTP	8	0	4	E	1	M1
NMTAP	8	96	0
NMTAP	8	192	0
NMTAP	8	288	0
NMTAP	9	0	0
NMTAP	9	96	0
NMTAP	9	192	0
NMTAP	9	288	0
NMTAP	10	0	0
NMTAP	10	96	0
NMTAP	10	192	0
NMTAP	10	288	0
NMTAP	11	0	0
NMTAP	11	96	0
BRSTR	11	192	0
BRSCR	11	192	0	96	48	3
BRTAP	11	192	4
NMTTP	11	288	0	A	1	M1
BRTAP	11	288	5
NMTHO	12	0	0	624	C	1	M1
NMTTP	12	0	3	B	0	M1
NMTTP	12	0	4	B	0	M1
NMTTP	12	0	4	E	1	M1
BRTAP	12	0	6
EXTAP	12	48	6
EXTAP	12	96	6
EXTAP	12	144	6
EXTAP	12	192	6
EXTAP	12	240	6
EXTAP	12	288	6
EXTAP	12	336	6
EXTAP	13	0	6
EXTAP	13	48	6
EXTAP	13	96	6
EXTAP	13	144	6
EXTAP	13	192	6
EXTAP	13	240	6
EXTAP	13	288	6
EXTAP	13	336	6
EXTAP	14	0	6
EXTAP	14	48	6
EXTAP	14	96	6
EXTAP	14	144	6
EXTAP	14	192	6
EXTAP	14	240	6
EXTAP	14	288	6
EXTAP	14	336	6
EXTAP	15	0	6
EXTAP	15	48	6
EXTAP	15	96	6
EXTAP	15	144	6
NMTAP	15	192	4
EXTAP	15	192	6
EXTAP	15	240	6
NMTAP	15	288	3
EXTAP	15	288	6
EXTAP	15	336	6
NMTHO	16	0	0	624	C	1	M1
BRTAP	16	0	1
NMTTP	16	0	3	B	0	M1
NMTTP	16	0	4	B	0	M1
NMTTP	16	0	4	E	1	M1
EXTAP	16	48	1
EXTAP	16	96	1
EXTAP	16	144	1
EXTAP	16	192	1
EXTAP	16	240	1
EXTAP	16	288	1
EXTAP	16	336	1
EXTAP	17	0	1
EXTAP	17	48	1
EXTAP	17	96	1
EXTAP	17	144	1
EXTAP	17	192	1
EXTAP	17	240	1
EXTAP	17	288	1
EXTAP	17	336	1
EXTAP	18	0	0
EXTAP	18	48	0
EXTAP	18	96	0
EXTAP	18	144	0
EXTAP	18	192	7
EXTAP	18	240	7
EXTAP	18	288	7
EXTAP	18	336	7
EXTAP	19	0	1
EXTAP	19	24	2
EXTAP	19	48	3
EXTAP	19	72	4
EXTAP	19	96	7
EXTAP	19	120	6
EXTAP	19	144	5
EXTAP	19	168	4
EXTAP	19	192	0
EXTAP	19	216	1
EXTAP	19	240	2
EXTAP	19	264	3
EXTAP	19	288	6
EXTAP	19	312	5
EXTAP	19	336	4
EXTAP	19	360	3
BRTAP	20	0	0
NMHLD	20	96	2	96
NMTAP	20	96	6
NMTAP	20	192	3
NMTAP	20	240	1
NMSTR	20	240	4
BRSI_	20	240	4	96	48	6
NMSTR	20	336	0
BRSI_	20	336	0	96	48	4
NMTTP	20	336	4	A	1	M1
NMTTP	21	48	0	A	1	M1
NMHLD	21	48	7	96
NMTAP	21	144	0
NMSTR	21	192	7
BRSI_	21	192	7	96	48	3
NMTAP	21	240	7
NMTTP	21	288	0	C	1	M1
NMTAP	22	0	1
NMHLD	22	0	5	96
NMHLD	22	96	4	96
NMTAP	22	192	5
NMSTR	22	240	3
BRSI_	22	240	3	96	48	1
NMTAP	22	240	6
NMTTP	22	336	3	A	1	M1
NMSTR	22	336	7
BRSI_	22	336	7	96	48	3
NMHLD	23	48	0	96
NMTTP	23	48	7	A	1	M1
NMTAP	23	144	7
NMTAP	23	192	0
NMTAP	23	240	0
NMTAP	23	288	1
NMTAP	23	288	7
NMTAP	23	336	1
NMTAP	23	336	7
NMTAP	24	0	2
NMHLD	24	0	6	96
NMHLD	24	96	5	96
NMTAP	24	192	4
NMTAP	24	240	3
NMSTR	24	240	5
BRSI_	24	240	5	96	48	3
NMSTR	24	336	1
BRSI_	24	336	1	96	48	5
NMTTP	24	336	5	A	1	M1
NMTTP	25	48	1	A	1	M1
NMHLD	25	48	7	96
NMTAP	25	144	0
NMTAP	25	192	7
NMTAP	25	240	7
NMTAP	25	288	0
NMTAP	25	288	6
NMTAP	25	336	0
NMTAP	25	336	6
NMHLD	26	0	1	96
NMTAP	26	0	5
NMHLD	26	96	2	96
NMTAP	26	192	3
NMSTR	26	240	2
BRSI_	26	240	2	96	48	4
NMTAP	26	240	4
NMTTP	26	336	2	A	1	M1
NMSTR	26	336	6
BRSI_	26	336	6	96	48	2
NMHLD	27	48	0	96
NMTTP	27	48	6	A	1	M1
NMTAP	27	144	7
NMTAP	27	192	1
NMTAP	27	192	6
NMTAP	27	240	2
NMTAP	27	240	5
EXTAP	27	288	3
EXTAP	27	288	4
NMSTR	28	0	0
BRSCR	28	0	0	96	48	3
NMSTR	28	0	7
BRSCL	28	0	7	96	48	4
BRTAP	28	96	0
NMTTP	28	96	0	D	1	M1
BRTAP	28	96	7
NMTAP	28	192	1
NMTAP	28	192	6
NMSTR	28	240	1
BRSI_	28	240	1	96	48	6
NMTAP	28	240	6
NMTTP	28	336	1	A	1	M1
NMSTR	28	336	5
BRSI_	28	336	5	96	48	2
NMHLD	29	48	0	96
NMTTP	29	48	5	A	1	M1
NMTAP	29	144	7
NMTAP	29	192	0
NMTAP	29	192	6
NMTAP	29	240	1
NMTAP	29	288	2
NMTAP	29	288	4
NMTAP	29	336	5
NMTAP	30	0	4
NMHLD	30	0	6	96
NMSTR	30	96	2
BRSLR	30	96	2	96	96	1
NMTTP	30	192	2	A	1	M1
NMTAP	30	192	4
NMSTR	30	240	6
BRSI_	30	240	6	96	48	2
NMSTR	30	336	0
BRSI_	30	336	0	96	48	4
NMTTP	30	336	6	A	1	M1
NMTTP	31	48	0	A	1	M1
NMHLD	31	48	7	96
NMTAP	31	144	0
NMTAP	31	192	1
NMTAP	31	192	7
NMTAP	31	240	6
NMTAP	31	288	3
NMTAP	31	288	5
NMTAP	31	336	2
NMHLD	32	0	1	96
NMTAP	32	0	3
NMSTR	32	96	5
BRSLL	32	96	5	96	96	6
BRTAP	32	192	3
NMTTP	32	192	5	A	1	M1
NMSTR	32	240	1
BRSI_	32	240	1	96	48	5
NMTTP	32	336	1	A	1	M1
NMSTR	32	336	7
BRSI_	32	336	7	96	48	3
NMHLD	33	48	0	96
NMTTP	33	48	7	A	1	M1
NMTAP	33	144	7
NMTAP	33	192	1
NMTAP	33	192	6
NMTAP	33	240	1
NMTAP	33	240	6
NMTAP	33	288	2
NMTAP	33	288	5
NMTAP	33	336	2
NMTAP	33	336	5
NMSTR	34	0	3
BRSCL	34	0	3	96	48	0
NMSTR	34	0	4
BRSCR	34	0	4	96	48	7
NMTAP	34	96	3
NMTAP	34	96	4
NMTTP	34	96	4	D	1	M1
NMTAP	34	192	1
NMTAP	34	192	6
NMTAP	34	240	1
NMTAP	34	240	6
NMTAP	34	336	3
NMTAP	34	336	4
EXTAP	35	0	0
EXTAP	35	16	1
EXTAP	35	32	2
EXTAP	35	48	3
EXTAP	35	64	4
EXTAP	35	80	5
EXTAP	35	96	6
EXTAP	35	112	7
EXTAP	35	128	0
EXTAP	35	144	1
EXTAP	35	160	2
EXTAP	35	176	3
EXTAP	35	192	4
EXTAP	35	208	5
EXTAP	35	224	6
EXTAP	35	240	7
EXTAP	35	256	0
EXTAP	35	272	1
EXTAP	35	288	2
EXTAP	35	304	3
EXTAP	35	320	4
EXTAP	35	336	5
EXTAP	35	352	6
EXTAP	35	368	7
EXTAP	36	0	0
EXTAP	36	0	4
NMSTR	36	48	0
BRSSL	36	48	0	96	72	4
EXTAP	36	48	4
BRTAP	36	144	0
NMTTP	36	144	0	D	1	M1
BRTAP	36	144	7
NMTTP	36	288	0	C	1	M1
NMTTP	36	288	2	B	0	M1
NMTTP	36	288	2	E	0	M1
NMTTP	36	288	6	B	0	M1
NMTTP	36	288	6	E	0	M1
NMHLD	37	0	0	48
NMHLD	37	0	1	48
NMHLD	37	96	6	48
NMHLD	37	96	7	48
NMHLD	37	192	1	48
NMHLD	37	192	2	48
NMHLD	37	288	6	48
NMHLD	37	288	7	48
NMTAP	38	0	2
NMSTR	38	0	3
BRSCR	38	0	3	96	48	6
NMTAP	38	96	0
NMTTP	38	96	3	A	1	M1
BRSTR	38	144	0
BRSI_	38	144	0	96	48	4
NMTTP	38	240	0	A	1	M1
NMTAP	38	240	7
NMTAP	38	288	7
NMTAP	38	336	7
NMHLD	39	0	4	48
NMHLD	39	0	6	48
NMHLD	39	96	2	48
NMHLD	39	96	3	48
NMHLD	39	192	4	48
NMHLD	39	192	6	48
NMHLD	39	288	0	48
NMHLD	39	288	1	48
NMTAP	40	0	4
NMTAP	40	0	6
NMTAP	40	48	7
NMTAP	40	96	0
BRSTR	40	144	1
BRSUR	40	144	1	96	96	6
NMTAP	40	144	3
NMTTP	40	240	1	A	1	M1
NMTAP	40	240	7
NMTAP	40	288	7
NMTAP	40	336	7
NMHLD	41	0	0	96
NMTAP	41	96	7
NMTAP	41	144	0
NMTAP	41	192	1
NMTAP	41	192	6
NMSTR	41	240	2
NMSCL	41	240	2	96	48	0
NMSTR	41	240	5
NMSCR	41	240	5	96	48	7
NMTAP	41	288	3
NMTAP	41	288	4
BRTAP	41	336	2
NMTTP	41	336	2	D	1	M1
BRTAP	41	336	5
NMTTP	41	336	6	D	0	M1
NMTTP	42	48	0	B	0	M1
NMTTP	42	48	0	C	1	M1
NMTTP	42	48	0	E	0	M1
NMTTP	42	48	7	B	0	M1
NMTAP	42	144	2
NMTAP	42	144	5
NMTAP	42	192	2
NMTAP	42	192	5
NMSTR	42	288	0
BRSI_	42	288	0	96	48	4
NMSTR	42	288	7
BRSI_	42	288	7	96	48	5
NMSTR	43	0	0
NMTTP	43	0	0	C	1	M1
BRSI_	43	0	0	96	48	2
NMSTR	43	0	7
BRSI_	43	0	7	96	48	3
NMSTR	43	96	0
NMTTP	43	96	0	C	1	M1
BRSI_	43	96	0	96	48	4
NMSTR	43	96	7
BRSI_	43	96	7	96	48	5
NMSTR	43	192	0
NMTTP	43	192	0	C	1	M1
BRSI_	43	192	0	96	48	2
NMSTR	43	192	7
BRSI_	43	192	7	96	48	3
BRTAP	43	288	0
NMTTP	43	288	0	C	1	M1
BRTAP	43	288	7
EXTAP	44	0	4
EXTAP	44	0	5
EXTAP	44	48	4
EXTAP	44	48	5
EXTAP	44	96	4
EXTAP	44	96	5
BRTAP	44	144	3
BRTAP	44	144	7
NMTAP	44	240	1
NMTAP	44	240	5
NMTAP	44	288	2
NMTAP	44	336	3
NMHLD	45	0	4	48
NMHLD	45	0	5	48
NMHLD	45	96	2	48
NMHLD	45	96	3	48
NMHLD	45	192	5	48
NMHLD	45	192	6	48
NMHLD	45	288	2	48
NMHLD	45	288	3	48
NMTAP	46	0	6
NMSTR	46	0	7
BRSCR	46	0	7	96	48	2
NMTAP	46	96	4
NMTTP	46	96	7	A	1	M1
BRSTR	46	144	4
BRSI_	46	144	4	96	48	0
NMTAP	46	240	2
NMTTP	46	240	4	A	1	M1
NMTAP	46	288	2
NMTAP	46	336	2
NMHLD	47	0	1	48
NMHLD	47	0	3	48
NMHLD	47	96	6	48
NMHLD	47	96	7	48
NMHLD	47	192	1	48
NMHLD	47	192	3	48
NMHLD	47	288	4	48
NMHLD	47	288	5	48
NMTAP	48	0	1
NMTAP	48	0	3
NMTAP	48	48	0
NMTAP	48	96	7
NMTAP	48	144	4
NMSTR	48	144	6
BRSI_	48	144	6	96	48	2
NMTAP	48	240	0
NMTTP	48	240	6	A	1	M1
NMTAP	48	288	0
NMTAP	48	336	0
NMSTR	49	0	1
BRSI_	49	0	1	96	48	3
NMSTR	49	48	6
BRSI_	49	48	6	96	48	4
NMTAP	49	96	1
NMTTP	49	96	2	A	1	M1
NMTTP	49	144	5	A	1	M1
EXTAP	49	144	6
NMSTR	49	192	0
BRSI_	49	192	0	96	48	4
NMSTR	49	240	7
BRSI_	49	240	7	96	48	3
NMTAP	49	288	0
NMTTP	49	288	0	C	1	M1
NMTTP	49	336	0	C	1	M1
NMTAP	49	336	7
BXTAP	50	48	2
BRTAP	50	96	1
BRTAP	50	144	0
BRTAP	50	192	7
BRTAP	50	240	6
BRTAP	50	288	5
BRTAP	50	336	4
NMTTP	51	0	0	C	1	M1
BRSTR	51	0	3
NMSI_	51	0	3	96	48	7
NMTTP	51	96	0	C	1	M1
BRSTR	51	96	3
NMSF_	51	96	3	96	48	7
NMTTP	51	192	3	B	0	M1
NMTTP	51	204	0	C	1	M1
NMTTP	51	216	7	B	0	M1
EXTAP	52	0	0
EXSTR	52	0	6
BRSCL	52	0	6	96	96	2
EXSTR	52	96	2
BRSCL	52	96	2	96	96	6
NMTTP	52	96	6	A	1	M1
NMTTP	52	192	0	C	0	M1
NMTTP	52	192	2	A	1	M1
EXSTR	53	0	1
BRSCR	53	0	1	96	96	5
EXTAP	53	0	7
NMTTP	53	96	1	A	1	M1
EXSTR	53	96	5
BRSCR	53	96	5	96	96	1
NMTTP	53	192	0	C	0	M1
NMTTP	53	192	5	A	1	M1
EXTAP	54	0	2
EXTAP	54	0	3
EXTAP	54	48	1
EXTAP	54	48	4
EXTAP	54	144	4
EXTAP	54	144	5
EXTAP	54	192	3
EXTAP	54	192	6
EXSTR	54	288	0
BRSI_	54	288	0	96	48	4
EXTAP	54	288	7
BRTAP	55	0	0
NMTTP	55	0	0	C	1	M1
NMSTR	55	0	6
BRSI_	55	0	6	96	48	2
NMSTR	55	96	0
NMTTP	55	96	0	C	1	M1
BRSF_	55	96	0	96	48	4
BRTAP	55	96	6
NMTTP	55	192	0	B	0	M1
NMTTP	55	204	0	C	1	M1
NMTTP	55	216	4	B	0	M1
NMTTP	56	0	3	B	0	M1
NMTTP	56	0	3	E	0	M1
NMTTP	56	0	4	B	0	M1
NMTTP	56	0	4	E	1	M1
NMTTP	56	0	5	E	0	M1
NMTHO	56	96	0	96	C	1	M1
NMTTP	56	192	0	B	0	M1
NMTTP	56	192	0	E	0	M1
NMTTP	56	192	1	B	0	M1
NMTTP	56	192	2	E	0	M1
NMTTP	56	192	6	B	0	M1
NMTTP	56	192	6	E	0	M1
NMTTP	56	192	7	B	0	M1
NMTTP	57	0	3	B	0	M1
NMTTP	57	0	3	E	0	M1
NMTTP	57	0	4	B	0	M1
NMTTP	57	0	4	E	1	M1
NMTTP	57	0	5	E	0	M1
NMTHO	57	96	0	96	C	1	M1
NMTTP	57	192	0	B	0	M1
NMTTP	57	192	0	E	0	M1
NMTTP	57	192	1	B	0	M1
NMTTP	57	192	2	E	0	M1
NMTTP	57	192	6	B	0	M1
NMTTP	57	192	6	E	0	M1
NMTTP	57	192	7	B	0	M1
EXSTR	58	0	2
BRSI_	58	0	2	96	48	0
EXSTR	58	0	3
BRSI_	58	0	3	96	48	7
NMTTP	58	96	0	C	1	M1
EXSTR	58	192	4
BRSI_	58	192	4	96	48	0
EXSTR	58	192	5
BRSI_	58	192	5	96	48	7
NMTTP	58	288	0	C	1	M1
NMTTP	59	0	3	B	0	M1
NMTTP	59	0	3	E	0	M1
NMTTP	59	0	4	B	0	M1
NMTTP	59	0	4	E	1	M1
NMTTP	59	0	5	E	0	M1
NMTHO	59	96	0	96	C	1	M1
NMTTP	59	192	0	B	0	M1
NMTTP	59	192	0	E	0	M1
NMTTP	59	192	1	B	0	M1
NMTTP	59	192	2	E	0	M1
NMTTP	59	192	6	B	0	M1
NMTTP	59	192	6	E	0	M1
NMTTP	59	192	7	B	0	M1
EXTAP	60	0	1
EXTAP	60	0	5
NMSTR	60	96	0
NMSV_	60	96	0	96	48	3
NMSTR	60	96	6
NMSV_	60	96	6	96	48	3
EXTAP	60	192	0
NMTTP	60	192	0	C	1	M1
EXTAP	60	192	6
NMTAP	60	288	2
NMTAP	60	288	4
EXTAP	61	0	1
EXTAP	61	0	5
NMSTR	61	96	0
NMSV_	61	96	0	96	48	3
NMSTR	61	96	6
NMSV_	61	96	6	96	48	3
EXTAP	61	192	0
NMTTP	61	192	0	C	1	M1
EXTAP	61	192	6
NMTAP	61	288	1
NMSTR	61	288	7
BRSI_	61	288	7	96	48	4
BRSUR	61	288	7	96	48	4
NMTTP	62	0	7	A	1	M1
NMSTR	62	96	0
BRSI_	62	96	0	96	48	3
BRSCR	62	96	0	96	48	3
NMTTP	62	192	0	A	1	M1
NMTAP	62	288	0
NMTAP	62	288	7
BRTAP	63	0	3
BRTAP	63	0	4
BRTAP	63	96	0
BRSTR	63	96	7
BRSI_	63	96	7	96	48	4
BRSSR	63	96	7	96	48	3
NMTTP	63	192	7	A	1	M1
EXSTR	64	0	1
BRSI_	64	0	1	96	48	3
BRSI_	64	0	1	96	48	7
EXSTR	64	96	1
BRSI_	64	96	1	96	48	5
NMTTP	64	96	2	D	1	M1
NMTTP	64	192	0	C	1	M1
EXSTR	65	0	6
BRSI_	65	0	6	96	48	0
BRSI_	65	0	6	96	48	4
EXSTR	65	96	6
NMTTP	65	96	6	D	1	M1
BRSI_	65	96	6	96	48	2
NMTTP	65	192	0	C	1	M1
NMSTR	66	0	3
BRSI_	66	0	3	96	48	1
NMSTR	66	0	4
BRSI_	66	0	4	96	48	0
NMTTP	66	96	3	A	0	M1
NMTTP	66	96	4	A	0	M1
NMTTP	66	96	4	D	1	M1
NMSTR	66	192	3
BRSI_	66	192	3	96	48	7
NMSTR	66	192	4
BRSI_	66	192	4	96	48	6
NMTTP	66	288	3	A	0	M1
NMTTP	66	288	4	A	0	M1
NMTTP	66	288	4	D	1	M1
NMSTR	67	0	3
BRSXR	67	0	3	96	216	0
NMSTR	67	0	4
BRSXL	67	0	4	96	216	7
NMTTP	67	96	3	A	0	M1
NMTTP	67	96	4	A	0	M1
NMTTP	67	96	4	D	1	M1
NMTTP	67	144	0	C	1	M1
EXHLD	68	0	0	672
EXHLD	68	0	7	672
BXSTR	70	0	0
BRSI_	70	0	0	96	48	4
NMTTP	70	1	0	C	1	M1
BXSTR	70	96	0
BRSI_	70	96	0	96	48	2
EXHLD	70	96	7	48
NMTTP	70	97	0	C	1	M1
BXSTR	70	192	0
BRSI_	70	192	0	96	48	4
EXHLD	70	192	7	48
NMTTP	70	193	2	E	1	M1
BXSTR	70	288	0
BRSI_	70	288	0	96	48	2
EXHLD	70	288	7	48
NMTTP	70	289	0	C	1	M1
BXSTR	71	0	0
BRSI_	71	0	0	96	48	4
EXHLD	71	0	7	48
NMTTP	71	1	2	E	1	M1
BXSTR	71	96	0
BRSI_	71	96	0	96	48	2
EXHLD	71	96	7	48
NMTTP	71	97	0	C	1	M1
BXSTR	71	192	0
BRSI_	71	192	0	96	48	4
EXHLD	71	192	5	48
NMTTP	71	193	2	E	1	M1
BXSTR	71	288	0
BRSI_	71	288	0	96	48	2
EXHLD	71	288	5	48
NMTTP	71	289	0	C	1	M1
BXSTR	72	0	0
BRSI_	72	0	0	96	48	4
EXHLD	72	0	7	48
NMTTP	72	1	2	E	1	M1
BXSTR	72	96	0
BRSI_	72	96	0	96	48	2
EXHLD	72	96	7	48
NMTTP	72	97	0	C	1	M1
BXSTR	72	192	0
BRSI_	72	192	0	96	48	4
EXHLD	72	192	7	48
NMTTP	72	193	2	E	1	M1
BXSTR	72	288	0
BRSI_	72	288	0	96	48	2
EXHLD	72	288	7	48
NMTTP	72	289	0	C	1	M1
BXSTR	73	0	0
BRSI_	73	0	0	96	48	4
EXHLD	73	0	7	48
NMTTP	73	1	2	E	1	M1
BXSTR	73	96	0
BRSI_	73	96	0	96	48	2
EXHLD	73	96	7	48
NMTTP	73	97	0	C	1	M1
BXSTR	73	192	0
BRSI_	73	192	0	96	48	4
EXHLD	73	192	7	48
NMTTP	73	193	2	E	1	M1
BXSTR	73	288	0
BRSI_	73	288	0	96	48	6
EXHLD	73	288	7	48
NMTTP	73	289	0	C	1	M1
BXSTR	74	0	0
BRSI_	74	0	0	96	48	4
EXHLD	74	0	5	48
NMTTP	74	1	7	E	1	M1
BXSTR	74	96	0
BRSI_	74	96	0	96	48	6
EXHLD	74	96	5	48
NMTTP	74	97	0	C	1	M1
BXSTR	74	192	0
BRSI_	74	192	0	96	48	4
EXHLD	74	192	5	48
NMTTP	74	193	7	E	1	M1
BXSTR	74	288	0
BRSI_	74	288	0	96	48	6
EXHLD	74	288	5	48
NMTTP	74	289	0	C	1	M1
BXSTR	75	0	0
BRSI_	75	0	0	96	48	4
EXHLD	75	0	5	48
NMTTP	75	1	7	E	1	M1
BXSTR	75	96	0
BRSCL	75	96	0	96	48	6
EXHLD	75	96	5	48
NMTTP	75	97	0	C	1	M1
BXSTR	75	192	0
BRSCR	75	192	0	96	48	2
EXHLD	75	192	5	48
NMTTP	75	193	7	A	1	M1
BXSTR	75	288	0
BRSI_	75	288	0	96	48	6
EXHLD	75	288	5	48
NMTTP	75	289	1	A	1	M1
BXSTR	76	0	0
BRSI_	76	0	0	96	48	2
BXHLD	76	0	4	48
NMTTP	76	1	7	E	1	M1
BXSTR	76	96	0
BRSI_	76	96	0	96	48	6
BXHLD	76	96	4	48
NMTTP	76	97	2	E	1	M1
BXSTR	76	192	0
BRSI_	76	192	0	96	48	2
BXHLD	76	192	4	48
NMTTP	76	193	7	E	1	M1
BXSTR	76	288	0
BRSI_	76	288	0	96	48	6
BXHLD	76	288	4	48
NMTTP	76	289	2	E	1	M1
BXSTR	77	0	0
BRSI_	77	0	0	96	48	2
BXHLD	77	0	4	48
NMTTP	77	1	7	E	1	M1
BXSTR	77	96	0
BRSI_	77	96	0	96	48	6
BXHLD	77	96	4	48
NMTTP	77	97	2	E	1	M1
BXSTR	77	192	0
BRSI_	77	192	0	96	48	4
EXHLD	77	192	5	48
NMTTP	77	193	7	E	1	M1
BXSTR	77	288	0
BRSI_	77	288	0	96	48	2
EXHLD	77	288	5	48
NMTTP	77	289	0	C	1	M1
BXSTR	78	0	0
BRSI_	78	0	0	96	48	4
NMTTP	78	0	1	A	1	M1
NMTTP	78	0	2	E	0	M1
EXHLD	78	0	7	48
BXSTR	78	96	0
NMTTP	78	96	0	B	0	M1
NMTTP	78	96	0	C	1	M1
BRSI_	78	96	0	96	48	2
EXHLD	78	96	7	48
BXSTR	78	192	0
BRSI_	78	192	0	96	48	4
NMTTP	78	192	1	A	1	M1
NMTTP	78	192	2	E	0	M1
EXHLD	78	192	7	48
BXSTR	78	288	0
NMTTP	78	288	0	B	0	M1
NMTTP	78	288	0	C	1	M1
BRSI_	78	288	0	96	48	2
EXHLD	78	288	7	48
BXSTR	79	0	0
BRSI_	79	0	0	96	48	4
NMTTP	79	0	1	A	1	M1
NMTTP	79	0	2	E	0	M1
EXHLD	79	0	7	48
BXSTR	79	96	0
NMTTP	79	96	0	B	0	M1
NMTTP	79	96	0	C	1	M1
BRSI_	79	96	0	96	48	2
EXHLD	79	96	7	48
BXSTR	79	192	0
BRSI_	79	192	0	96	48	4
NMTTP	79	192	1	A	1	M1
NMTTP	79	192	2	E	0	M1
EXHLD	79	192	7	48
BXSTR	79	288	0
NMTTP	79	288	0	B	0	M1
NMTTP	79	288	0	C	1	M1
BRSI_	79	288	0	96	48	6
EXHLD	79	288	7	48
BXSTR	80	0	0
BRSI_	80	0	0	96	48	4
EXHLD	80	0	5	48
NMTTP	80	0	6	E	0	M1
NMTTP	80	0	6	A	1	M1
BXSTR	80	96	0
NMTTP	80	96	0	B	0	M1
NMTTP	80	96	0	C	1	M1
BRSI_	80	96	0	96	48	6
EXHLD	80	96	5	48
BXSTR	80	192	0
BRSI_	80	192	0	96	48	4
EXHLD	80	192	5	48
NMTTP	80	192	6	E	0	M1
NMTTP	80	192	6	A	1	M1
BXSTR	80	288	0
NMTTP	80	288	0	B	0	M1
NMTTP	80	288	0	C	1	M1
BRSI_	80	288	0	96	48	6
EXHLD	80	288	5	48
BXSTR	81	0	0
BRSI_	81	0	0	96	48	4
EXHLD	81	0	5	48
NMTTP	81	0	6	E	0	M1
NMTTP	81	0	6	A	1	M1
BXSTR	81	96	0
NMTTP	81	96	0	B	0	M1
NMTTP	81	96	0	C	1	M1
BRSCL	81	96	0	96	48	6
EXHLD	81	96	5	48
BXSTR	81	192	0
BRSCR	81	192	0	96	48	2
EXHLD	81	192	5	48
NMTTP	81	192	6	A	0	M1
NMTTP	81	192	7	D	1	M1
BXSTR	81	288	0
BRSI_	81	288	0	96	48	6
NMTTP	81	288	2	A	0	M1
NMTTP	81	288	2	D	1	M1
EXHLD	81	288	5	48
BXSTR	82	0	0
BRSI_	82	0	0	96	48	2
EXHLD	82	0	4	48
NMTTP	82	0	6	E	0	M1
NMTTP	82	0	6	A	1	M1
BXSTR	82	96	0
BRSI_	82	96	0	96	48	6
NMTTP	82	96	1	A	1	M1
NMTTP	82	96	2	E	0	M1
EXHLD	82	96	4	48
BXSTR	82	192	0
BRSI_	82	192	0	96	48	2
EXHLD	82	192	4	48
NMTTP	82	192	6	E	0	M1
NMTTP	82	192	6	A	1	M1
BXSTR	82	288	0
BRSI_	82	288	0	96	48	6
NMTTP	82	288	1	A	1	M1
NMTTP	82	288	2	E	0	M1
EXHLD	82	288	4	48
BXSTR	83	0	0
BRSI_	83	0	0	96	48	2
EXHLD	83	0	4	48
NMTTP	83	0	6	E	0	M1
NMTTP	83	0	6	A	1	M1
BXSTR	83	96	0
BRSI_	83	96	0	96	48	6
NMTTP	83	96	1	A	1	M1
NMTTP	83	96	2	E	0	M1
EXHLD	83	96	4	48
BXSTR	83	192	0
BRSI_	83	192	0	96	48	4
EXHLD	83	192	5	48
NMTTP	83	192	6	E	0	M1
NMTTP	83	192	6	A	1	M1
BXSTR	83	288	0
NMTTP	83	288	0	B	0	M1
NMTTP	83	288	0	C	1	M1
BRSI_	83	288	0	96	48	2
EXHLD	83	288	5	48
BXSTR	84	0	0
BRSI_	84	0	0	96	48	4
NMTTP	84	0	1	A	1	M1
NMTTP	84	0	2	E	0	M1
EXHLD	84	0	7	48
BXSTR	84	96	0
NMTTP	84	96	0	B	0	M1
NMTTP	84	96	0	C	1	M1
BRSI_	84	96	0	96	48	2
EXHLD	84	96	7	48
BXSTR	84	192	0
BRSI_	84	192	0	96	48	4
NMTTP	84	192	1	A	1	M1
NMTTP	84	192	2	E	0	M1
EXHLD	84	192	7	48
BXSTR	84	288	0
NMTTP	84	288	0	B	0	M1
NMTTP	84	288	0	C	1	M1
BRSI_	84	288	0	96	48	2
EXHLD	84	288	7	48
BXSTR	85	0	0
BRSI_	85	0	0	96	48	4
NMTTP	85	0	1	A	1	M1
NMTTP	85	0	2	E	0	M1
EXHLD	85	0	7	48
BXSTR	85	96	0
NMTTP	85	96	0	B	0	M1
NMTTP	85	96	0	C	1	M1
BRSI_	85	96	0	96	48	2
EXHLD	85	96	7	48
BXSTR	85	192	0
BRSI_	85	192	0	96	48	4
NMTTP	85	192	1	A	1	M1
NMTTP	85	192	2	E	0	M1
EXHLD	85	192	7	48
BXSTR	85	288	0
NMTTP	85	288	0	B	0	M1
NMTTP	85	288	0	C	1	M1
BRSI_	85	288	0	96	48	6
EXHLD	85	288	7	48
BXSTR	86	0	0
BRSI_	86	0	0	96	48	4
BXHLD	86	0	5	48
NMTTP	86	0	7	E	0	M1
NMTTP	86	0	7	A	1	M1
BXSTR	86	96	0
NMTTP	86	96	0	B	0	M1
NMTTP	86	96	0	C	1	M1
BRSI_	86	96	0	96	48	6
BXHLD	86	96	5	48
BXSTR	86	192	0
BRSI_	86	192	0	96	48	4
BXHLD	86	192	5	48
NMTTP	86	192	7	E	0	M1
NMTTP	86	192	7	A	1	M1
BXSTR	86	288	0
NMTTP	86	288	0	B	0	M1
NMTTP	86	288	0	C	1	M1
BRSI_	86	288	0	96	48	6
BXHLD	86	288	5	48
BXSTR	87	0	0
BRSI_	87	0	0	96	48	4
BXHLD	87	0	5	48
NMTTP	87	0	7	E	0	M1
NMTTP	87	0	7	A	1	M1
BXSTR	87	96	0
NMTTP	87	96	0	B	0	M1
NMTTP	87	96	0	C	1	M1
BRSCL	87	96	0	96	48	6
BXHLD	87	96	5	48
BXSTR	87	192	0
BRSCR	87	192	0	96	48	2
BXHLD	87	192	5	48
NMTTP	87	192	7	A	1	M1
NMTTP	87	192	7	D	0	M1
BXSTR	87	288	0
BRSI_	87	288	0	96	48	6
NMTTP	87	288	1	A	1	M1
NMTTP	87	288	2	D	0	M1
BXHLD	87	288	5	48
BXSTR	88	0	0
BRSI_	88	0	0	96	48	2
BXHLD	88	0	4	48
NMTTP	88	12	0	E	0	M1
NMTTP	88	24	7	E	0	M1
NMTTP	88	36	6	A	1	M1
BXSTR	88	96	0
BRSI_	88	96	0	96	48	6
BXHLD	88	96	4	48
NMTTP	88	108	1	E	0	M1
NMTTP	88	120	2	E	0	M1
NMTTP	88	132	2	A	1	M1
BXSTR	88	192	0
BRSI_	88	192	0	96	48	2
BXHLD	88	192	4	48
NMTTP	88	204	0	E	0	M1
NMTTP	88	216	7	E	0	M1
NMTTP	88	228	6	A	1	M1
BXSTR	88	288	0
BRSI_	88	288	0	96	48	6
BXHLD	88	288	4	48
NMTTP	88	300	1	E	0	M1
NMTTP	88	312	2	E	0	M1
NMTTP	88	324	2	A	1	M1
BXSTR	89	0	0
BRSI_	89	0	0	96	48	2
BXHLD	89	0	4	48
NMTTP	89	12	0	E	0	M1
NMTTP	89	24	7	E	0	M1
NMTTP	89	36	6	A	1	M1
BXSTR	89	96	0
BRSI_	89	96	0	96	48	6
BXHLD	89	96	4	48
NMTTP	89	108	1	E	0	M1
NMTTP	89	120	2	E	0	M1
NMTTP	89	132	2	A	1	M1
BXSTR	89	192	0
BRSI_	89	192	0	96	48	4
BXHLD	89	192	5	48
NMTTP	89	204	0	E	0	M1
NMTTP	89	216	7	E	0	M1
NMTTP	89	228	6	A	1	M1
BXSTR	89	288	0
BRSI_	89	288	0	96	48	2
BXHLD	89	288	5	48
NMTTP	89	300	0	B	0	M1
NMTTP	89	312	0	C	0	M1
NMTTP	89	324	4	B	1	M1
BXSTR	90	0	0
BRSI_	90	0	0	96	48	4
BXHLD	90	0	7	48
NMTTP	90	12	1	E	0	M1
NMTTP	90	24	2	E	0	M1
NMTTP	90	36	2	A	1	M1
BXSTR	90	96	0
BRSI_	90	96	0	96	48	2
BXHLD	90	96	7	48
NMTTP	90	108	0	B	0	M1
NMTTP	90	120	0	C	0	M1
NMTTP	90	132	4	B	1	M1
BXSTR	90	192	0
BRSI_	90	192	0	96	48	4
BXHLD	90	192	7	48
NMTTP	90	204	1	E	0	M1
NMTTP	90	216	2	E	0	M1
NMTTP	90	228	2	A	1	M1
BXSTR	90	288	0
BRSI_	90	288	0	96	48	2
BXHLD	90	288	7	48
NMTTP	90	300	0	B	0	M1
NMTTP	90	312	0	C	0	M1
NMTTP	90	324	4	B	1	M1
BXSTR	91	0	0
BRSI_	91	0	0	96	48	4
BXHLD	91	0	7	48
NMTTP	91	12	1	E	0	M1
NMTTP	91	24	2	E	0	M1
NMTTP	91	36	2	A	1	M1
BXSTR	91	96	0
BRSI_	91	96	0	96	48	2
BXHLD	91	96	7	48
NMTTP	91	108	0	B	0	M1
NMTTP	91	120	0	C	0	M1
NMTTP	91	132	4	B	1	M1
BXSTR	91	192	0
BRSI_	91	192	0	96	48	4
BXHLD	91	192	7	48
NMTTP	91	204	1	E	0	M1
NMTTP	91	216	2	E	0	M1
NMTTP	91	228	2	A	1	M1
BXSTR	91	288	0
BRSI_	91	288	0	96	48	6
BXHLD	91	288	7	48
NMTTP	91	300	0	B	0	M1
NMTTP	91	312	0	C	0	M1
NMTTP	91	324	4	B	1	M1
BXSTR	92	0	0
BRSI_	92	0	0	96	48	4
BXHLD	92	0	5	48
NMTTP	92	12	0	E	0	M1
NMTTP	92	24	7	E	0	M1
NMTTP	92	36	6	A	1	M1
BXSTR	92	96	0
BRSI_	92	96	0	96	48	6
BXHLD	92	96	5	48
NMTTP	92	108	0	B	0	M1
NMTTP	92	120	0	C	0	M1
NMTTP	92	132	4	B	1	M1
BXSTR	92	192	0
BRSI_	92	192	0	96	48	4
BXHLD	92	192	5	48
NMTTP	92	204	0	E	0	M1
NMTTP	92	216	7	E	0	M1
NMTTP	92	228	6	A	1	M1
BRTAP	92	288	0
BXHLD	92	288	5	48
NMTTP	92	300	0	B	0	M1
NMTTP	92	312	0	C	0	M1
NMTTP	92	324	4	B	1	M1
BRSTR	93	0	6
BRSI_	93	0	6	96	48	2
BRSTR	93	0	7
BRSI_	93	0	7	96	48	3
NMTTP	93	96	6	B	0	M1
NMTTP	93	96	7	B	0	M1
NMTTP	93	112	0	C	1	M1
NMTTP	93	128	2	B	0	M1
NMTTP	93	128	3	B	0	M1
BRSTR	93	192	0
BRSI_	93	192	0	96	48	4
BRSTR	93	192	1
BRSI_	93	192	1	96	48	5
NMTTP	93	288	0	B	0	M1
NMTTP	93	288	1	B	0	M1
NMTTP	93	304	0	C	1	M1
NMTTP	93	320	4	B	0	M1
NMTTP	93	320	5	B	0	M1
NMTTP	94	0	0	B	0	M1
NMTTP	94	0	0	C	1	M1
NMTTP	94	0	1	B	0	M1
NMTTP	94	0	2	B	0	M1
NMTTP	94	0	3	B	0	M1
NMTTP	94	0	4	B	0	M1
NMTTP	94	0	5	B	0	M1
NMTTP	94	0	6	B	0	M1
NMTTP	94	0	7	B	0	M1
BRTAP	95	288	0
BRTAP	96	64	0
BRTAP	96	96	7
BRTAP	96	128	1
BRTAP	96	160	6
BRTAP	96	192	2
BRTAP	96	224	5
BXHLD	96	288	3	64
BXHLD	96	288	4	64
BRTAP	97	0	5
BRTAP	97	32	4
BRTAP	97	64	3
BRTAP	97	96	2
BRTAP	97	192	4
BRTAP	97	224	3
BRTAP	97	256	5
BRTAP	97	288	2
BRTAP	97	320	6
BRTAP	97	352	1
BRTAP	98	0	7
BXHLD	98	32	0	64
BRHLD	98	32	7	64
BRTAP	98	128	0
BRTAP	98	128	7
BRTAP	98	192	1
BRTAP	98	224	2
BRTAP	98	256	3
BRTAP	98	288	6
BRTAP	98	320	5
BRTAP	98	352	4
BRTAP	99	64	2
BRTAP	99	96	3
BRTAP	99	128	2
BRTAP	99	160	3
BRTAP	99	192	1
BRTAP	99	224	0
BRTAP	99	224	1
BRTAP	99	352	6
BRTAP	99	352	7
BRTAP	100	0	6
BRTAP	100	0	7
BXTAP	100	96	5
BXTAP	100	128	4
BXTAP	100	160	5
BXTAP	100	192	4
BXTAP	100	224	6
BRTAP	100	288	2
BRTAP	100	320	3
BRSTR	100	352	1
BRSCL	100	352	1	56	296	5
BRSV_	100	352	1	56	296	3
NMTTP	101	24	1	A	1	M1
BRTAP	102	24	2
NMTTP	102	24	2	B	1	M1
BRTAP	102	68	1
NMTTP	102	68	1	B	1	M1
BRTAP	102	112	0
NMTTP	102	112	0	B	1	M1
BRTAP	102	156	7
NMTTP	102	156	7	B	1	M1
BRTAP	102	200	6
NMTTP	102	200	6	B	1	M1
BRTAP	102	244	5
NMTTP	102	244	5	B	1	M1
BRTAP	102	352	3
BRTAP	103	0	4
BRTAP	103	32	3
BRTAP	103	64	4
BRTAP	103	96	3
BRTAP	103	160	2
BRTAP	103	160	5
BRTAP	103	224	1
BRTAP	103	224	6
BRTAP	103	288	0
BRTAP	103	320	7
BRTAP	103	352	0
BRTAP	104	0	7
BRTAP	104	32	0
BRTAP	104	72	1
BRTAP	104	72	6
BRTAP	104	128	2
BRTAP	104	160	4
BRTAP	104	224	4
BRTAP	104	256	3
BRTAP	104	288	5
BRTAP	104	320	1
BRTAP	104	352	4
BRTAP	105	0	1
BRTAP	105	32	4
BRTAP	105	64	3
BRTAP	105	96	6
BRTAP	105	128	3
BRTAP	105	160	6
BRTAP	105	192	0
BRTAP	105	192	7
BRTAP	105	320	3
BRTAP	105	320	4
BRTAP	105	352	3
BRTAP	105	352	4
BRTAP	106	32	1
BRTAP	106	64	0
BRTAP	106	96	1
BRHLD	106	128	6	64
BRTAP	106	192	7
BRTAP	106	224	6
BRTAP	106	320	2
BRTAP	106	320	5
BRTAP	107	0	1
BRTAP	107	0	3
BRTAP	107	64	4
BRTAP	107	64	6
BRTAP	107	128	0
BRTAP	107	128	7
BRTAP	107	160	0
BRTAP	107	160	7
NMTTP	107	288	0	C	1	M1
BRSTR	107	288	1
BRSI_	107	288	1	96	32	5
BRTAP	107	328	1
BRSTR	107	368	6
BRSI_	107	368	6	96	32	2
NMTTP	108	0	0	C	1	M1
BRTAP	108	24	6
BRSTR	108	64	0
BRSI_	108	64	0	96	32	4
NMTTP	108	80	0	C	1	M1
BRTAP	108	104	0
BRTAP	108	144	7
NMTTP	108	160	0	C	1	M1
BRTAP	108	184	7
BRTAP	108	336	2
NMTTP	108	336	2	D	1	M1
BRTAP	108	336	5
BXTAP	108	352	1
BXTAP	108	368	0
BXTAP	109	0	7
BXTAP	109	16	6
BXTAP	109	32	5
BXTAP	109	48	4
BXTAP	109	64	3
BXTAP	109	80	2
BRTAP	109	96	1
NMTTP	109	96	1	D	1	M1
BXTAP	109	112	0
BXTAP	109	128	7
BRTAP	109	144	6
NMTTP	109	144	6	D	1	M1
BXTAP	109	160	5
BXTAP	109	176	4
BXTAP	109	192	3
BXTAP	109	208	2
BXTAP	109	224	1
BXTAP	109	240	0
BXTAP	109	256	7
BXTAP	109	272	6
BXSTR	109	288	5
BRSF_	109	288	5	96	48	1
BXTAP	109	304	4
BXTAP	109	320	3
BXTAP	109	336	2
BXTAP	109	352	1
BXTAP	109	368	0
NMTTP	110	0	0	B	0	M1
NMTTP	110	0	0	C	1	M1
NMTTP	110	0	0	E	0	M1
NMTTP	110	0	0	A	0	M1
NMTTP	110	0	0	D	0	M1
NMTTP	110	0	1	B	0	M1
NMTTP	110	0	1	E	0	M1
NMTTP	110	0	1	A	0	M1
NMTTP	110	0	1	D	0	M1
NMTTP	110	0	2	B	0	M1
NMTTP	110	0	2	E	0	M1
NMTTP	110	0	2	A	0	M1
NMTTP	110	0	2	D	0	M1
NMTTP	110	0	3	B	0	M1
NMTTP	110	0	3	E	0	M1
NMTTP	110	0	3	A	0	M1
NMTTP	110	0	3	D	0	M1
NMTTP	110	0	4	B	0	M1
NMTTP	110	0	4	E	0	M1
NMTTP	110	0	4	A	0	M1
NMTTP	110	0	4	D	0	M1
NMTTP	110	0	5	B	0	M1
NMTTP	110	0	5	E	0	M1
NMTTP	110	0	5	A	0	M1
NMTTP	110	0	5	D	0	M1
NMTTP	110	0	6	B	0	M1
NMTTP	110	0	6	E	0	M1
NMTTP	110	0	6	A	0	M1
NMTTP	110	0	6	D	0	M1
NMTTP	110	0	7	B	0	M1
NMTTP	110	0	7	E	0	M1
NMTTP	110	0	7	A	0	M1
NMTTP	110	0	7	D	0	M1

T_REC_TAP	146
T_REC_BRK	143
T_REC_XTP	125
T_REC_BXX	29
T_REC_HLD	49
T_REC_XHO	59
T_REC_BHO	2
T_REC_BXH	37
T_REC_STR	53
T_REC_BST	16
T_REC_XST	13
T_REC_XBS	92
T_REC_TTP	391
T_REC_THO	7
T_REC_SLD	8
T_REC_BSL	172
T_REC_ALL	1342
T_NUM_TAP	728
T_NUM_BRK	491
T_NUM_HLD	115
T_NUM_SLD	8
T_NUM_ALL	1342
T_JUDGE_TAP	1008
T_JUDGE_HLD	253
T_JUDGE_SLD	180
T_JUDGE_ALL	1441
TTM_EACHPAIRS	216
TTM_SCR_TAP	364000
TTM_SCR_BRK	1276600
TTM_SCR_HLD	115000
TTM_SCR_SLD	12000
TTM_SCR_ALL	1767600
TTM_SCR_S	1666950
TTM_SCR_SS	1718500
TTM_RAT_ACV	10285

