VERSION	0.00.00	1.04.00
FES_MODE	0
BPM_DEF	180.000	180.000	180.000	135.000
MET_DEF	4	4
RESOLUTION	384
CLK_DEF	384
COMPATIBLE_CODE	MA2

BPM	0	0	180.000
BPM	93	192	165.000
BPM	93	336	150.000
BPM	94	96	135.000
MET	0	0	4	4
MET	2	0	4	5
MET	4	192	4	6
MET	6	0	4	4
MET	7	0	4	5
MET	9	192	4	6
MET	11	0	4	4
MET	13	0	4	2
MET	13	192	4	3
MET	15	0	4	4
MET	16	0	4	3
MET	17	192	4	4
MET	38	192	4	2
MET	39	0	4	4
MET	58	0	4	5
MET	60	192	4	6
MET	62	0	4	4
MET	63	0	4	5
MET	65	192	4	6
MET	67	0	4	4
MET	70	0	4	2
MET	70	192	4	4
MET	88	192	4	3
MET	90	0	4	4
MET	91	0	4	3
MET	92	192	4	4
MET	93	192	4	3
MET	94	96	4	4
MET	96	96	4	3
MET	97	0	4	4

BRTAP	1	192	7
BXTAP	1	240	7
BXTAP	1	288	7
BXTAP	1	336	7
EXSTR	2	0	0
NMSI_	2	0	0	48	24	4
EXTAP	2	48	0
EXSTR	4	192	7
NMSI_	4	192	7	48	24	3
EXTAP	4	240	7
EXSTR	6	0	0
NMSI_	6	0	0	48	24	4
EXTAP	6	48	0
EXSTR	7	0	7
NMSI_	7	0	7	48	24	3
EXTAP	7	48	7
EXSTR	8	96	2
NMSUR	8	96	2	48	336	5
EXSTR	9	192	7
NMSI_	9	192	7	48	24	3
EXTAP	9	240	7
EXSTR	11	0	0
NMSI_	11	0	0	48	24	4
EXTAP	11	48	0
EXSTR	13	192	7
NMSI_	13	192	7	48	24	4
EXTAP	13	240	7
EXSTR	13	336	0
NMSI_	13	336	0	48	24	3
EXTAP	14	0	0
EXSTR	14	96	7
NMSI_	14	96	7	48	24	4
EXTAP	14	144	7
EXSTR	14	240	0
NMSI_	14	240	0	48	24	3
EXTAP	14	288	0
EXSTR	14	336	6
NMSUL	14	336	6	48	288	3
EXSTR	16	0	0
NMSI_	16	0	0	48	24	3
EXTAP	16	48	0
EXSTR	16	144	7
NMSI_	16	144	7	48	24	4
EXTAP	16	192	7
EXSTR	16	288	0
NMSI_	16	288	0	48	24	3
EXTAP	16	336	0
EXSTR	17	48	7
NMSI_	17	48	7	48	24	4
EXTAP	17	96	7
EXSTR	17	144	1
NMSUR	17	144	1	48	288	4
EXSTR	18	192	6
NMSI_	18	192	6	48	24	4
EXTAP	18	240	6
EXSTR	18	336	0
NMSI_	18	336	0	48	24	2
EXTAP	19	0	0
EXSTR	19	96	7
NMSI_	19	96	7	48	720	3
EXSTR	22	192	2
NMSI_	22	192	2	48	96	5
CNSV_	22	336	5	0	96	3
CNSI_	23	48	3	0	96	0
CNSI_	23	144	0	0	48	6
EXSTR	24	192	6
NMSI_	24	192	6	48	96	1
CNSV_	24	336	1	0	96	7
CNSI_	25	48	7	0	96	4
CNSI_	25	144	4	0	48	2
EXSTR	26	192	2
NMSI_	26	192	2	48	96	5
CNSV_	26	336	5	0	48	3
CNSI_	27	0	3	0	96	1
EXSTR	27	192	6
NMSI_	27	192	6	48	24	4
EXSTR	27	264	2
NMSI_	27	264	2	48	24	0
EXSTR	27	336	7
NMSI_	27	336	7	48	24	3
EXSTR	28	24	1
NMSI_	28	24	1	48	24	4
EXSTR	28	192	5
NMSI_	28	192	5	48	96	2
CNSV_	28	336	2	0	48	4
CNSI_	29	0	4	0	96	6
EXSTR	29	192	1
NMSI_	29	192	1	48	24	3
EXSTR	29	264	5
NMSI_	29	264	5	48	24	7
EXSTR	29	336	0
NMSI_	29	336	0	48	24	4
EXSTR	30	24	6
NMSI_	30	24	6	48	24	3
EXSTR	30	192	2
NMSI_	30	192	2	48	96	5
CNSV_	30	336	5	0	48	3
CNSI_	31	0	3	0	96	1
EXSTR	31	192	6
NMSI_	31	192	6	48	24	4
EXSTR	31	264	2
NMSI_	31	264	2	48	24	0
EXSTR	31	336	7
NMSI_	31	336	7	48	24	3
EXSTR	32	24	1
NMSI_	32	24	1	48	24	4
EXSTR	32	192	5
NMSI_	32	192	5	48	96	2
CNSV_	32	336	2	0	48	4
CNSI_	33	0	4	0	96	6
EXSTR	33	192	1
NMSI_	33	192	1	48	24	3
EXSTR	33	264	5
NMSI_	33	264	5	48	24	7
EXSTR	33	336	0
NMSI_	33	336	0	48	24	4
EXSTR	34	24	6
NMSI_	34	24	6	48	24	3
EXSTR	34	192	1
NMSI_	34	192	1	48	96	4
CNSV_	34	336	4	0	48	2
CNSI_	35	0	2	0	96	0
EXSTR	35	192	5
NMSI_	35	192	5	48	24	3
EXSTR	35	264	1
NMSI_	35	264	1	48	24	7
EXSTR	35	336	6
NMSI_	35	336	6	48	24	2
EXSTR	36	24	0
NMSI_	36	24	0	48	24	4
EXSTR	36	192	6
NMSI_	36	192	6	48	96	3
CNSV_	36	336	3	0	48	5
CNSI_	37	0	5	0	96	7
EXSTR	37	192	2
NMSI_	37	192	2	48	24	4
EXSTR	37	264	6
NMSI_	37	264	6	48	24	0
EXSTR	37	336	1
NMSI_	37	336	1	48	24	5
EXSTR	38	24	7
NMSI_	38	24	7	48	24	3
EXSTR	38	192	0
NMSCR	38	192	0	48	144	6
BXSTR	39	0	0
NMSI_	39	0	0	48	720	4
BXSTR	41	0	7
NMSI_	41	0	7	48	720	3
BXSTR	43	0	1
NMSCL	43	0	1	48	720	6
BXSTR	45	0	5
NMSCL	45	0	5	48	720	2
EXSTR	47	96	0
NMSI_	47	96	0	48	24	4
EXSTR	47	168	7
NMSI_	47	168	7	48	24	3
EXSTR	47	240	0
NMSCR	47	240	0	48	192	7
EXSTR	48	336	7
NMSSR	48	336	7	48	192	3
EXSTR	49	336	0
NMSSL	49	336	0	48	192	4
EXSTR	51	0	7
NMSI_	51	0	7	48	24	2
NMSI_	51	0	7	48	24	4
EXTAP	51	48	7
EXSTR	52	144	1
NMSI_	52	144	1	48	24	3
EXSTR	52	192	7
NMSI_	52	192	7	48	24	5
EXSTR	52	240	0
NMSSL	52	240	0	48	144	4
EXSTR	53	144	7
NMSUL	53	144	7	48	144	3
EXSTR	53	288	0
NMSUR	53	288	0	48	144	4
EXSTR	55	0	7
NMSCL	55	0	7	48	96	5
EXSTR	56	0	7
NMSCL	56	0	7	48	96	4
EXSTR	56	192	7
NMSCL	56	192	7	48	96	3
EXSTR	57	0	7
NMSCL	57	0	7	48	96	2
EXSTR	57	192	7
NMSCL	57	192	7	48	96	1
EXSTR	58	0	0
NMSI_	58	0	0	48	24	4
EXSTR	59	96	7
NMSXR	59	96	7	48	336	3
EXSTR	60	192	1
NMSI_	60	192	1	48	48	3
EXTAP	60	240	1
EXSTR	62	0	6
NMSI_	62	0	6	48	48	4
EXTAP	62	48	6
EXSTR	63	0	1
NMSI_	63	0	1	48	48	3
EXSTR	63	48	1
NMSCL	63	48	1	48	672	2
EXSTR	65	192	6
NMSI_	65	192	6	48	48	4
EXSTR	65	240	6
NMSCR	65	240	6	48	384	5
EXSTR	67	0	1
NMSI_	67	0	1	48	48	4
EXTAP	67	48	1
EXSTR	70	192	0
NMSI_	70	192	0	48	24	2
EXSTR	70	240	0
NMSI_	70	240	0	48	24	4
EXSTR	70	288	0
NMSI_	70	288	0	48	24	3
EXSTR	70	336	0
NMSI_	70	336	0	48	24	5
EXTAP	71	0	0
EXSTR	71	192	7
NMSI_	71	192	7	48	24	5
EXSTR	71	240	7
NMSI_	71	240	7	48	24	3
EXSTR	71	288	7
NMSI_	71	288	7	48	24	4
EXSTR	71	336	7
NMSI_	71	336	7	48	24	2
EXTAP	72	0	7
EXSTR	72	192	0
NMSI_	72	192	0	48	24	2
EXSTR	72	240	0
NMSI_	72	240	0	48	24	4
EXSTR	72	288	0
NMSI_	72	288	0	48	24	3
EXSTR	72	336	0
NMSI_	72	336	0	48	24	5
EXTAP	73	0	0
EXSTR	73	192	7
NMSI_	73	192	7	48	24	5
EXSTR	73	240	7
NMSI_	73	240	7	48	24	3
EXSTR	73	288	7
NMSI_	73	288	7	48	24	4
EXSTR	73	336	7
NMSI_	73	336	7	48	24	2
EXTAP	74	0	7
EXSTR	74	192	0
NMSI_	74	192	0	48	24	2
EXSTR	74	240	0
NMSI_	74	240	0	48	24	4
EXSTR	74	288	0
NMSI_	74	288	0	48	24	3
EXTAP	74	336	0
EXSTR	75	0	7
NMSI_	75	0	7	48	24	5
EXSTR	75	48	7
NMSI_	75	48	7	48	24	3
EXSTR	75	96	7
NMSI_	75	96	7	48	24	4
EXTAP	75	144	7
EXSTR	75	192	0
NMSI_	75	192	0	48	24	2
EXSTR	75	240	0
NMSI_	75	240	0	48	24	4
EXSTR	75	288	0
NMSI_	75	288	0	48	24	3
EXTAP	75	336	0
EXSTR	76	0	7
NMSI_	76	0	7	48	24	5
EXSTR	76	48	7
NMSI_	76	48	7	48	24	3
EXSTR	76	96	7
NMSI_	76	96	7	48	24	4
EXTAP	76	144	7
EXSTR	76	192	0
NMSI_	76	192	0	48	24	2
EXSTR	76	240	0
NMSI_	76	240	0	48	24	4
EXSTR	76	288	0
NMSI_	76	288	0	48	24	3
EXTAP	76	336	0
EXSTR	77	0	7
NMSI_	77	0	7	48	24	5
EXSTR	77	48	7
NMSI_	77	48	7	48	24	3
EXSTR	77	96	7
NMSI_	77	96	7	48	24	4
EXTAP	77	144	7
EXSTR	77	192	0
NMSI_	77	192	0	48	24	2
EXSTR	77	240	0
NMSI_	77	240	0	48	24	4
EXSTR	77	288	0
NMSI_	77	288	0	48	24	3
EXTAP	77	336	0
EXSTR	78	192	1
NMSCR	78	192	1	48	24	2
EXSTR	78	240	7
NMSI_	78	240	7	48	24	3
EXSTR	78	288	0
NMSI_	78	288	0	48	24	4
EXSTR	78	336	6
NMSCL	78	336	6	48	24	5
EXSTR	79	0	1
NMSI_	79	0	1	48	48	4
EXSTR	79	192	6
NMSCL	79	192	6	48	24	5
EXSTR	79	240	0
NMSI_	79	240	0	48	24	4
EXSTR	79	288	7
NMSI_	79	288	7	48	24	3
EXSTR	79	336	1
NMSCR	79	336	1	48	24	2
EXSTR	80	0	6
NMSI_	80	0	6	48	48	3
EXSTR	80	192	1
NMSCR	80	192	1	48	24	2
EXSTR	80	240	7
NMSI_	80	240	7	48	24	3
EXSTR	80	288	0
NMSI_	80	288	0	48	24	4
EXSTR	80	336	6
NMSCL	80	336	6	48	24	5
EXSTR	81	0	1
NMSI_	81	0	1	48	48	4
EXSTR	81	192	6
NMSCL	81	192	6	48	24	5
EXSTR	81	240	0
NMSI_	81	240	0	48	24	4
EXSTR	81	288	7
NMSI_	81	288	7	48	24	3
EXSTR	81	336	1
NMSCR	81	336	1	48	24	2
EXSTR	82	0	6
NMSI_	82	0	6	48	48	3
EXSTR	82	192	1
NMSCR	82	192	1	48	24	2
EXSTR	82	240	7
NMSI_	82	240	7	48	24	3
EXSTR	82	288	0
NMSI_	82	288	0	48	24	4
EXSTR	82	336	6
NMSCL	82	336	6	48	24	5
EXSTR	83	0	1
NMSCR	83	0	1	48	24	2
EXSTR	83	48	7
NMSI_	83	48	7	48	24	3
EXSTR	83	96	0
NMSI_	83	96	0	48	24	4
EXSTR	83	144	6
NMSCL	83	144	6	48	24	5
EXSTR	83	192	1
NMSCR	83	192	1	48	24	2
EXSTR	83	240	7
NMSI_	83	240	7	48	24	3
EXSTR	83	288	0
NMSI_	83	288	0	48	24	4
EXSTR	83	336	6
NMSCL	83	336	6	48	24	5
EXSTR	84	0	1
NMSCR	84	0	1	48	24	2
EXSTR	84	48	7
NMSI_	84	48	7	48	24	3
EXSTR	84	96	0
NMSI_	84	96	0	48	24	4
EXSTR	84	144	6
NMSCL	84	144	6	48	24	5
EXSTR	84	192	1
NMSCR	84	192	1	48	24	2
EXTAP	84	240	1
EXSTR	84	240	7
NMSI_	84	240	7	48	24	3
EXSTR	84	288	0
NMSI_	84	288	0	48	24	4
EXTAP	84	288	7
EXTAP	84	336	0
EXSTR	84	336	6
NMSCL	84	336	6	48	24	5
EXSTR	85	0	1
NMSCR	85	0	1	48	24	2
EXTAP	85	0	6
EXTAP	85	48	1
EXSTR	85	48	7
NMSI_	85	48	7	48	24	3
EXSTR	85	96	0
NMSI_	85	96	0	48	24	4
EXTAP	85	96	7
EXTAP	85	144	0
EXSTR	85	144	6
NMSCL	85	144	6	48	24	5
EXSTR	85	192	1
NMSCR	85	192	1	48	24	2
EXTAP	85	192	6
EXTAP	85	240	1
EXSTR	85	240	7
NMSI_	85	240	7	48	24	3
EXSTR	85	288	0
NMSI_	85	288	0	48	24	4
EXTAP	85	288	7
EXTAP	85	336	0
EXSTR	85	336	6
NMSCL	85	336	6	48	24	5
EXSTR	86	0	1
NMSCR	86	0	1	48	24	2
EXTAP	86	0	6
EXTAP	86	48	1
EXSTR	86	48	7
NMSI_	86	48	7	48	24	3
EXSTR	86	96	0
NMSI_	86	96	0	48	24	4
EXTAP	86	96	7
EXTAP	86	144	0
EXSTR	86	144	6
NMSCL	86	144	6	48	24	5
EXSTR	86	192	2
NMSI_	86	192	2	48	144	5
EXTAP	86	192	6
EXSTR	87	0	6
NMSI_	87	0	6	48	144	1
EXSTR	87	192	2
NMSXL	87	192	2	48	240	5
EXSTR	88	192	6
NMSI_	88	192	6	48	24	3
EXSTR	88	192	7
NMSI_	88	192	7	48	24	3
EXTAP	88	240	6
EXTAP	88	240	7
EXSTR	88	336	0
NMSI_	88	336	0	48	24	4
EXSTR	88	336	1
NMSI_	88	336	1	48	24	4
EXTAP	89	0	0
EXTAP	89	0	1
EXSTR	89	96	6
NMSI_	89	96	6	48	24	3
EXSTR	89	96	7
NMSI_	89	96	7	48	24	3
EXTAP	89	144	6
EXTAP	89	144	7
EXSTR	89	240	0
NMSI_	89	240	0	48	24	4
EXSTR	89	240	1
NMSI_	89	240	1	48	24	4
EXSTR	89	288	0
NMSCR	89	288	0	48	336	7
EXTAP	89	288	1
EXSTR	91	0	0
NMSI_	91	0	0	48	24	4
EXSTR	91	0	1
NMSI_	91	0	1	48	24	4
EXTAP	91	48	0
EXTAP	91	48	1
EXSTR	91	144	6
NMSI_	91	144	6	48	24	3
EXSTR	91	144	7
NMSI_	91	144	7	48	24	3
EXTAP	91	192	6
EXTAP	91	192	7
EXSTR	91	288	0
NMSI_	91	288	0	48	24	4
EXSTR	91	288	1
NMSI_	91	288	1	48	24	4
EXTAP	91	336	0
EXTAP	91	336	1
EXSTR	92	48	6
NMSI_	92	48	6	48	24	3
EXSTR	92	48	7
NMSI_	92	48	7	48	24	3
EXTAP	92	96	6
EXSTR	92	96	7
NMSCL	92	96	7	48	336	0
EXSTR	93	192	6
NMSI_	93	192	6	48	24	4
EXSTR	93	192	7
NMSI_	93	192	7	48	24	3
EXTAP	93	240	6
EXTAP	93	240	7
EXSTR	93	336	0
NMSI_	93	336	0	48	24	4
EXSTR	93	336	1
NMSI_	93	336	1	48	24	3
EXTAP	94	0	0
EXTAP	94	0	1
EXSTR	94	96	6
NMSCL	94	96	6	48	720	1
EXSTR	94	96	7
NMSUL	94	96	7	48	720	0
EXSTR	96	336	0
NMSUR	96	336	0	48	768	7
EXSTR	96	336	1
NMSCR	96	336	1	48	768	6
EXTAP	97	0	0
EXTAP	97	0	1
BXSTR	99	144	0
NMSI_	99	144	0	48	24	4

T_REC_TAP	0
T_REC_BRK	1
T_REC_XTP	67
T_REC_BXX	3
T_REC_HLD	0
T_REC_XHO	0
T_REC_BHO	0
T_REC_BXH	0
T_REC_STR	0
T_REC_BST	0
T_REC_XST	196
T_REC_XBS	5
T_REC_TTP	0
T_REC_THO	0
T_REC_SLD	202
T_REC_BSL	0
T_REC_ALL	474
T_NUM_TAP	263
T_NUM_BRK	9
T_NUM_HLD	0
T_NUM_SLD	202
T_NUM_ALL	474
T_JUDGE_TAP	272
T_JUDGE_HLD	0
T_JUDGE_SLD	202
T_JUDGE_ALL	474
TTM_EACHPAIRS	39
TTM_SCR_TAP	131500
TTM_SCR_BRK	23400
TTM_SCR_HLD	0
TTM_SCR_SLD	303000
TTM_SCR_ALL	457900
TTM_SCR_S	443300
TTM_SCR_SS	457000
TTM_RAT_ACV	10019

