VERSION	0.00.00	1.04.00
FES_MODE	0
BPM_DEF	187.000	187.000	187.000	187.000
MET_DEF	4	4
RESOLUTION	384
CLK_DEF	384
COMPATIBLE_CODE	MA2

BPM	0	0	187.000
MET	0	0	4	4

NMSTR	1	0	1
NMSI_	1	0	1	96	48	7
NMTAP	1	0	5
NMTAP	1	96	1
NMTAP	1	96	4
NMTAP	1	192	3
NMSTR	1	240	3
NMSI_	1	240	3	96	48	7
NMSTR	1	336	1
NMSI_	1	336	1	96	48	6
NMSTR	2	48	5
NMSI_	2	48	5	96	48	2
NMHLD	2	144	1	96
NMTAP	2	240	3
NMTAP	2	288	0
NMTAP	2	288	4
NMTAP	3	0	2
NMSTR	3	0	6
NMSI_	3	0	6	96	48	0
NMTAP	3	96	3
NMTAP	3	96	6
NMTAP	3	192	4
NMSTR	3	240	4
NMSI_	3	240	4	96	48	0
NMSTR	3	336	6
NMSI_	3	336	6	96	48	1
NMSTR	4	48	2
NMSI_	4	48	2	96	48	5
NMHLD	4	144	6	96
NMTAP	4	240	4
NMTAP	4	288	3
NMTAP	4	288	7
NMSTR	5	0	1
NMSI_	5	0	1	96	48	7
NMTAP	5	0	5
NMTAP	5	96	1
NMTAP	5	96	4
NMTAP	5	192	3
NMSTR	5	240	3
NMSI_	5	240	3	96	48	7
NMSTR	5	336	1
NMSI_	5	336	1	96	48	6
NMSTR	6	48	5
NMSI_	6	48	5	96	48	2
NMHLD	6	144	1	96
NMTAP	6	240	3
NMTAP	6	288	0
NMTAP	6	288	4
NMTAP	7	0	2
NMSTR	7	0	6
NMSI_	7	0	6	96	48	0
NMTAP	7	96	3
NMTAP	7	96	6
NMTAP	7	192	4
NMTAP	7	240	4
NMTAP	7	336	1
NMTAP	7	336	3
NMTAP	8	48	4
NMTAP	8	48	6
NMTAP	8	144	1
NMTAP	8	144	3
NMTAP	8	240	5
NMTAP	8	288	4
NMTAP	8	288	6
NMSTR	9	0	3
NMSI_	9	0	3	96	48	0
NMSTR	9	0	7
NMSI_	9	0	7	96	48	4
NMTAP	9	192	1
NMTAP	9	288	1
EXTAP	9	336	3
EXTAP	10	0	2
NMTAP	10	96	2
NMTAP	10	192	3
NMTAP	10	288	3
EXTAP	10	336	5
EXTAP	11	0	4
NMTAP	11	96	4
NMTAP	11	192	3
NMTAP	11	288	3
EXTAP	11	336	4
EXTAP	12	0	2
NMTAP	12	96	2
NMTAP	12	192	2
NMSTR	12	192	4
NMSI_	12	192	4	96	48	7
EXTAP	12	288	3
NMTAP	12	288	4
NMSTR	13	0	2
NMSCL	13	0	2	96	96	7
NMTAP	13	96	7
NMSTR	13	192	6
NMSCL	13	192	6	96	96	3
NMTAP	13	288	2
NMHLD	14	0	1	96
NMTAP	14	96	0
NMTAP	14	144	0
NMTAP	14	192	0
NMTAP	14	288	1
NMTAP	14	288	7
NMTAP	14	336	2
NMTAP	14	336	6
NMTAP	15	0	3
NMTAP	15	0	5
NMSTR	15	96	3
NMSI_	15	96	3	96	48	1
NMSLR	15	96	3	96	96	7
NMTAP	15	96	4
EXTAP	15	288	0
EXHLD	15	336	0	96
NMTAP	16	48	5
NMSTR	16	96	1
NMSI_	16	96	1	96	48	3
NMSTR	16	96	6
NMSI_	16	96	6	96	48	4
EXTAP	16	192	1
EXTAP	16	192	6
NMTAP	16	336	1
NMTAP	16	336	5
NMSTR	17	0	1
NMSI_	17	0	1	96	48	6
NMSTR	17	0	5
NMSI_	17	0	5	96	48	2
NMTAP	17	192	0
NMTAP	17	240	0
NMTAP	17	288	7
NMHLD	17	336	7	96
NMTAP	18	48	4
NMSTR	18	96	4
NMSCL	18	96	4	96	48	1
NMSTR	18	192	7
NMSCL	18	192	7	96	48	4
NMTAP	18	288	2
NMHLD	18	336	2	96
NMTAP	19	48	5
NMSTR	19	96	5
NMSCR	19	96	5	96	48	0
NMTAP	19	192	1
NMSTR	19	240	1
NMSCL	19	240	1	96	96	5
NMTAP	19	336	3
NMTAP	20	48	4
NMSTR	20	96	4
NMSF_	20	96	4	96	48	0
EXTAP	20	336	7
EXHLD	21	0	7	96
NMSTR	21	96	2
NMSCL	21	96	2	96	48	7
NMSTR	21	192	5
NMSCL	21	192	5	96	48	2
NMTAP	21	288	0
NMHLD	21	336	0	96
NMTAP	22	48	7
NMSTR	22	96	7
NMSI_	22	96	7	96	48	5
NMSTR	22	192	1
NMSI_	22	192	1	96	48	3
NMTAP	22	288	0
NMTAP	23	0	2
NMTAP	23	48	2
NMTAP	23	96	3
NMTAP	23	144	1
NMTAP	23	192	6
NMSTR	23	240	6
NMSCL	23	240	6	96	96	0
NMSTR	23	336	0
NMSSL	23	336	0	96	144	4
NMTAP	24	288	2
NMTAP	24	288	6
NMTAP	25	0	5
NMHLD	25	48	5	720
NMTAP	25	144	4
NMTAP	25	192	4
NMTAP	25	288	7
NMTAP	25	336	7
NMTTP	26	48	5	B	0	M1
NMTTP	26	48	5	E	0	M1
NMTTP	26	48	6	E	0	M1
NMTTP	26	144	2	B	0	M1
NMTTP	26	144	2	E	0	M1
NMTTP	26	144	3	E	0	M1
NMTAP	26	240	0
NMTAP	26	288	0
NMTAP	27	0	2
NMHLD	27	48	2	720
NMTAP	27	144	3
NMTAP	27	192	3
NMTAP	27	288	0
NMTAP	27	336	0
NMTTP	28	48	2	B	0	M1
NMTTP	28	48	2	E	0	M1
NMTTP	28	48	3	E	0	M1
NMTTP	28	144	5	B	0	M1
NMTTP	28	144	5	E	0	M1
NMTTP	28	144	6	E	0	M1
NMTAP	28	240	7
NMTAP	28	288	7
NMHLD	29	0	5	576
NMTAP	29	96	4
NMTAP	29	192	4
NMTAP	29	288	4
NMTAP	30	0	4
NMTAP	30	96	4
NMTAP	30	192	4
NMTAP	30	288	3
NMTAP	30	288	4
NMTAP	30	336	2
NMTAP	30	336	5
NMTAP	31	0	1
NMTAP	31	0	6
NMTAP	31	96	2
NMTAP	31	96	5
NMTAP	31	144	2
NMTAP	31	144	5
NMSTR	31	240	0
NMSI_	31	240	0	96	48	4
NMSTR	31	240	7
NMSI_	31	240	7	96	48	3
EXTAP	31	336	0
EXTAP	31	336	7
NMTTP	32	96	3	B	0	M1
NMTTP	32	96	3	E	0	M1
NMTTP	32	96	4	B	0	M1
NMTTP	32	96	5	E	0	M1
EXTAP	32	192	0
EXTAP	32	204	1
EXTAP	32	216	2
EXTAP	32	228	3
EXTAP	32	240	4
EXTAP	32	252	5
EXTAP	32	264	6
EXTAP	32	276	7
EXTAP	32	288	0
NMTAP	33	0	2
NMTAP	33	0	5
NMHLD	33	96	1	576
NMTAP	33	96	4
NMTAP	33	144	4
NMTAP	33	192	3
NMTAP	33	240	2
NMSTR	33	288	0
NMSI_	33	288	0	96	48	2
NMSTR	34	0	0
NMSI_	34	0	0	96	48	5
NMSTR	34	96	0
NMSI_	34	96	0	96	48	2
NMSTR	34	192	0
NMSI_	34	192	0	96	48	5
NMTAP	34	288	0
NMTAP	35	0	2
NMTAP	35	0	6
NMTAP	35	48	3
NMTAP	35	48	7
NMSTR	35	96	0
NMSCL	35	96	0	96	48	5
NMSTR	35	96	4
NMSCL	35	96	4	96	48	1
NMTAP	35	192	0
NMTAP	35	192	4
NMTAP	35	288	2
NMTAP	35	288	6
NMTAP	35	336	2
NMTAP	35	336	6
BRTAP	36	48	1
BRTAP	36	96	3
BRTAP	36	144	5
BRTAP	36	192	7
EXTAP	36	240	0
EXSTR	36	288	0
NMSCR	36	288	0	96	96	4
NMSTR	37	0	4
NMSLL	37	0	4	96	96	0
NMTAP	37	96	6
NMTAP	37	192	7
NMTAP	37	240	7
NMSTR	37	288	1
NMSI_	37	288	1	96	48	7
NMSTR	38	0	6
NMSI_	38	0	6	96	48	2
NMSTR	38	96	3
NMSI_	38	96	3	96	48	5
NMTAP	38	192	6
NMTAP	38	288	7
NMTAP	38	336	7
EXSTR	39	0	0
NMSCL	39	0	0	96	96	4
EXSTR	39	96	4
NMSCL	39	96	4	96	96	0
EXSTR	39	192	0
NMSCL	39	192	0	96	96	4
EXSTR	39	288	4
NMSCL	39	288	4	96	192	4
NMTTP	40	0	0	C	1	M1
EXTAP	40	288	2
NMHLD	40	288	7	480
NMSTR	41	0	4
NMSI_	41	0	4	96	48	2
NMSTR	41	192	0
NMSI_	41	192	0	96	48	2
NMSTR	42	0	3
NMSCL	42	0	3	96	48	0
NMTAP	42	96	6
NMSTR	42	144	6
NMSCL	42	144	6	96	48	3
NMTAP	42	240	0
NMHLD	42	288	0	480
NMSTR	43	0	3
NMSI_	43	0	3	96	48	5
NMSTR	43	192	7
NMSI_	43	192	7	96	48	5
NMSTR	44	0	4
NMSCR	44	0	4	96	48	6
NMTAP	44	96	1
NMSTR	44	144	1
NMSI_	44	144	1	96	48	3
NMTAP	44	240	5
NMHLD	44	288	5	480
NMSTR	45	0	0
NMSI_	45	0	0	96	48	2
NMSTR	45	192	3
NMSI_	45	192	3	96	48	1
NMSTR	46	0	0
NMSCR	46	0	0	96	48	3
NMTAP	46	96	4
NMSTR	46	144	4
NMSCR	46	144	4	96	48	7
NMTAP	46	240	3
NMTAP	46	288	3
NMTAP	47	0	2
NMTAP	47	48	2
NMTAP	47	96	4
NMTAP	47	144	4
NMTAP	47	192	3
NMTAP	47	240	3
NMSTR	47	288	2
NMSV_	47	288	2	96	96	7
NMSTR	47	288	4
NMSV_	47	288	4	96	96	7
NMSTR	48	192	0
NMSI_	48	192	0	96	48	3
NMTAP	48	192	5
BRTAP	48	288	0
NMSTR	48	288	6
NMSXR	48	288	6	96	384	3
NMHLD	49	0	2	64
NMHLD	49	96	2	64
EXHLD	49	192	1	64
EXHLD	49	288	1	64
NMTAP	50	0	0
NMSTR	50	96	1
NMSXL	50	96	1	96	96	1
NMSTR	50	96	7
NMSXR	50	96	7	96	96	7
NMTAP	51	0	2
NMTAP	51	0	6
NMTAP	51	32	2
NMTAP	51	32	6
NMTAP	51	64	2
NMTAP	51	64	6
NMSTR	51	96	2
NMSCR	51	96	2	96	48	4
NMSTR	51	96	6
NMSCL	51	96	6	96	48	4
NMSTR	51	192	2
NMSCL	51	192	2	96	48	0
NMSTR	51	192	6
NMSCR	51	192	6	96	48	0
EXTAP	51	288	2
EXTAP	51	288	6
NMHLD	52	0	2	64
NMHLD	52	0	6	64
NMSTR	52	96	0
NMSCR	52	96	0	96	48	3
NMSTR	52	96	4
NMSCR	52	96	4	96	48	7
EXSTR	52	288	6
NMSXL	52	288	6	96	384	4
NMHLD	53	0	3	64
NMHLD	53	96	3	64
EXHLD	53	192	2	64
EXHLD	53	288	2	64
NMTAP	54	0	1
NMSTR	54	96	1
NMSXR	54	96	1	96	96	1
NMSTR	54	96	4
NMSXL	54	96	4	96	96	4
NMSTR	55	0	7
NMSI_	55	0	7	96	48	4
NMSUL	55	0	7	96	48	2
NMSTR	55	192	1
NMSI_	55	192	1	96	48	6
NMSUL	55	192	1	96	48	4
NMSTR	56	0	3
NMSI_	56	0	3	96	48	0
NMSUL	56	0	3	96	48	6
NMSTR	56	192	5
NMSI_	56	192	5	96	48	2
NMSUL	56	192	5	96	48	0
BRTAP	57	0	7
NMHLD	59	0	2	96
NMTAP	59	0	3
NMTAP	59	48	3
NMTAP	59	96	4
NMTAP	59	192	4
NMHLD	59	192	5	96
NMTAP	59	240	4
NMTAP	59	288	3
NMSTR	59	336	2
NMSI_	59	336	2	96	48	4
NMTAP	60	48	6
NMSTR	60	96	6
NMSI_	60	96	6	96	48	0
NMHLD	60	192	3	96
NMTAP	60	288	7
NMSTR	60	336	7
NMSI_	60	336	7	96	48	5
NMSTR	61	48	4
NMSI_	61	48	4	96	48	2
NMTAP	61	144	6
NMSTR	61	192	6
NMSCR	61	192	6	96	48	1
NMTAP	61	288	3
NMSTR	61	336	3
NMSI_	61	336	3	96	48	0
NMTAP	62	48	7
NMTAP	62	96	7
NMTAP	62	192	1
NMTAP	62	192	6
NMTAP	62	288	3
NMTAP	62	288	4
NMTAP	63	0	4
NMHLD	63	0	6	96
NMTAP	63	48	3
NMTAP	63	96	2
NMHLD	63	192	1	96
NMTAP	63	192	3
NMTAP	63	240	4
NMTAP	63	288	5
NMSTR	63	336	5
NMSI_	63	336	5	96	48	3
NMTAP	64	48	1
NMSTR	64	96	1
NMSI_	64	96	1	96	48	7
NMHLD	64	192	4	96
NMTAP	64	288	0
NMSTR	64	336	0
NMSI_	64	336	0	96	48	3
NMSTR	65	48	4
NMSI_	65	48	4	96	48	7
NMTAP	65	144	1
NMSTR	65	192	1
NMSCL	65	192	1	96	48	6
NMTAP	65	288	3
NMSTR	65	336	3
NMSCR	65	336	3	96	48	6
NMTAP	66	48	2
NMTAP	66	96	2
NMTAP	66	192	1
NMTAP	66	192	5
NMTAP	66	336	0
NMSTR	67	0	0
NMSI_	67	0	0	96	48	4
NMSTR	67	96	6
NMSI_	67	96	6	96	48	2
NMTAP	67	192	1
NMTAP	67	288	7
NMSTR	67	336	7
NMSCL	67	336	7	96	96	3
NMSTR	68	48	3
NMSLL	68	48	3	96	96	7
NMSTR	68	144	7
NMSCL	68	144	7	96	96	3
NMTAP	68	240	3
NMTAP	68	336	7
NMTAP	69	0	7
NMTAP	69	96	0
NMTAP	69	96	6
NMTAP	69	192	1
NMTAP	69	192	5
NMTAP	69	288	2
NMSTR	69	288	4
NMSCR	69	288	4	96	48	7
NMSTR	70	0	4
NMSCL	70	0	4	96	48	1
NMSTR	70	96	4
NMSI_	70	96	4	96	48	0
NMTAP	70	192	4
NMTAP	70	288	2
NMHLD	70	288	7	96
NMTAP	71	0	4
NMTAP	71	96	4
BRTAP	71	192	3
NMHLD	71	192	5	96
NMTAP	71	288	3
BRTAP	72	0	4
NMHLD	72	0	6	96
NMTAP	72	96	4
BRTAP	72	192	5
NMHLD	72	192	7	96
NMTAP	72	288	5
NMTAP	73	0	0
NMTTP	73	72	4	B	0	M1
NMTTP	73	72	4	E	0	M1
NMTTP	73	72	5	E	0	M1
NMTTP	73	144	1	B	0	M1
NMTTP	73	144	1	E	0	M1
NMTTP	73	144	2	E	0	M1
NMTAP	73	192	7
NMTTP	73	264	3	B	0	M1
NMTTP	73	264	3	E	0	M1
NMTTP	73	264	4	E	0	M1
NMTTP	73	336	6	B	0	M1
NMTTP	73	336	6	E	0	M1
NMTTP	73	336	7	E	0	M1
NMHLD	74	0	0	384
NMTTP	74	336	4	E	0	M1
NMTTP	74	360	5	E	0	M1
NMTTP	75	0	6	E	0	M1
NMSTR	76	0	7
NMSI_	76	0	7	96	576	4
NMSTR	78	0	0
NMSI_	78	0	0	96	576	3
NMTTP	79	0	6	B	0	M1
NMTTP	79	192	5	E	0	M1
NMTAP	80	0	5
NMSTR	80	96	3
NMSCL	80	96	3	96	96	0
NMTAP	80	96	5
NMTAP	80	192	5
NMTAP	80	288	5
NMTAP	81	0	0
NMTAP	81	96	1
NMSTR	81	96	4
NMSCR	81	96	4	96	96	7
NMTAP	81	192	2
NMTAP	81	288	3
NMTAP	82	0	7
NMTAP	82	96	6
NMTAP	82	192	3
NMTAP	82	192	5
NMTAP	82	288	3
NMTAP	82	288	4
EXTAP	83	0	2
EXTAP	83	0	5
EXTAP	83	48	2
EXTAP	83	48	5
NMSTR	83	192	0
NMSI_	83	192	0	96	48	4
NMSTR	83	192	7
NMSI_	83	192	7	96	48	3
BRTAP	83	288	0
BRTAP	83	288	7
NMTAP	84	0	1
NMTAP	84	0	6
NMTAP	84	72	4
NMTAP	84	96	3
NMTAP	84	144	3
NMTAP	84	192	2
NMTAP	84	192	5
NMTAP	84	240	1
NMTAP	84	240	6
NMSTR	84	288	0
NMSI_	84	288	0	96	48	2
NMSTR	84	288	7
NMSI_	84	288	7	96	48	3
NMSTR	85	0	0
NMSI_	85	0	0	96	48	4
NMSTR	85	0	7
NMSI_	85	0	7	96	48	5
NMSTR	85	96	0
NMSI_	85	96	0	96	48	2
NMSTR	85	96	7
NMSI_	85	96	7	96	48	3
NMSTR	85	192	0
NMSI_	85	192	0	96	48	4
NMSTR	85	192	7
NMSI_	85	192	7	96	48	5
NMTAP	85	288	0
NMTAP	85	288	7
NMTAP	86	0	2
NMTAP	86	0	6
NMTAP	86	48	3
NMTAP	86	48	7
NMSTR	86	96	0
NMSCL	86	96	0	96	48	5
NMSTR	86	96	4
NMSCL	86	96	4	96	48	1
NMTAP	86	192	0
NMTAP	86	192	4
NMTAP	86	288	2
NMTAP	86	288	6
NMTAP	86	336	2
NMTAP	86	336	6
BRTAP	87	48	1
BRTAP	87	96	3
BRTAP	87	144	5
BRTAP	87	192	7
EXTAP	87	240	0
EXSTR	87	288	0
NMSLR	87	288	0	96	96	4
NMSTR	88	0	4
NMSCL	88	0	4	96	96	0
NMTAP	88	96	6
NMTAP	88	192	7
NMTAP	88	240	7
NMSTR	88	288	1
NMSI_	88	288	1	96	48	7
NMSTR	89	0	6
NMSI_	89	0	6	96	48	2
NMSTR	89	96	3
NMSI_	89	96	3	96	48	5
NMTAP	89	192	6
NMTAP	89	288	7
NMTAP	89	336	7
NMSTR	90	0	1
NMSI_	90	0	1	96	48	5
NMTAP	90	0	6
NMTAP	90	96	7
NMSTR	90	144	7
NMSI_	90	144	7	96	48	3
NMTAP	90	240	0
NMTAP	90	288	0
NMTAP	90	336	4
NMTTP	91	0	2	E	0	M1
NMTTP	91	24	2	B	0	M1
NMTTP	91	48	3	B	0	M1
NMTTP	91	72	4	E	0	M1
NMTTP	91	96	6	E	0	M1
NMTTP	91	120	6	B	0	M1
NMTTP	91	144	7	B	0	M1
NMTTP	91	168	0	E	0	M1
NMTTP	91	192	1	E	0	M1
NMTTP	91	216	1	B	0	M1
NMTTP	91	240	2	B	0	M1
NMTTP	91	264	3	E	0	M1
NMTTP	91	288	7	E	0	M1
NMTTP	91	312	6	B	0	M1
NMTTP	91	336	5	B	0	M1
NMTTP	91	360	5	E	0	M1
NMHLD	92	0	0	384
NMSTR	92	192	7
NMSI_	92	192	7	96	48	5
NMSTR	93	0	4
NMSCR	93	0	4	96	48	7
NMTAP	93	96	1
NMSTR	93	144	1
NMSCR	93	144	1	96	48	4
NMTAP	93	240	6
NMTAP	93	288	6
NMSTR	94	0	4
NMSI_	94	0	4	96	48	2
NMHLD	94	0	7	384
NMSTR	94	192	0
NMSI_	94	192	0	96	48	2
NMSTR	95	0	3
NMSCL	95	0	3	96	48	1
NMTAP	95	96	6
NMSTR	95	144	6
NMSI_	95	144	6	96	48	4
NMTAP	95	240	3
NMTAP	95	288	3
NMHLD	96	0	2	384
NMSTR	96	0	6
NMSI_	96	0	6	96	48	4
NMSTR	96	192	3
NMSI_	96	192	3	96	48	5
NMSTR	97	0	7
NMSCL	97	0	7	96	48	4
NMTAP	97	96	3
NMSTR	97	144	3
NMSCL	97	144	3	96	48	0
NMTAP	97	240	4
NMTAP	97	288	4
NMTAP	98	0	5
NMTAP	98	48	5
NMTAP	98	96	3
NMTAP	98	144	3
NMTAP	98	192	4
NMTAP	98	240	4
NMSTR	98	288	3
NMSV_	98	288	3	96	96	0
NMSTR	98	288	5
NMSV_	98	288	5	96	96	0
NMSTR	99	192	0
NMSI_	99	192	0	96	48	4
NMTAP	99	240	4
NMTAP	99	264	4
BRTAP	99	288	0
NMSTR	100	0	6
NMSI_	100	0	6	96	48	2
NMSTR	100	96	7
NMSI_	100	96	7	96	48	3
NMSTR	100	192	0
NMSI_	100	192	0	96	48	4
NMSTR	100	288	1
NMSI_	100	288	1	96	48	5
NMSTR	101	0	2
NMSI_	101	0	2	96	48	6
NMSTR	101	96	3
NMSI_	101	96	3	96	48	7
NMTAP	101	192	4
NMTAP	101	288	0
NMSTR	101	288	5
NMSCR	101	288	5	96	96	1
NMTAP	102	0	4
NMSTR	102	96	3
NMSCL	102	96	3	96	96	7
NMTAP	102	144	3
NMTAP	102	192	4
NMSTR	102	288	5
NMSCR	102	288	5	96	96	1
NMTAP	102	336	5
NMTAP	103	0	4
NMSTR	103	96	3
NMSUR	103	96	3	96	48	7
NMTAP	103	144	3
NMHLD	103	192	6	96
EXTAP	103	288	0
NMSTR	104	0	1
NMSI_	104	0	1	96	48	5
NMSTR	104	96	0
NMSI_	104	96	0	96	48	4
NMSTR	104	192	7
NMSI_	104	192	7	96	48	3
NMSTR	104	288	6
NMSI_	104	288	6	96	48	2
NMSTR	105	0	5
NMSI_	105	0	5	96	48	1
NMSTR	105	96	4
NMSI_	105	96	4	96	48	0
NMTAP	105	192	3
NMSTR	105	288	3
NMSCR	105	288	3	96	96	7
NMSTR	106	0	7
NMSCR	106	0	7	96	96	3
NMSTR	106	96	3
NMSCR	106	96	3	96	96	7
NMSTR	106	192	7
NMSCR	106	192	7	96	96	3
NMSTR	106	288	3
NMSCR	106	288	3	96	192	3
NMTTP	107	0	0	C	1	M1
NMTAP	107	288	0
NMTAP	107	288	6
NMSTR	108	0	1
NMSI_	108	0	1	96	48	5
NMSTR	108	96	0
NMSI_	108	96	0	96	48	4
NMSTR	108	192	7
NMSI_	108	192	7	96	48	3
NMSTR	108	288	6
NMSI_	108	288	6	96	48	2
NMSTR	109	0	5
NMSI_	109	0	5	96	48	1
NMSTR	109	96	4
NMSI_	109	96	4	96	48	0
NMTAP	109	192	3
NMSTR	109	288	2
NMSCL	109	288	2	96	96	6
NMTAP	109	288	7
NMTAP	110	0	3
NMSTR	110	96	4
NMSCR	110	96	4	96	96	0
NMTAP	110	144	4
NMTAP	110	192	3
NMSTR	110	288	2
NMSCL	110	288	2	96	96	6
NMTAP	110	336	2
NMTAP	111	0	3
NMSTR	111	96	4
NMSUL	111	96	4	96	48	0
NMTAP	111	144	4
NMHLD	111	192	1	96
EXTAP	111	288	7
NMSTR	112	0	6
NMSI_	112	0	6	96	48	3
NMSTR	112	96	1
NMSI_	112	96	1	96	48	4
NMTAP	112	96	6
NMTAP	112	192	1
NMSTR	112	192	7
NMSI_	112	192	7	96	48	3
NMSTR	112	288	0
NMSI_	112	288	0	96	48	4
NMTAP	112	288	7
NMTAP	113	0	0
NMSTR	113	0	7
NMSI_	113	0	7	96	48	2
NMSTR	113	96	0
NMSI_	113	96	0	96	48	5
NMTAP	113	96	7
NMTAP	113	192	0
NMTAP	113	192	6
NMTAP	113	288	7
NMTAP	113	336	7
NMTAP	114	0	4
NMTAP	114	0	6
NMTAP	114	48	3
NMTAP	114	96	2
NMTAP	114	144	1
NMTAP	114	144	3
NMTAP	114	192	4
NMTAP	114	240	5
NMTAP	114	288	4
NMTAP	114	288	6
NMTAP	114	336	7
NMSTR	115	0	0
NMSI_	115	0	0	96	48	3
NMSTR	115	0	7
NMSI_	115	0	7	96	48	4
EXTAP	115	96	0
EXTAP	115	96	7
NMTAP	115	192	2
NMTAP	115	192	5
NMTAP	115	240	1
NMTAP	115	240	6
NMTAP	115	288	0
NMTAP	115	288	7
NMSTR	116	0	3
NMSI_	116	0	3	96	48	0
NMSTR	116	0	4
NMSI_	116	0	4	96	48	7
EXTAP	116	96	3
EXTAP	116	96	4
NMTAP	116	192	1
NMTAP	116	192	6
NMTAP	116	240	1
NMSTR	116	240	6
NMSI_	116	240	6	96	48	2
NMSTR	116	336	0
NMSI_	116	336	0	96	48	4
NMSTR	117	48	5
NMSI_	117	48	5	96	48	2
NMHLD	117	144	1	96
NMTAP	117	240	7
NMTAP	117	288	3
NMTAP	117	288	5
NMTAP	118	0	2
NMSTR	118	0	6
NMSI_	118	0	6	96	48	0
NMTAP	118	96	3
NMTAP	118	96	6
NMTAP	118	192	4
NMSTR	118	240	4
NMSI_	118	240	4	96	48	0
NMSTR	118	336	6
NMSI_	118	336	6	96	48	1
NMSTR	119	48	2
NMSI_	119	48	2	96	48	5
NMHLD	119	144	6	96
NMTAP	119	240	0
NMTAP	119	288	2
NMTAP	119	288	4
NMSTR	120	0	1
NMSI_	120	0	1	96	48	7
NMTAP	120	0	5
NMTAP	120	96	1
NMTAP	120	96	4
NMTAP	120	192	3
NMSTR	120	240	3
NMSI_	120	240	3	96	48	7
NMSTR	120	336	1
NMSI_	120	336	1	96	48	6
NMSTR	121	48	5
NMSI_	121	48	5	96	48	2
NMHLD	121	144	1	96
NMTAP	121	240	7
NMTAP	121	288	0
NMTAP	121	288	6
NMSTR	122	0	1
NMSI_	122	0	1	96	48	4
NMSTR	122	0	5
NMSI_	122	0	5	96	48	0
NMTAP	122	192	2
NMTAP	122	192	6
NMHLD	122	240	2	48
NMHLD	122	240	6	48
NMHLD	122	336	1	48
NMHLD	122	336	5	48
NMHLD	123	48	0	48
NMHLD	123	48	4	48
NMTAP	123	144	3
BRSTR	123	144	7
BRSLR	123	144	7	96	72	4

T_REC_TAP	336
T_REC_BRK	16
T_REC_XTP	37
T_REC_BXX	0
T_REC_HLD	45
T_REC_XHO	6
T_REC_BHO	0
T_REC_BXH	0
T_REC_STR	186
T_REC_BST	1
T_REC_XST	7
T_REC_XBS	0
T_REC_TTP	51
T_REC_THO	0
T_REC_SLD	198
T_REC_BSL	1
T_REC_ALL	884
T_NUM_TAP	617
T_NUM_BRK	18
T_NUM_HLD	51
T_NUM_SLD	198
T_NUM_ALL	884
T_JUDGE_TAP	634
T_JUDGE_HLD	190
T_JUDGE_SLD	199
T_JUDGE_ALL	1023
TTM_EACHPAIRS	130
TTM_SCR_TAP	308500
TTM_SCR_BRK	46800
TTM_SCR_HLD	51000
TTM_SCR_SLD	297000
TTM_SCR_ALL	703300
TTM_SCR_S	680500
TTM_SCR_SS	701500
TTM_RAT_ACV	10025

