VERSION	0.00.00	1.04.00
FES_MODE	1
BPM_DEF	155.000	155.000	155.000	155.000
MET_DEF	4	4
RESOLUTION	384
CLK_DEF	384
COMPATIBLE_CODE	MA2

BPM	0	0	155.000
MET	0	0	4	4

NMHLD	2	0	6	768
NMTAP	2	192	2
NMTAP	2	240	3
NMTAP	2	288	2
NMTAP	2	336	3
NMTAP	3	0	2
NMTAP	3	48	3
NMTAP	3	96	2
NMTAP	3	144	3
NMTAP	3	192	2
NMHLD	4	0	1	768
NMTAP	4	192	5
NMTAP	4	240	4
NMTAP	4	288	5
NMTAP	4	336	4
NMTAP	5	0	5
NMTAP	5	48	4
NMTAP	5	96	5
NMTAP	5	144	4
NMTAP	5	192	5
NMHLD	6	0	6	384
NMTAP	6	96	2
NMTAP	6	144	3
NMTAP	6	192	2
NMTAP	6	240	3
NMTAP	6	288	2
NMHLD	7	0	1	384
NMTAP	7	96	5
NMTAP	7	144	4
NMTAP	7	192	5
NMTAP	7	240	4
NMTAP	7	288	5
NMHLD	8	0	6	384
NMTAP	8	96	2
NMTAP	8	144	3
NMTAP	8	192	2
NMTAP	8	240	3
NMTAP	8	288	2
BRTAP	9	0	0
NMTAP	10	0	2
NMHLD	10	0	6	672
NMTAP	10	48	2
NMTAP	10	96	2
NMTAP	10	144	2
NMTAP	10	192	2
NMTAP	10	216	3
NMTAP	10	240	2
NMTAP	10	264	3
NMTAP	10	288	2
NMTAP	10	336	2
NMTAP	11	0	2
NMTAP	11	48	2
NMTAP	11	96	2
NMTAP	11	144	2
NMTAP	11	192	2
NMTAP	11	216	3
NMTAP	11	240	2
NMTAP	11	264	3
NMTAP	11	288	2
NMTAP	11	336	1
NMHLD	12	0	1	672
NMTAP	12	0	5
NMTAP	12	48	5
NMTAP	12	96	5
NMTAP	12	144	5
NMTAP	12	192	5
NMTAP	12	216	4
NMTAP	12	240	5
NMTAP	12	264	4
NMTAP	12	288	5
NMTAP	12	336	5
NMTAP	13	0	5
NMTAP	13	48	5
NMTAP	13	96	5
NMTAP	13	144	5
NMTAP	13	192	5
NMTAP	13	216	4
NMTAP	13	240	5
NMTAP	13	264	4
NMTAP	13	288	5
NMTAP	13	336	6
NMTAP	14	0	2
NMHLD	14	0	6	672
NMTAP	14	48	2
NMTAP	14	96	2
NMTAP	14	144	2
NMTAP	14	192	2
NMTAP	14	216	3
NMTAP	14	240	2
NMTAP	14	264	3
NMTAP	14	288	2
NMTAP	14	336	2
NMTAP	15	0	2
NMTAP	15	48	2
NMTAP	15	96	2
NMTAP	15	144	2
NMTAP	15	192	2
NMTAP	15	216	3
NMTAP	15	240	2
NMTAP	15	264	3
NMTAP	15	288	2
NMTAP	15	336	1
NMHLD	16	0	1	672
EXTAP	16	0	5
NMTAP	16	24	4
NMTAP	16	48	5
NMTAP	16	72	4
NMTAP	16	96	5
EXTAP	16	144	5
NMTAP	16	192	5
NMTAP	16	240	5
EXTAP	16	288	5
NMTAP	16	312	4
NMTAP	16	336	5
NMTAP	16	360	4
NMTAP	17	0	5
EXTAP	17	48	5
NMTAP	17	96	5
NMTAP	17	144	5
EXTAP	17	192	5
NMTAP	17	216	4
NMTAP	17	240	5
NMTAP	17	264	4
NMTAP	17	288	5
NMTAP	17	336	0
NMSTR	18	0	0
NMSXL	18	0	0	96	192	4
NMTTP	18	96	0	C	1	M1
BRHLD	18	288	7	1440
NMTAP	19	0	2
NMTAP	19	48	2
NMTAP	19	96	2
NMTAP	19	120	3
NMTAP	19	144	2
NMTAP	19	168	3
NMTAP	19	192	2
NMTAP	19	216	3
NMTAP	19	240	2
NMTAP	19	264	3
NMTAP	19	288	2
NMTAP	19	336	2
NMTAP	20	0	2
NMTAP	20	48	2
NMTAP	20	96	2
NMTAP	20	120	3
NMTAP	20	144	2
NMTAP	20	168	3
NMTAP	20	192	2
NMTAP	20	216	3
NMTAP	20	240	2
NMTAP	20	264	3
NMTAP	20	288	2
NMTAP	20	336	2
NMTAP	21	0	2
NMTAP	21	48	2
NMTAP	21	96	2
NMTAP	21	120	3
NMTAP	21	144	2
NMTAP	21	168	3
NMTAP	21	192	2
NMTAP	21	216	3
NMTAP	21	240	2
NMTAP	21	264	3
NMTAP	21	288	2
NMTAP	21	336	2
NMTAP	22	0	2
NMTAP	22	48	2
NMTAP	22	96	2
NMTAP	22	120	3
NMTAP	22	144	2
NMTAP	22	168	3
NMTAP	22	192	2
NMTAP	22	240	1
NMHLD	22	288	0	1440
NMTAP	23	0	5
NMTAP	23	48	5
NMTAP	23	96	5
NMTAP	23	120	4
NMTAP	23	144	5
NMTAP	23	168	4
NMTAP	23	192	5
NMTAP	23	216	4
NMTAP	23	240	5
NMTAP	23	264	4
NMTAP	23	288	5
NMTAP	23	336	5
NMTAP	24	0	5
NMTAP	24	48	5
NMTAP	24	96	5
NMTAP	24	120	4
NMTAP	24	144	5
NMTAP	24	168	4
NMTAP	24	192	5
NMTAP	24	216	4
NMTAP	24	240	5
NMTAP	24	264	4
NMTAP	24	288	5
NMTAP	24	336	5
NMTAP	25	0	5
NMTAP	25	48	5
NMTAP	25	96	5
NMTAP	25	120	4
NMTAP	25	144	5
NMTAP	25	168	4
NMTAP	25	192	5
NMTAP	25	216	4
NMTAP	25	240	5
NMTAP	25	264	4
NMTAP	25	288	5
NMTAP	25	336	5
NMTAP	26	0	5
NMTAP	26	48	5
NMTAP	26	96	5
NMTAP	26	120	4
NMTAP	26	144	5
NMTAP	26	168	4
BRTAP	26	192	5
NMTAP	27	0	1
NMSTR	27	0	7
NMSCL	27	0	7	96	96	4
NMHLD	27	192	3	480
NMTAP	28	0	5
NMTAP	28	96	6
NMTAP	28	192	6
NMTAP	28	216	5
NMTAP	28	240	6
NMTAP	28	264	5
NMTAP	28	288	6
NMSTR	29	0	0
NMSCR	29	0	0	96	96	3
NMTAP	29	0	6
NMHLD	29	192	4	480
NMTAP	30	0	2
NMTAP	30	96	1
NMTAP	30	192	1
NMTAP	30	216	2
NMTAP	30	240	1
NMTAP	30	264	2
NMTAP	30	288	1
NMTAP	31	0	1
NMSTR	31	0	7
NMSCL	31	0	7	96	96	4
NMHLD	31	192	3	480
NMTAP	32	0	5
NMTAP	32	96	6
NMTAP	32	192	6
NMTAP	32	216	5
NMTAP	32	240	6
NMTAP	32	264	5
NMTAP	32	288	6
NMSTR	33	0	0
NMSCR	33	0	0	96	96	3
NMTAP	33	0	6
NMHLD	33	192	4	480
NMTAP	34	0	2
NMTAP	34	96	1
NMTAP	34	192	1
NMTAP	34	216	2
NMTAP	34	240	1
NMTAP	34	264	2
NMTAP	34	288	1
NMHLD	35	0	1	288
NMTAP	35	0	5
NMTAP	35	24	4
NMTAP	35	48	5
NMTAP	35	72	4
NMTAP	35	96	5
NMTAP	35	120	4
NMTAP	35	144	5
NMTAP	35	168	4
NMTAP	35	192	5
NMTAP	35	216	4
NMTAP	35	240	5
NMTAP	35	264	4
NMTAP	35	288	5
NMTAP	35	336	5
NMHLD	36	0	0	288
NMTAP	36	0	5
NMTAP	36	24	4
NMTAP	36	48	5
NMTAP	36	72	4
NMTAP	36	96	5
NMTAP	36	120	4
NMTAP	36	144	5
NMTAP	36	168	4
NMTAP	36	192	5
NMTAP	36	216	4
NMTAP	36	240	5
NMTAP	36	264	4
NMTAP	36	288	5
NMTAP	36	336	5
NMTAP	37	0	5
NMHLD	37	0	7	288
NMTAP	37	24	4
NMTAP	37	48	5
NMTAP	37	72	4
NMTAP	37	96	5
NMTAP	37	120	4
NMTAP	37	144	5
NMTAP	37	168	4
NMTAP	37	192	5
NMTAP	37	216	4
NMTAP	37	240	5
NMTAP	37	264	4
NMTAP	37	288	5
NMTAP	37	336	5
NMSTR	38	0	0
NMSI_	38	0	0	96	192	3
NMTAP	38	0	5
NMTAP	38	24	4
NMTAP	38	48	5
NMTAP	38	72	4
NMTAP	38	96	5
NMTAP	38	120	4
NMTAP	38	144	5
NMTAP	38	168	4
NMTAP	38	192	5
NMTAP	38	216	4
NMTAP	38	240	5
NMTAP	38	264	4
NMTAP	38	288	5
NMTAP	39	0	2
NMHLD	39	0	6	288
NMTAP	39	24	3
NMTAP	39	48	2
NMTAP	39	72	3
NMTAP	39	96	2
NMTAP	39	120	3
NMTAP	39	144	2
NMTAP	39	168	3
NMTAP	39	192	2
NMTAP	39	216	3
NMTAP	39	240	2
NMTAP	39	264	3
NMTAP	39	288	2
NMTAP	39	336	2
NMTAP	40	0	2
NMHLD	40	0	7	288
NMTAP	40	24	3
NMTAP	40	48	2
NMTAP	40	72	3
NMTAP	40	96	2
NMTAP	40	120	3
NMTAP	40	144	2
NMTAP	40	168	3
NMTAP	40	192	2
NMTAP	40	216	3
NMTAP	40	240	2
NMTAP	40	264	3
NMTAP	40	288	2
NMTAP	40	336	2
NMHLD	41	0	0	288
NMTAP	41	0	2
NMTAP	41	24	3
NMTAP	41	48	2
NMTAP	41	72	3
NMTAP	41	96	2
NMTAP	41	120	3
NMTAP	41	144	2
NMTAP	41	168	3
NMTAP	41	192	2
NMTAP	41	216	3
NMTAP	41	240	2
NMTAP	41	264	3
NMTAP	41	288	2
NMTAP	41	336	2
NMTAP	42	0	2
NMSTR	42	0	7
NMSI_	42	0	7	96	192	4
NMTAP	42	24	3
NMTAP	42	48	2
NMTAP	42	72	3
NMTAP	42	96	2
NMTAP	42	120	3
NMTAP	42	144	2
NMTAP	42	168	3
NMTAP	42	192	2
NMTAP	42	216	3
NMTAP	42	240	2
NMTAP	42	264	3
NMTAP	42	288	2
NMTAP	43	0	2
NMHLD	43	0	4	96
NMTAP	43	24	3
NMTAP	43	48	2
NMTAP	43	72	3
NMTAP	43	96	2
NMTAP	43	120	3
NMTAP	43	144	2
NMTAP	43	168	3
NMTAP	43	192	2
NMHLD	43	192	6	96
NMTAP	43	216	3
NMTAP	43	240	2
NMTAP	43	264	3
NMTAP	43	288	2
NMTAP	43	312	3
NMTAP	43	336	2
NMTAP	43	360	3
NMTAP	44	0	2
NMHLD	44	0	7	96
NMTAP	44	24	3
NMTAP	44	48	2
NMTAP	44	72	3
NMTAP	44	96	2
NMTAP	44	120	3
NMTAP	44	144	2
NMTAP	44	168	3
NMTAP	44	192	2
NMHLD	44	192	6	96
NMTAP	44	216	3
NMTAP	44	240	2
NMTAP	44	264	3
NMTAP	44	288	2
NMTAP	44	336	2
NMHLD	45	0	3	96
NMTAP	45	0	5
NMTAP	45	24	4
NMTAP	45	48	5
NMTAP	45	72	4
NMTAP	45	96	5
NMTAP	45	120	4
NMTAP	45	144	5
NMTAP	45	168	4
NMHLD	45	192	1	96
NMTAP	45	192	5
NMTAP	45	216	4
NMTAP	45	240	5
NMTAP	45	264	4
NMTAP	45	288	5
NMTAP	45	312	4
NMTAP	45	336	5
NMTAP	45	360	4
NMHLD	46	0	0	96
NMTAP	46	0	5
NMTAP	46	24	4
NMTAP	46	48	5
NMTAP	46	72	4
NMTAP	46	96	5
NMTAP	46	120	4
NMTAP	46	144	5
NMTAP	46	168	4
NMHLD	46	192	1	96
NMTAP	46	192	5
NMTAP	46	216	4
NMTAP	46	240	5
NMTAP	46	264	4
NMTAP	46	288	5
NMTAP	46	336	5
NMTAP	47	0	2
NMHLD	47	0	4	96
NMTAP	47	24	3
NMTAP	47	48	2
NMTAP	47	72	3
NMTAP	47	96	2
NMTAP	47	120	3
NMTAP	47	144	2
NMTAP	47	168	3
NMTAP	47	192	2
NMHLD	47	192	6	96
NMTAP	47	216	3
NMTAP	47	240	2
NMTAP	47	264	3
NMTAP	47	288	2
NMTAP	47	312	3
NMTAP	47	336	2
NMTAP	47	360	3
NMTAP	48	0	2
NMHLD	48	0	7	96
NMTAP	48	24	3
NMTAP	48	48	2
NMTAP	48	72	3
NMTAP	48	96	2
NMTAP	48	120	3
NMTAP	48	144	2
NMTAP	48	168	3
NMTAP	48	192	2
NMHLD	48	192	6	96
NMTAP	48	216	3
NMTAP	48	240	2
NMTAP	48	264	3
NMTAP	48	288	2
NMTAP	48	336	2
NMHLD	49	0	3	96
NMTAP	49	0	5
NMTAP	49	24	4
NMTAP	49	48	5
NMTAP	49	72	4
NMTAP	49	96	5
NMTAP	49	120	4
NMTAP	49	144	5
NMTAP	49	168	4
NMHLD	49	192	1	96
NMTAP	49	192	5
NMTAP	49	216	4
NMTAP	49	240	5
NMTAP	49	264	4
NMTAP	49	288	5
NMTAP	49	312	4
NMTAP	49	336	5
NMTAP	49	360	4
NMHLD	50	0	0	96
NMTAP	50	0	5
NMTAP	50	24	4
NMTAP	50	48	5
NMTAP	50	72	4
NMTAP	50	96	5
NMTAP	50	120	4
NMTAP	50	144	5
NMTAP	50	168	4
NMHLD	50	192	1	96
NMTAP	50	192	5
NMTAP	50	216	4
NMTAP	50	240	5
NMTAP	50	264	4
NMTAP	50	288	5
NMTAP	50	336	5
NMSTR	51	0	0
NMSCR	51	0	0	96	96	3
NMTAP	51	0	6
NMHLD	51	192	7	480
NMTAP	52	0	4
NMTAP	52	96	3
NMTAP	52	192	3
NMTAP	52	216	4
NMTAP	52	240	3
NMTAP	52	264	4
NMTAP	52	288	3
NMTAP	53	0	1
NMSTR	53	0	7
NMSCL	53	0	7	96	96	4
NMHLD	53	192	0	480
NMTAP	54	0	3
NMTAP	54	96	4
NMTAP	54	192	4
NMTAP	54	216	3
NMTAP	54	240	4
NMTAP	54	264	3
NMTAP	54	288	4
NMSTR	55	0	0
NMSCR	55	0	0	96	96	3
NMTAP	55	0	6
NMHLD	55	192	7	480
NMTAP	56	0	4
NMTAP	56	96	3
NMTAP	56	192	3
NMTAP	56	216	4
NMTAP	56	240	3
NMTAP	56	264	4
NMTAP	56	288	3
NMTAP	57	0	1
NMSTR	57	0	7
NMSCL	57	0	7	96	96	4
NMHLD	57	192	0	480
NMTAP	58	0	3
NMTAP	58	96	4
NMTAP	58	192	4
NMTAP	58	216	3
NMTAP	58	240	4
NMTAP	58	264	3
NMTAP	58	288	4
NMSTR	59	0	0
NMSCR	59	0	0	96	48	3
NMSTR	59	0	7
NMSCL	59	0	7	96	48	4
EXTAP	59	192	1
EXTAP	59	192	6
NMTAP	60	0	2
NMHLD	60	0	7	96
NMTAP	60	24	3
NMTAP	60	48	2
NMTAP	60	72	3
NMTAP	60	96	2
NMTAP	60	120	3
NMTAP	60	144	2
NMTAP	60	144	6
NMTAP	60	168	3
NMTAP	60	192	2
NMTAP	60	192	6
NMTAP	60	216	3
NMTAP	60	240	2
NMTAP	60	240	5
NMTAP	60	264	3
NMTAP	60	288	2
NMTAP	60	288	4
NMTAP	60	312	3
NMTAP	60	336	2
NMTAP	60	336	5
NMTAP	60	360	3
NMTAP	61	0	2
NMHLD	61	0	6	192
NMTAP	61	24	3
NMTAP	61	48	2
NMTAP	61	72	3
NMTAP	61	96	2
NMTAP	61	120	3
NMTAP	61	144	2
NMTAP	61	168	3
NMTAP	61	192	2
NMTAP	61	216	3
NMTAP	61	240	2
NMTAP	61	240	5
NMTAP	61	264	3
NMTAP	61	288	2
NMTAP	61	288	6
NMTAP	61	312	3
NMTAP	61	336	2
NMTAP	61	336	7
NMTAP	61	360	3
NMTAP	62	0	2
NMHLD	62	0	7	96
NMTAP	62	24	3
NMTAP	62	48	2
NMTAP	62	72	3
NMTAP	62	96	2
NMTAP	62	120	3
NMTAP	62	144	2
NMTAP	62	144	6
NMTAP	62	168	3
NMTAP	62	192	2
NMTAP	62	192	6
NMTAP	62	216	3
NMTAP	62	240	2
NMTAP	62	240	5
NMTAP	62	264	3
NMTAP	62	288	2
NMTAP	62	288	6
NMTAP	62	312	3
NMTAP	62	336	2
NMTAP	62	336	7
NMTAP	62	360	3
NMHLD	63	0	0	192
NMTAP	63	0	2
NMTAP	63	24	3
NMTAP	63	48	2
NMTAP	63	72	3
NMTAP	63	96	2
NMTAP	63	120	3
NMTAP	63	144	2
NMTAP	63	168	3
NMTAP	63	192	2
NMTAP	63	216	3
NMTAP	63	240	2
NMTAP	63	240	7
NMTAP	63	264	3
NMTAP	63	288	2
NMTAP	63	288	7
NMTAP	63	312	3
NMTAP	63	336	2
NMTAP	63	336	6
NMTAP	63	360	3
NMTAP	64	0	2
NMHLD	64	0	6	192
NMTAP	64	24	3
NMTAP	64	48	2
NMTAP	64	72	3
NMTAP	64	96	2
NMTAP	64	120	3
NMTAP	64	144	2
NMTAP	64	168	3
NMTAP	64	192	2
NMTAP	64	216	3
NMTAP	64	240	2
NMTAP	64	240	7
NMTAP	64	264	3
NMTAP	64	288	2
NMTAP	64	288	7
NMTAP	64	312	3
NMTAP	64	336	0
NMTAP	64	336	2
NMTAP	64	360	3
NMHLD	65	0	0	192
NMTAP	65	0	2
NMTAP	65	24	3
NMTAP	65	48	2
NMTAP	65	72	3
NMTAP	65	96	2
NMTAP	65	120	3
NMTAP	65	144	2
NMTAP	65	168	3
NMTAP	65	192	2
NMTAP	65	216	3
NMTAP	65	240	2
NMTAP	65	264	3
NMTAP	65	288	2
NMTAP	65	288	7
NMTAP	65	312	3
NMTAP	65	336	2
NMTAP	65	336	6
NMTAP	65	360	3
NMTAP	66	0	2
NMHLD	66	0	6	192
NMTAP	66	24	3
NMTAP	66	48	2
NMTAP	66	72	3
NMTAP	66	96	2
NMTAP	66	120	3
NMTAP	66	144	2
NMTAP	66	168	3
NMTAP	66	192	2
NMTAP	66	216	3
NMTAP	66	240	2
NMTAP	66	240	7
NMTAP	66	264	3
NMTAP	66	288	2
NMTAP	66	288	6
NMTAP	66	312	3
NMTAP	66	336	2
NMTAP	66	336	5
NMTAP	66	360	3
NMTAP	67	0	2
NMHLD	67	0	4	288
NMTAP	67	24	3
NMTAP	67	48	2
NMTAP	67	72	3
NMTAP	67	96	2
NMTAP	67	120	3
NMTAP	67	144	2
NMTAP	67	168	3
NMTAP	67	192	2
NMTAP	67	240	2
NMTAP	67	288	1
NMTAP	67	336	1
NMHLD	68	0	0	96
NMTAP	68	0	5
NMTAP	68	24	4
NMTAP	68	48	5
NMTAP	68	72	4
NMTAP	68	96	5
NMTAP	68	120	4
NMTAP	68	144	1
NMTAP	68	144	5
NMTAP	68	168	4
NMTAP	68	192	1
NMTAP	68	192	5
NMTAP	68	216	4
NMTAP	68	240	2
NMTAP	68	240	5
NMTAP	68	264	4
NMTAP	68	288	3
NMTAP	68	288	5
NMTAP	68	312	4
NMTAP	68	336	2
NMTAP	68	336	5
NMTAP	68	360	4
NMHLD	69	0	1	192
NMTAP	69	0	5
NMTAP	69	24	4
NMTAP	69	48	5
NMTAP	69	72	4
NMTAP	69	96	5
NMTAP	69	120	4
NMTAP	69	144	5
NMTAP	69	168	4
NMTAP	69	192	5
NMTAP	69	216	4
NMTAP	69	240	5
NMTAP	69	264	4
NMTAP	69	288	2
NMTAP	69	288	5
NMTAP	69	312	4
NMTAP	69	336	1
NMTAP	69	336	5
NMTAP	69	360	4
NMHLD	70	0	0	96
NMTAP	70	0	5
NMTAP	70	24	4
NMTAP	70	48	5
NMTAP	70	72	4
NMTAP	70	96	5
NMTAP	70	120	4
NMTAP	70	144	1
NMTAP	70	144	5
NMTAP	70	168	4
NMTAP	70	192	1
NMTAP	70	192	5
NMTAP	70	216	4
NMTAP	70	240	2
NMTAP	70	240	5
NMTAP	70	264	4
NMTAP	70	288	1
NMTAP	70	288	5
NMTAP	70	312	4
NMTAP	70	336	0
NMTAP	70	336	5
NMTAP	70	360	4
NMTAP	71	0	5
NMHLD	71	0	7	192
NMTAP	71	24	4
NMTAP	71	48	5
NMTAP	71	72	4
NMTAP	71	96	5
NMTAP	71	120	4
NMTAP	71	144	5
NMTAP	71	168	4
NMTAP	71	192	5
NMTAP	71	216	4
NMTAP	71	240	0
NMTAP	71	240	5
NMTAP	71	264	4
NMTAP	71	288	0
NMTAP	71	288	5
NMTAP	71	312	4
NMTAP	71	336	1
NMTAP	71	336	5
NMTAP	71	360	4
NMHLD	72	0	1	192
NMTAP	72	0	5
NMTAP	72	24	4
NMTAP	72	48	5
NMTAP	72	72	4
NMTAP	72	96	5
NMTAP	72	120	4
NMTAP	72	144	5
NMTAP	72	168	4
NMTAP	72	192	5
NMTAP	72	216	4
NMTAP	72	240	0
NMTAP	72	240	5
NMTAP	72	264	4
NMTAP	72	288	0
NMTAP	72	288	5
NMTAP	72	312	4
NMTAP	72	336	5
NMTAP	72	336	7
NMTAP	72	360	4
NMTAP	73	0	5
NMHLD	73	0	7	192
NMTAP	73	24	4
NMTAP	73	48	5
NMTAP	73	72	4
NMTAP	73	96	5
NMTAP	73	120	4
NMTAP	73	144	5
NMTAP	73	168	4
NMTAP	73	192	5
NMTAP	73	216	4
NMTAP	73	240	5
NMTAP	73	264	4
NMTAP	73	288	0
NMTAP	73	288	5
NMTAP	73	312	4
NMTAP	73	336	5
NMTAP	73	360	4
NMHLD	74	0	0	96
NMTAP	74	0	5
NMTAP	74	24	4
NMTAP	74	48	5
NMTAP	74	72	4
NMTAP	74	96	5
NMTAP	74	120	4
NMTAP	74	144	5
NMTAP	74	168	4
NMHLD	74	192	1	96
NMTAP	74	192	5
NMTAP	74	216	4
NMTAP	74	240	5
NMTAP	74	264	4
NMTAP	74	288	5
NMTAP	74	312	4
NMTAP	74	336	5
NMTAP	74	360	4
NMHLD	75	0	3	192
NMTAP	75	0	5
NMTAP	75	24	4
NMTAP	75	48	5
NMTAP	75	72	4
NMTAP	75	96	5
NMTAP	75	120	4
NMTAP	75	144	5
NMTAP	75	168	4
NMTAP	75	192	5
BRTAP	76	0	0
BRTAP	76	192	7
EXSTR	76	288	7
NMSI_	76	288	7	96	48	5
NMTAP	77	0	2
NMSTR	77	0	7
NMSI_	77	0	7	96	48	1
NMTAP	77	24	3
NMTAP	77	48	2
NMTAP	77	72	3
NMTAP	77	96	2
NMSTR	77	96	7
NMSCL	77	96	7	96	48	5
NMTAP	77	120	3
NMTAP	77	144	2
NMTAP	77	168	3
NMTAP	77	192	2
NMSTR	77	192	7
NMSCR	77	192	7	96	48	1
NMTAP	77	216	3
NMTAP	77	240	2
NMTAP	77	264	3
NMTAP	77	288	2
NMSTR	77	288	7
NMSI_	77	288	7	96	48	5
NMTAP	77	312	3
NMTAP	77	336	2
NMTAP	77	360	3
NMTAP	78	0	2
NMSTR	78	0	7
NMSI_	78	0	7	96	48	1
NMTAP	78	24	3
NMTAP	78	48	2
NMTAP	78	72	3
NMTAP	78	96	2
NMSTR	78	96	7
NMSCL	78	96	7	96	48	5
NMTAP	78	120	3
NMTAP	78	144	2
NMTAP	78	168	3
NMTAP	78	192	2
NMSTR	78	192	7
NMSCR	78	192	7	96	48	1
NMTAP	78	216	3
NMTAP	78	240	2
NMTAP	78	264	3
NMTAP	78	288	2
NMSTR	78	288	7
NMSI_	78	288	7	96	48	5
NMTAP	78	312	3
NMTAP	78	336	2
NMTAP	78	360	3
NMTAP	79	0	2
NMSTR	79	0	7
NMSI_	79	0	7	96	48	1
NMTAP	79	24	3
NMTAP	79	48	2
NMTAP	79	72	3
NMTAP	79	96	2
NMSTR	79	96	7
NMSCL	79	96	7	96	48	5
NMTAP	79	120	3
NMTAP	79	144	2
NMTAP	79	168	3
NMTAP	79	192	2
NMSTR	79	192	7
NMSCR	79	192	7	96	48	1
NMTAP	79	216	3
NMTAP	79	240	2
NMTAP	79	264	3
NMTAP	79	288	2
NMSTR	79	288	7
NMSCL	79	288	7	96	48	5
NMTAP	79	312	3
NMTAP	79	336	2
NMTAP	79	360	3
NMTAP	80	0	2
NMSTR	80	0	7
NMSCR	80	0	7	96	48	1
NMTAP	80	24	3
NMTAP	80	48	2
NMTAP	80	72	3
NMTAP	80	96	2
NMSTR	80	96	7
NMSI_	80	96	7	96	48	3
NMTAP	80	120	3
NMTAP	80	144	2
NMTAP	80	168	3
NMTAP	80	192	2
NMTAP	80	192	7
NMTAP	80	240	1
EXSTR	80	288	0
NMSI_	80	288	0	96	48	2
NMSTR	81	0	0
NMSI_	81	0	0	96	48	6
NMTAP	81	0	5
NMTAP	81	24	4
NMTAP	81	48	5
NMTAP	81	72	4
NMSTR	81	96	0
NMSCR	81	96	0	96	48	2
NMTAP	81	96	5
NMTAP	81	120	4
NMTAP	81	144	5
NMTAP	81	168	4
NMSTR	81	192	0
NMSCL	81	192	0	96	48	6
NMTAP	81	192	5
NMTAP	81	216	4
NMTAP	81	240	5
NMTAP	81	264	4
NMSTR	81	288	0
NMSI_	81	288	0	96	48	2
NMTAP	81	288	5
NMTAP	81	312	4
NMTAP	81	336	5
NMTAP	81	360	4
NMSTR	82	0	0
NMSI_	82	0	0	96	48	6
NMTAP	82	0	5
NMTAP	82	24	4
NMTAP	82	48	5
NMTAP	82	72	4
NMSTR	82	96	0
NMSCR	82	96	0	96	48	2
NMTAP	82	96	5
NMTAP	82	120	4
NMTAP	82	144	5
NMTAP	82	168	4
NMSTR	82	192	0
NMSCL	82	192	0	96	48	6
NMTAP	82	192	5
NMTAP	82	216	4
NMTAP	82	240	5
NMTAP	82	264	4
NMSTR	82	288	0
NMSI_	82	288	0	96	48	2
NMTAP	82	288	5
NMTAP	82	312	4
NMTAP	82	336	5
NMTAP	82	360	4
NMSTR	83	0	0
NMSI_	83	0	0	96	48	6
NMTAP	83	0	5
NMTAP	83	24	4
NMTAP	83	48	5
NMTAP	83	72	4
NMSTR	83	96	0
NMSCR	83	96	0	96	48	2
NMTAP	83	96	5
NMTAP	83	120	4
NMTAP	83	144	5
NMTAP	83	168	4
NMSTR	83	192	0
NMSCL	83	192	0	96	48	6
NMTAP	83	192	5
NMTAP	83	216	4
NMTAP	83	240	5
NMTAP	83	264	4
NMSTR	83	288	0
NMSCR	83	288	0	96	48	2
NMTAP	83	288	5
NMTAP	83	312	4
NMTAP	83	336	5
NMTAP	83	360	4
NMSTR	84	0	0
NMSCL	84	0	0	96	48	6
NMTAP	84	0	5
NMTAP	84	24	4
NMTAP	84	48	5
NMTAP	84	72	4
NMSTR	84	96	0
NMSI_	84	96	0	96	48	4
NMTAP	84	96	5
NMTAP	84	120	4
NMTAP	84	144	5
NMTAP	84	168	4
NMTAP	84	192	0
NMTAP	84	192	5
NMTAP	84	288	2
NMTAP	84	288	5
BRTAP	85	0	2
BRTAP	85	0	5
NMTAP	85	24	1
NMTAP	85	24	6
BRTAP	85	48	2
BRTAP	85	48	5
NMTAP	85	72	1
NMTAP	85	72	6
BRTAP	85	96	2
BRTAP	85	96	5
NMTAP	85	120	1
NMTAP	85	120	6
BRTAP	85	144	2
BRTAP	85	144	5
NMTAP	85	168	1
NMTAP	85	168	6
BRTAP	85	192	2
BRTAP	85	192	5
BRTAP	85	216	1
BRTAP	85	216	6
BRTAP	85	240	2
BRTAP	85	240	5
BRTAP	85	264	1
BRTAP	85	264	6
BRTAP	85	288	2
BRTAP	85	288	5
BRTAP	85	312	1
BRTAP	85	312	6
BRTAP	85	336	2
BRTAP	85	336	5
BRTAP	85	360	1
BRTAP	85	360	6
BRSTR	86	0	2
NMSXR	86	0	2	96	3360	4
BRSTR	86	0	5
NMSXL	86	0	5	96	3360	3
BRTAP	86	96	2
BRTAP	86	96	5

T_REC_TAP	905
T_REC_BRK	30
T_REC_XTP	7
T_REC_BXX	0
T_REC_HLD	57
T_REC_XHO	0
T_REC_BHO	1
T_REC_BXH	0
T_REC_STR	41
T_REC_BST	2
T_REC_XST	2
T_REC_XBS	0
T_REC_TTP	1
T_REC_THO	0
T_REC_SLD	45
T_REC_BSL	0
T_REC_ALL	1091
T_NUM_TAP	956
T_NUM_BRK	33
T_NUM_HLD	57
T_NUM_SLD	45
T_NUM_ALL	1091
T_JUDGE_TAP	988
T_JUDGE_HLD	378
T_JUDGE_SLD	45
T_JUDGE_ALL	1411
TTM_EACHPAIRS	147
TTM_SCR_TAP	478000
TTM_SCR_BRK	85800
TTM_SCR_HLD	57000
TTM_SCR_SLD	67500
TTM_SCR_ALL	688300
TTM_SCR_S	664450
TTM_SCR_SS	685000
TTM_RAT_ACV	10048

