VERSION	0.00.00	1.04.00
FES_MODE	1
BPM_DEF	125.000	125.000	125.000	125.000
MET_DEF	4	4
RESOLUTION	384
CLK_DEF	384
COMPATIBLE_CODE	MA2

BPM	0	0	125.000
MET	0	0	4	4

NMTAP	1	288	1
NMTAP	1	312	6
NMTAP	1	336	2
NMTAP	1	360	5
EXTAP	2	0	3
EXTAP	2	0	4
NMTAP	2	48	5
NMTAP	2	72	4
NMTAP	2	96	5
NMTAP	2	144	3
NMTAP	2	168	4
NMTAP	2	216	2
NMTAP	2	240	3
NMTAP	2	288	1
NMTAP	2	288	4
NMTAP	2	336	3
NMTAP	2	336	6
NMTAP	3	0	3
NMTAP	3	0	4
NMTAP	3	48	2
NMTAP	3	72	3
NMTAP	3	96	2
NMTAP	3	144	4
NMTAP	3	168	3
NMTAP	3	216	5
NMTAP	3	240	4
NMTAP	3	288	3
NMTAP	3	288	6
NMTAP	3	336	1
NMTAP	3	336	4
NMTAP	4	0	0
NMTAP	4	24	4
NMTAP	4	48	1
NMTAP	4	72	4
NMTAP	4	96	2
NMTAP	4	120	4
NMTAP	4	144	3
NMTAP	4	168	4
NMTAP	4	192	5
NMTAP	4	216	4
NMTAP	4	240	6
NMTAP	4	264	4
NMTAP	4	288	7
NMTAP	4	312	4
NMTAP	4	336	0
NMTAP	4	360	4
NMTAP	5	0	1
NMHLD	5	24	1	72
NMTAP	5	72	0
NMTAP	5	96	0
NMTAP	5	144	7
NMSTR	5	168	7
NMSCL	5	168	7	96	72	3
NMTAP	5	216	3
NMTAP	5	240	3
NMTAP	5	288	2
NMTAP	5	336	1
EXTAP	6	0	3
EXTAP	6	0	4
NMTAP	6	48	2
NMTAP	6	72	3
NMTAP	6	96	2
NMTAP	6	144	4
NMTAP	6	168	3
NMTAP	6	216	5
NMTAP	6	240	4
NMTAP	6	288	3
NMTAP	6	288	6
NMTAP	6	336	1
NMTAP	6	336	4
NMTAP	7	0	3
NMTAP	7	0	4
NMTAP	7	48	5
NMTAP	7	72	4
NMTAP	7	96	5
NMTAP	7	144	3
NMTAP	7	168	4
NMTAP	7	216	2
NMTAP	7	240	3
NMTAP	7	288	1
NMTAP	7	288	4
NMTAP	7	336	3
NMTAP	7	336	6
NMTAP	8	0	7
NMTAP	8	24	3
NMTAP	8	48	6
NMTAP	8	72	3
NMTAP	8	96	5
NMTAP	8	120	3
NMTAP	8	144	4
NMTAP	8	168	3
NMTAP	8	192	2
NMTAP	8	216	3
NMTAP	8	240	1
NMTAP	8	264	3
NMTAP	8	288	0
NMTAP	8	312	3
NMTAP	8	336	7
NMTAP	8	360	3
NMTAP	9	0	6
NMHLD	9	24	6	72
NMTAP	9	72	4
NMTAP	9	96	4
NMTAP	9	144	3
NMTAP	9	168	4
NMTAP	9	216	3
NMTAP	9	216	4
NMTAP	9	240	3
NMTAP	9	240	4
NMTAP	9	288	0
NMTAP	9	288	7
NMTAP	9	336	1
NMTAP	9	336	6
NMTAP	10	0	1
NMTAP	10	0	6
NMTAP	10	48	6
NMTAP	10	72	7
NMTAP	10	96	6
NMTAP	10	144	0
NMTAP	10	168	7
NMTAP	10	216	1
NMTAP	10	240	0
NMTAP	10	288	0
NMTAP	10	288	1
NMTAP	10	336	2
NMTAP	10	336	7
NMTAP	11	0	0
NMTAP	11	0	1
NMTAP	11	48	1
NMTAP	11	72	0
NMTAP	11	96	1
NMTAP	11	144	7
NMTAP	11	168	0
NMTAP	11	216	6
NMTAP	11	240	7
NMTAP	11	288	5
NMTAP	11	336	6
NMTAP	11	336	7
NMTAP	12	0	0
NMHLD	12	0	5	96
NMTAP	12	96	4
NMTAP	12	144	3
NMTAP	12	168	4
NMTAP	12	216	2
NMTAP	12	240	3
NMTAP	12	288	2
NMTAP	12	288	3
NMTAP	12	336	1
NMTAP	12	336	4
NMTAP	13	0	2
NMTAP	13	0	3
NMTAP	13	48	2
NMTAP	13	72	3
NMTAP	13	96	2
NMTAP	13	144	4
NMTAP	13	168	3
NMTAP	13	216	5
NMTAP	13	240	4
NMSTR	13	288	4
NMSI_	13	288	4	96	48	0
NMSTR	13	288	5
NMSI_	13	288	5	96	48	7
EXTAP	14	0	4
EXTAP	14	0	5
NMTAP	14	96	0
NMTAP	14	96	1
NMTAP	14	144	1
NMTAP	14	168	0
NMTAP	14	216	0
NMTAP	14	240	7
NMTAP	14	288	6
NMTAP	14	288	7
NMTAP	14	336	0
NMTAP	14	336	5
NMTAP	15	0	6
NMTAP	15	0	7
NMTAP	15	48	6
NMTAP	15	72	7
NMTAP	15	96	6
NMTAP	15	144	0
NMTAP	15	168	7
NMTAP	15	216	1
NMTAP	15	240	0
NMTAP	15	288	0
NMSTR	15	288	1
NMSCL	15	288	1	96	48	6
NMTAP	15	336	2
NMTAP	16	0	1
NMTAP	16	0	3
NMTAP	16	96	4
NMTAP	16	96	5
NMTAP	16	144	3
NMTAP	16	168	4
NMTAP	16	216	2
NMTAP	16	240	3
NMTAP	16	288	2
NMTAP	16	288	3
NMTAP	16	336	1
NMTAP	16	336	4
NMHLD	17	0	0	48
NMHLD	17	0	5	48
NMHLD	17	96	6	48
NMHLD	17	96	7	48
NMHLD	17	192	0	48
NMHLD	17	192	5	48
NMHLD	17	288	6	48
NMHLD	17	288	7	48
NMHLD	18	0	2	240
NMTAP	18	48	4
NMTAP	18	96	3
NMTAP	18	168	1
NMTAP	18	240	6
NMHLD	18	288	1	48
NMTAP	18	288	5
NMTAP	18	336	5
NMHLD	19	0	2	240
NMTAP	19	48	4
NMTAP	19	96	3
NMTAP	19	168	1
NMTAP	19	240	5
NMHLD	19	288	1	48
NMSTR	19	288	4
NMSLL	19	288	4	96	96	7
NMTAP	19	336	4
NMHLD	20	0	2	240
EXTAP	20	0	4
NMTAP	20	144	6
NMTAP	20	192	5
NMTAP	20	240	4
NMHLD	20	288	1	48
NMTAP	20	288	3
NMTAP	20	336	4
NMHLD	21	0	2	96
NMSTR	21	0	5
NMSCL	21	0	5	96	48	2
EXTAP	21	96	5
NMHLD	21	192	0	96
NMSTR	21	192	5
NMSCR	21	192	5	96	48	0
EXTAP	21	288	5
NMHLD	22	0	2	240
NMTAP	22	48	4
NMTAP	22	96	3
NMTAP	22	168	1
NMTAP	22	240	6
NMHLD	22	288	1	48
NMTAP	22	288	5
NMTAP	22	336	5
NMHLD	23	0	2	240
NMTAP	23	48	4
NMTAP	23	96	3
NMTAP	23	168	1
NMTAP	23	240	5
NMSTR	23	288	2
NMSXR	23	288	2	96	48	0
NMSTR	23	288	6
NMSXR	23	288	6	96	48	4
NMTAP	23	336	2
NMTAP	23	336	6
EXTAP	24	0	2
EXTAP	24	0	6
NMTAP	24	144	1
NMSTR	24	144	7
NMSCL	24	144	7	96	48	3
NMTAP	24	240	1
EXTAP	24	240	7
NMSTR	24	288	0
NMSI_	24	288	0	96	48	3
NMSI_	24	288	0	96	48	5
EXTAP	25	0	0
NMTAP	25	96	1
NMTAP	25	96	6
NMTAP	25	144	0
NMTAP	25	168	7
NMSTR	25	192	1
NMSI_	25	192	1	96	48	5
NMSTR	25	240	5
NMSI_	25	240	5	96	48	1
NMTAP	26	0	4
NMHLD	26	48	4	96
NMTTP	26	144	5	B	0	M1
NMTTP	26	192	2	B	0	M1
NMTAP	26	240	7
NMTAP	26	288	6
NMTAP	26	336	5
NMTAP	27	0	3
NMHLD	27	48	3	96
NMTTP	27	144	2	B	0	M1
NMTTP	27	192	5	B	0	M1
NMTAP	27	240	0
NMTAP	27	288	1
NMTAP	27	336	2
NMTAP	28	0	4
NMHLD	28	48	4	96
NMTTP	28	144	5	B	0	M1
NMTTP	28	192	2	B	0	M1
NMSTR	28	240	7
NMSCR	28	240	7	96	144	4
NMTAP	28	288	6
NMHLD	28	336	5	336
NMSTR	29	192	0
NMSI_	29	192	0	96	48	4
NMTAP	30	0	2
NMTAP	30	48	2
NMTAP	30	96	1
NMTAP	30	96	3
NMTAP	30	144	4
NMTAP	30	168	3
NMTAP	30	216	5
NMHLD	30	240	4	96
NMTAP	30	288	7
NMTAP	30	336	6
NMTAP	31	0	5
NMTAP	31	48	5
NMTAP	31	96	4
NMTAP	31	96	6
NMTAP	31	144	3
NMTAP	31	168	4
NMTAP	31	216	2
NMHLD	31	240	3	96
NMTAP	31	288	0
NMTAP	31	336	1
NMSTR	32	0	2
NMSI_	32	0	2	96	48	6
NMTAP	32	48	2
NMSTR	32	96	0
NMSI_	32	96	0	96	48	4
NMTAP	32	144	0
NMSTR	32	192	3
NMSI_	32	192	3	96	48	7
NMTAP	32	240	3
NMTAP	32	288	6
NMTAP	32	336	5
NMTAP	33	0	3
NMTAP	33	0	4
NMTAP	33	48	2
NMTAP	33	48	5
NMSTR	33	96	1
NMSCR	33	96	1	96	96	7
NMTAP	33	96	6
NMTAP	33	144	0
NMTAP	33	144	7
EXTAP	33	192	1
EXTAP	33	192	6
BRTAP	33	288	0
EXTAP	34	0	5
NMTAP	34	24	3
NMTAP	34	48	7
NMTAP	34	72	0
NMTAP	34	96	4
NMTAP	34	144	2
NMTAP	34	168	3
NMTAP	34	216	6
NMTAP	34	240	7
NMTAP	34	288	1
NMTAP	34	312	0
NMTAP	34	336	2
NMSTR	35	0	6
NMSLL	35	0	6	96	96	0
NMTAP	35	24	7
NMTAP	35	48	6
NMTAP	35	72	7
NMTAP	35	96	6
NMTAP	35	144	3
NMTAP	35	168	3
NMTAP	35	216	1
NMTAP	35	240	1
NMTAP	35	288	3
NMTAP	35	288	4
NMTAP	35	336	2
NMTAP	35	336	5
NMTAP	36	0	1
NMTAP	36	24	7
NMTAP	36	48	3
NMTAP	36	72	4
NMTAP	36	96	0
NMTAP	36	144	6
NMTAP	36	168	7
NMTAP	36	216	2
NMTAP	36	240	3
NMTAP	36	288	2
NMTAP	36	288	5
NMTAP	36	336	2
NMTAP	36	336	5
NMTTP	37	0	1	E	0	M1
EXHLD	37	0	5	48
NMTTP	37	12	0	B	0	M1
NMTTP	37	24	7	B	0	M1
NMTTP	37	36	7	E	0	M1
EXHLD	37	96	1	48
NMTTP	37	96	5	E	0	M1
NMTTP	37	108	4	B	0	M1
NMTTP	37	120	3	B	0	M1
NMTTP	37	132	3	E	0	M1
NMTTP	37	192	1	E	0	M1
EXHLD	37	192	5	48
NMTTP	37	204	0	B	0	M1
NMTTP	37	216	7	B	0	M1
NMTTP	37	228	7	E	0	M1
BRTAP	37	288	1
NMTTP	37	288	5	E	0	M1
NMTTP	37	300	4	B	0	M1
NMTTP	37	312	3	B	0	M1
NMTTP	37	324	3	E	0	M1
EXSTR	38	0	6
NMSLL	38	0	6	96	96	0
NMTAP	38	24	7
NMTAP	38	48	6
NMTAP	38	72	7
NMTAP	38	96	6
NMTAP	38	144	3
NMTAP	38	168	3
NMTAP	38	216	2
NMTAP	38	240	2
NMTAP	38	288	7
NMTAP	38	312	0
NMTAP	38	336	6
NMTAP	39	0	2
NMTAP	39	24	3
NMTAP	39	48	2
NMTAP	39	72	3
NMHLD	39	96	1	48
NMTAP	39	144	4
NMHLD	39	168	7	48
NMTAP	39	216	6
NMHLD	39	240	0	48
NMTAP	39	288	5
NMTAP	39	336	6
NMTAP	39	336	7
NMSTR	40	0	6
NMSLL	40	0	6	96	96	0
NMTAP	40	24	7
NMTAP	40	48	6
NMTAP	40	72	7
NMTAP	40	96	6
NMTAP	40	144	3
NMTAP	40	168	3
NMTAP	40	216	2
NMTAP	40	240	2
NMTAP	40	288	0
NMTAP	40	288	1
NMTAP	40	336	6
NMTAP	40	336	7
EXHLD	41	0	2	48
NMTTP	41	0	7	E	0	M1
NMTTP	41	12	7	B	0	M1
NMTTP	41	24	0	B	0	M1
NMTTP	41	36	1	E	0	M1
NMTTP	41	96	3	E	0	M1
EXHLD	41	96	6	48
NMTTP	41	108	3	B	0	M1
NMTTP	41	120	4	B	0	M1
NMTTP	41	132	5	E	0	M1
EXHLD	41	192	2	48
NMTTP	41	192	7	E	0	M1
NMTTP	41	204	7	B	0	M1
NMTTP	41	216	0	B	0	M1
NMTTP	41	228	1	E	0	M1
NMTTP	41	288	3	E	0	M1
EXTAP	41	288	6
NMTTP	41	300	3	B	0	M1
NMTTP	41	312	4	B	0	M1
NMTTP	41	324	5	E	0	M1
NMTAP	42	0	3
EXHLD	42	0	5	384
NMTAP	42	48	2
NMTAP	42	72	2
NMTAP	42	120	1
NMTAP	42	144	1
NMHLD	42	192	0	96
NMHLD	43	0	2	384
NMTAP	43	48	1
NMTAP	43	72	1
NMTAP	43	120	0
NMTAP	43	144	0
NMSTR	43	192	7
NMSI_	43	192	7	96	48	3
EXSTR	43	288	7
NMSCR	43	288	7	96	96	4
EXTAP	44	0	7
NMHLD	44	144	2	48
BRHLD	44	144	5	48
NMTAP	44	240	3
BRTAP	44	240	4
NMTAP	44	288	2
BRTAP	44	288	5
NMTAP	44	336	1
BRTAP	44	336	6
BRSTR	45	0	7
BRSI_	45	0	7	96	48	4
NMSTR	45	1	0
NMSI_	45	1	0	96	47	3
NMTHO	45	192	0	192	C	1	M1
BRTAP	46	0	7
NMTAP	46	96	6
NMHLD	46	144	6	144
NMTAP	46	240	5
NMSTR	46	288	4
NMSLL	46	288	4	96	96	6
NMTAP	46	336	3
NMHLD	47	0	2	144
NMSTR	47	144	7
NMSCL	47	144	7	96	48	4
NMTAP	47	240	3
NMTAP	47	288	3
NMTAP	47	336	1
NMTAP	47	360	3
NMTAP	48	0	2
NMSTR	48	72	2
NMSXR	48	72	2	96	120	4
NMTAP	48	72	4
EXTAP	48	144	2
EXHLD	48	144	5	144
NMTAP	48	336	6
NMTAP	48	360	4
NMTAP	49	0	5
NMTAP	49	72	3
NMSTR	49	72	5
NMSSR	49	72	5	96	120	1
EXHLD	49	144	2	144
EXTAP	49	144	5
NMTAP	50	0	4
NMTAP	50	0	6
NMTAP	50	48	2
NMTAP	50	72	3
NMTAP	50	96	1
NMTAP	50	120	1
NMTAP	50	144	4
NMTAP	50	168	3
NMTAP	50	192	6
NMTAP	50	216	6
NMTAP	50	264	5
NMTAP	50	264	7
NMTAP	50	312	0
NMTAP	50	336	7
EXTAP	51	0	0
NMTAP	51	16	1
NMTAP	51	32	2
EXTAP	51	48	7
NMTAP	51	64	6
NMTAP	51	80	5
EXHLD	51	96	3	48
EXHLD	51	144	4	48
EXTAP	51	192	1
NMTAP	51	208	2
NMTAP	51	224	3
EXTAP	51	240	6
NMTAP	51	256	5
NMTAP	51	272	4
NMSTR	51	288	2
NMSCR	51	288	2	96	96	0
EXTAP	52	0	2
NMHLD	52	0	6	96
NMTAP	52	144	5
NMTAP	52	168	4
NMTAP	52	192	5
NMTAP	52	240	2
NMTAP	52	264	3
NMTAP	52	312	5
NMTAP	52	336	4
EXTAP	53	0	3
NMTAP	53	24	3
NMTAP	53	48	7
EXTAP	53	72	2
NMTAP	53	96	2
NMTAP	53	120	6
EXTAP	53	144	1
NMTAP	53	168	1
NMTAP	53	192	5
EXTAP	53	216	0
NMTAP	53	240	0
NMTAP	53	264	4
NMSTR	53	288	7
NMSI_	53	288	7	96	48	3
BRHLD	54	0	2	1440
NMTAP	54	0	7
NMHLD	58	0	2	192
NMTAP	58	0	4
NMTAP	58	48	4
NMTAP	58	96	4
NMTAP	58	144	4
NMTAP	58	192	5
NMTAP	58	240	5
NMHLD	58	288	2	48
NMTAP	58	288	5
NMTAP	58	336	5
NMHLD	59	0	2	192
NMTAP	59	0	6
NMTAP	59	48	6
NMTAP	59	96	6
NMTAP	59	144	6
NMTAP	59	192	7
NMTAP	59	240	7
NMHLD	59	288	2	48
NMTAP	59	288	7
NMTAP	59	336	7
NMSTR	60	0	0
NMSLR	60	0	0	96	96	6
NMHLD	60	0	2	192
NMTAP	60	240	7
NMHLD	60	288	2	48
NMTAP	60	288	6
NMTAP	60	336	5
NMTAP	61	0	3
NMSTR	61	0	4
NMSI_	61	0	4	96	48	0
NMTAP	61	48	5
NMSTR	61	96	3
NMSI_	61	96	3	96	48	7
NMTAP	61	144	2
NMSTR	61	192	4
NMSI_	61	192	4	96	48	0
NMTAP	61	240	5
NMSTR	61	288	3
NMSCR	61	288	3	96	192	2
BRTAP	62	0	7
NMTAP	62	288	2
NMTAP	62	312	5
NMTAP	62	336	2
NMTAP	62	360	5
EXTAP	63	0	0
NMTAP	63	24	0
NMTAP	63	48	6
NMTAP	63	72	6
NMSTR	63	96	7
NMSLR	63	96	7	96	72	5
NMTAP	63	144	4
NMTAP	63	168	4
NMTAP	63	216	6
NMTAP	63	240	6
NMTAP	63	288	4
NMTAP	63	288	6
NMTAP	63	336	2
NMTAP	63	336	3
NMTAP	64	0	7
NMTAP	64	24	7
NMTAP	64	48	1
NMTAP	64	72	1
NMSTR	64	96	0
NMSLL	64	96	0	96	72	2
NMTAP	64	144	3
NMTAP	64	168	3
NMTAP	64	216	1
NMTAP	64	240	1
NMTAP	64	288	1
NMTAP	64	288	3
NMTAP	64	336	4
NMTAP	64	336	5
NMTAP	65	0	0
NMTAP	65	24	0
NMTAP	65	48	6
NMTAP	65	72	6
NMSTR	65	96	7
NMSLR	65	96	7	96	72	5
NMTAP	65	144	4
NMTAP	65	168	4
NMTAP	65	216	6
NMTAP	65	240	6
NMTAP	65	288	7
NMTAP	65	336	0
NMTAP	65	336	6
NMTTP	66	0	1	E	1	M1
EXHLD	66	0	5	48
NMTTP	66	12	0	B	0	M1
NMTTP	66	24	7	B	0	M1
NMTTP	66	36	7	E	0	M1
EXHLD	66	96	1	48
NMTTP	66	96	5	E	1	M1
NMTTP	66	108	4	B	0	M1
NMTTP	66	120	3	B	0	M1
NMTTP	66	132	3	E	0	M1
NMTTP	66	192	1	E	1	M1
EXHLD	66	192	5	48
NMTTP	66	204	0	B	0	M1
NMTTP	66	216	7	B	0	M1
NMTTP	66	228	7	E	0	M1
BRTAP	66	288	1
NMTTP	66	288	5	E	1	M1
NMTTP	66	300	4	B	0	M1
NMTTP	66	312	3	B	0	M1
NMTTP	66	324	3	E	0	M1
EXTAP	67	0	7
NMTAP	67	24	7
NMTAP	67	48	1
NMTAP	67	72	1
NMSTR	67	96	0
NMSLL	67	96	0	96	72	2
NMTAP	67	144	3
NMTAP	67	168	3
NMTAP	67	216	1
NMTAP	67	240	1
NMTAP	67	288	1
NMTAP	67	288	3
NMTAP	67	336	4
NMTAP	67	336	5
NMTAP	68	0	0
NMTAP	68	24	0
NMTAP	68	48	6
NMTAP	68	72	6
NMSTR	68	96	7
NMSLR	68	96	7	96	72	5
NMTAP	68	144	4
NMTAP	68	168	4
NMTAP	68	216	6
NMTAP	68	240	6
NMTAP	68	288	4
NMTAP	68	288	6
NMTAP	68	336	2
NMTAP	68	336	3
NMSTR	69	0	7
NMSI_	69	0	7	96	48	3
NMTAP	69	24	0
NMTAP	69	24	6
NMTAP	69	72	2
NMTAP	69	96	2
NMSTR	69	144	0
NMSI_	69	144	0	96	48	4
NMTAP	69	168	1
NMTAP	69	168	7
NMTAP	69	216	5
NMTAP	69	240	5
NMTAP	69	288	7
NMTAP	69	336	0
NMTAP	69	336	6
EXHLD	70	0	2	48
NMTTP	70	0	7	E	1	M1
NMTTP	70	12	7	B	0	M1
NMTTP	70	24	0	B	0	M1
NMTTP	70	36	1	E	0	M1
NMTTP	70	96	3	E	1	M1
EXHLD	70	96	6	48
NMTTP	70	108	3	B	0	M1
NMTTP	70	120	4	B	0	M1
NMTTP	70	132	5	E	0	M1
EXHLD	70	192	2	48
NMTTP	70	192	7	E	1	M1
NMTTP	70	204	7	B	0	M1
NMTTP	70	216	0	B	0	M1
NMTTP	70	228	1	E	0	M1
NMTTP	70	288	3	E	1	M1
EXTAP	70	288	6
NMTTP	70	300	3	B	0	M1
NMTTP	70	312	4	B	0	M1
NMTTP	70	324	5	E	0	M1
NMTAP	71	0	1
NMTAP	71	0	7
NMSTR	71	48	0
NMSXL	71	48	0	96	144	3
NMTAP	71	48	6
NMTAP	71	72	0
NMTAP	71	72	6
NMTAP	71	120	5
NMTAP	71	144	5
NMTAP	71	192	4
NMTAP	71	240	5
NMTAP	71	288	6
NMTAP	71	336	4
NMTAP	71	336	7
NMTAP	72	0	0
NMTAP	72	0	6
NMTAP	72	48	1
NMSTR	72	48	7
NMSXR	72	48	7	96	144	4
NMTAP	72	72	1
NMTAP	72	72	7
NMTAP	72	120	2
NMTAP	72	144	2
NMTAP	72	192	3
NMTAP	72	240	2
NMTAP	72	288	1
NMTAP	72	336	0
NMTAP	72	336	3
NMTAP	73	0	2
NMTAP	73	0	4
NMTAP	73	48	3
NMTAP	73	48	5
NMTAP	73	96	1
NMTAP	73	120	3
NMHLD	73	144	2	48
NMTAP	73	192	6
NMTAP	73	216	4
NMHLD	73	240	5	48
NMTAP	73	288	0
NMTAP	73	312	2
NMHLD	73	336	1	48
NMTAP	74	0	7
NMTAP	74	24	0
NMTAP	74	48	7
NMTAP	74	72	0
NMSTR	74	96	1
NMSI_	74	96	1	96	48	3
NMSTR	74	96	5
NMSI_	74	96	5	96	48	3
EXSTR	74	192	1
NMSI_	74	192	1	96	48	7
EXSTR	74	192	5
NMSI_	74	192	5	96	48	7
EXTAP	74	288	1
EXTAP	74	288	5
BRSTR	75	0	2
NMSLR	75	0	2	96	672	7
NMHLD	75	0	6	768

T_REC_TAP	520
T_REC_BRK	8
T_REC_XTP	34
T_REC_BXX	0
T_REC_HLD	47
T_REC_XHO	17
T_REC_BHO	2
T_REC_BXH	0
T_REC_STR	45
T_REC_BST	2
T_REC_XST	4
T_REC_XBS	0
T_REC_TTP	70
T_REC_THO	1
T_REC_SLD	51
T_REC_BSL	1
T_REC_ALL	802
T_NUM_TAP	673
T_NUM_BRK	13
T_NUM_HLD	65
T_NUM_SLD	51
T_NUM_ALL	802
T_JUDGE_TAP	683
T_JUDGE_HLD	183
T_JUDGE_SLD	52
T_JUDGE_ALL	918
TTM_EACHPAIRS	113
TTM_SCR_TAP	336500
TTM_SCR_BRK	33800
TTM_SCR_HLD	65000
TTM_SCR_SLD	76500
TTM_SCR_ALL	511800
TTM_SCR_S	495200
TTM_SCR_SS	510500
TTM_RAT_ACV	10025

