VERSION	0.00.00	1.04.00
FES_MODE	1
BPM_DEF	125.000	125.000	125.000	125.000
MET_DEF	4	4
RESOLUTION	384
CLK_DEF	384
COMPATIBLE_CODE	MA2

BPM	0	0	125.000
MET	0	0	4	4

NMTAP	1	288	6
NMTAP	1	312	1
NMTAP	1	336	5
NMTAP	1	360	2
EXTAP	2	0	3
EXTAP	2	0	4
NMTAP	2	48	2
NMTAP	2	72	3
NMTAP	2	96	2
NMTAP	2	144	4
NMTAP	2	168	3
NMTAP	2	216	5
NMTAP	2	240	4
NMTAP	2	288	3
NMTAP	2	288	6
NMTAP	2	336	1
NMTAP	2	336	4
NMTAP	3	0	3
NMTAP	3	0	4
NMTAP	3	48	5
NMTAP	3	72	4
NMTAP	3	96	5
NMTAP	3	144	3
NMTAP	3	168	4
NMTAP	3	216	2
NMTAP	3	240	3
NMTAP	3	288	1
NMTAP	3	288	4
NMTAP	3	336	3
NMTAP	3	336	6
NMTAP	4	0	7
NMTAP	4	24	3
NMTAP	4	48	6
NMTAP	4	72	3
NMTAP	4	96	5
NMTAP	4	120	3
NMTAP	4	144	4
NMTAP	4	168	3
NMTAP	4	192	2
NMTAP	4	216	3
NMTAP	4	240	1
NMTAP	4	264	3
NMTAP	4	288	0
NMTAP	4	312	3
NMTAP	4	336	7
NMTAP	4	360	3
NMTAP	5	0	6
NMHLD	5	24	6	72
NMTAP	5	72	7
NMTAP	5	96	7
NMTAP	5	144	0
NMSTR	5	168	0
NMSCR	5	168	0	96	72	4
NMTAP	5	216	4
NMTAP	5	240	4
NMTAP	5	288	5
NMTAP	5	336	6
EXTAP	6	0	3
EXTAP	6	0	4
NMTAP	6	48	5
NMTAP	6	72	4
NMTAP	6	96	5
NMTAP	6	144	3
NMTAP	6	168	4
NMTAP	6	216	2
NMTAP	6	240	3
NMTAP	6	288	1
NMTAP	6	288	4
NMTAP	6	336	3
NMTAP	6	336	6
NMTAP	7	0	3
NMTAP	7	0	4
NMTAP	7	48	2
NMTAP	7	72	3
NMTAP	7	96	2
NMTAP	7	144	4
NMTAP	7	168	3
NMTAP	7	216	5
NMTAP	7	240	4
NMTAP	7	288	3
NMTAP	7	288	6
NMTAP	7	336	1
NMTAP	7	336	4
NMTAP	8	0	0
NMTAP	8	24	4
NMTAP	8	48	1
NMTAP	8	72	4
NMTAP	8	96	2
NMTAP	8	120	4
NMTAP	8	144	3
NMTAP	8	168	4
NMTAP	8	192	5
NMTAP	8	216	4
NMTAP	8	240	6
NMTAP	8	264	4
NMTAP	8	288	7
NMTAP	8	312	4
NMTAP	8	336	0
NMTAP	8	360	4
NMTAP	9	0	1
NMHLD	9	24	1	72
NMTAP	9	72	3
NMTAP	9	96	3
NMTAP	9	144	4
NMTAP	9	168	3
NMTAP	9	216	3
NMTAP	9	216	4
NMTAP	9	240	3
NMTAP	9	240	4
NMTAP	9	288	0
NMTAP	9	288	7
NMTAP	9	336	1
NMTAP	9	336	6
NMHLD	10	0	2	240
NMTAP	10	48	4
NMTAP	10	96	3
NMTAP	10	168	1
NMTAP	10	240	6
NMHLD	10	288	1	48
NMTAP	10	288	5
NMTAP	10	336	5
NMHLD	11	0	2	240
NMTAP	11	48	4
NMTAP	11	96	3
NMTAP	11	168	1
NMTAP	11	240	5
NMHLD	11	288	1	48
NMSTR	11	288	4
NMSI_	11	288	4	96	48	7
NMTAP	11	336	4
NMHLD	12	0	2	240
EXTAP	12	0	4
NMTAP	12	96	6
NMTAP	12	144	6
NMTAP	12	240	7
NMHLD	12	288	1	48
NMTAP	12	288	6
NMTAP	12	336	5
NMHLD	13	0	2	96
NMSTR	13	0	4
NMSI_	13	0	4	96	48	1
EXTAP	13	96	4
NMSTR	13	192	2
NMSI_	13	192	2	96	48	0
NMSTR	13	192	3
NMSI_	13	192	3	96	48	7
EXTAP	13	288	2
EXTAP	13	288	3
NMHLD	14	0	2	240
NMTAP	14	48	4
NMTAP	14	96	3
NMTAP	14	168	1
NMTAP	14	240	6
NMHLD	14	288	1	48
NMTAP	14	288	5
NMTAP	14	336	5
NMHLD	15	0	2	240
NMTAP	15	48	4
NMTAP	15	96	3
NMTAP	15	168	1
NMTAP	15	240	5
NMHLD	15	288	1	48
NMSTR	15	288	6
NMSCR	15	288	6	96	48	1
NMTAP	15	336	6
NMHLD	16	0	2	240
EXTAP	16	0	6
NMTAP	16	96	3
NMTAP	16	144	3
NMTAP	16	240	5
NMHLD	16	288	1	48
NMTAP	16	288	6
NMHLD	17	0	2	192
NMTAP	17	0	7
NMTAP	17	48	7
NMTAP	17	144	1
NMSTR	17	192	1
NMSI_	17	192	1	96	48	6
NMTAP	18	0	1
NMTAP	18	0	6
NMTAP	18	48	6
NMTAP	18	72	7
NMTAP	18	96	6
NMTAP	18	144	0
NMTAP	18	168	7
NMTAP	18	216	1
NMTAP	18	240	0
NMTAP	18	288	0
NMTAP	18	288	1
NMTAP	18	336	2
NMTAP	18	336	7
NMTAP	19	0	0
NMTAP	19	0	1
NMTAP	19	48	1
NMTAP	19	72	0
NMTAP	19	96	1
NMTAP	19	144	7
NMTAP	19	168	0
NMTAP	19	216	6
NMTAP	19	240	7
NMTAP	19	288	0
NMTAP	19	288	5
NMTAP	19	336	6
NMTAP	19	336	7
NMTAP	20	0	0
NMHLD	20	0	5	96
NMTAP	20	96	4
NMTAP	20	144	3
NMTAP	20	168	4
NMTAP	20	216	2
NMTAP	20	240	3
NMTAP	20	288	2
NMTAP	20	288	3
NMTAP	20	336	1
NMTAP	20	336	4
NMTAP	21	0	2
NMTAP	21	0	3
NMTAP	21	48	2
NMTAP	21	72	3
NMTAP	21	96	2
NMTAP	21	144	4
NMTAP	21	168	3
NMTAP	21	216	5
NMTAP	21	240	4
NMSTR	21	288	4
NMSI_	21	288	4	96	48	0
NMSTR	21	288	5
NMSI_	21	288	5	96	48	7
EXTAP	22	0	4
EXTAP	22	0	5
NMTAP	22	96	0
NMTAP	22	96	1
NMTAP	22	144	7
NMTAP	22	168	0
NMTAP	22	216	6
NMTAP	22	240	7
NMTAP	22	288	6
NMTAP	22	288	7
NMTAP	22	336	0
NMTAP	22	336	5
NMTAP	23	0	6
NMTAP	23	0	7
NMTAP	23	48	6
NMTAP	23	72	7
NMTAP	23	96	6
NMTAP	23	144	0
NMTAP	23	168	7
NMTAP	23	216	1
NMTAP	23	240	0
NMSTR	23	288	2
NMSI_	23	288	2	96	48	0
NMSTR	23	288	7
NMSI_	23	288	7	96	48	3
NMTAP	24	0	2
NMTAP	24	0	7
NMTAP	24	96	1
NMTAP	24	96	5
NMTAP	24	144	3
NMTAP	24	168	4
NMTAP	24	216	2
NMTAP	24	240	3
NMTAP	24	288	2
NMTAP	24	288	3
NMTAP	24	336	1
NMTAP	24	336	4
NMTAP	25	0	2
NMTAP	25	0	3
NMTAP	25	48	2
NMTAP	25	72	3
NMTAP	25	96	2
NMTAP	25	144	4
NMTAP	25	168	3
NMTAP	25	216	5
NMTAP	25	240	4
NMSTR	25	288	6
NMSCR	25	288	6	96	48	1
NMTAP	25	288	7
NMTAP	25	336	5
NMTAP	26	0	3
EXTAP	26	0	6
NMHLD	26	48	3	96
NMTTP	26	144	2	B	0	M1
NMTTP	26	192	5	B	0	M1
NMTAP	26	240	0
NMTAP	26	288	1
NMTAP	26	336	2
NMTAP	27	0	4
NMHLD	27	48	4	96
NMTTP	27	144	5	B	0	M1
NMTTP	27	192	2	B	0	M1
NMTAP	27	240	7
NMTAP	27	288	6
NMTAP	27	336	5
NMTAP	28	0	3
NMHLD	28	48	3	96
NMTTP	28	144	2	B	0	M1
NMTTP	28	192	5	B	0	M1
NMSTR	28	240	0
NMSCL	28	240	0	96	144	3
NMTAP	28	288	1
NMHLD	28	336	2	336
NMSTR	29	192	7
NMSI_	29	192	7	96	48	3
NMTAP	30	0	5
NMTAP	30	48	5
NMTAP	30	96	4
NMTAP	30	96	6
NMTAP	30	144	3
NMTAP	30	168	4
NMTAP	30	216	2
NMHLD	30	240	3	96
NMTAP	30	288	0
NMTAP	30	336	1
NMTAP	31	0	2
NMTAP	31	48	2
NMTAP	31	96	1
NMTAP	31	96	3
NMTAP	31	144	4
NMTAP	31	168	3
NMTAP	31	216	5
NMHLD	31	240	4	96
NMTAP	31	288	7
NMTAP	31	336	6
NMSTR	32	0	5
NMSI_	32	0	5	96	48	1
NMTAP	32	48	5
NMSTR	32	96	7
NMSI_	32	96	7	96	48	3
NMTAP	32	144	7
NMSTR	32	192	4
NMSI_	32	192	4	96	48	0
NMTAP	32	240	4
NMTAP	32	288	1
NMTAP	32	336	2
NMTAP	33	0	3
NMTAP	33	0	4
NMTAP	33	48	2
NMTAP	33	48	5
NMTAP	33	96	1
NMSTR	33	96	6
NMSCL	33	96	6	96	96	0
NMTAP	33	144	0
NMTAP	33	144	7
EXTAP	33	192	1
EXTAP	33	192	6
BRTAP	33	288	7
EXSTR	34	0	6
NMSLL	34	0	6	96	96	0
NMTAP	34	24	7
NMTAP	34	48	6
NMTAP	34	72	7
NMTAP	34	96	6
NMTAP	34	144	3
NMTAP	34	168	3
NMTAP	34	216	2
NMTAP	34	240	2
NMTAP	34	288	0
NMTAP	34	288	7
NMTAP	34	336	3
NMTAP	34	336	5
NMTAP	35	0	2
NMTAP	35	24	4
NMTAP	35	48	0
NMTAP	35	72	7
NMTAP	35	96	3
NMTAP	35	144	5
NMTAP	35	168	4
NMTAP	35	216	1
NMTAP	35	240	0
NMTAP	35	288	0
NMTAP	35	288	7
NMTAP	35	336	6
NMSTR	36	0	6
NMSLL	36	0	6	96	96	0
NMTAP	36	24	7
NMTAP	36	48	6
NMTAP	36	72	7
NMTAP	36	96	6
NMTAP	36	144	3
NMTAP	36	168	3
NMTAP	36	216	2
NMTAP	36	240	2
NMTAP	36	288	0
NMTAP	36	288	1
NMTAP	36	336	6
NMTAP	36	336	7
EXHLD	37	0	2	48
NMTTP	37	0	7	E	0	M1
NMTTP	37	12	7	B	0	M1
NMTTP	37	24	0	B	0	M1
NMTTP	37	36	1	E	0	M1
NMTTP	37	96	3	E	0	M1
EXHLD	37	96	6	48
NMTTP	37	108	3	B	0	M1
NMTTP	37	120	4	B	0	M1
NMTTP	37	132	5	E	0	M1
EXHLD	37	192	2	48
NMTTP	37	192	7	E	0	M1
NMTTP	37	204	7	B	0	M1
NMTTP	37	216	0	B	0	M1
NMTTP	37	228	1	E	0	M1
NMTTP	37	288	3	E	0	M1
BRTAP	37	288	6
NMTTP	37	300	3	B	0	M1
NMTTP	37	312	4	B	0	M1
NMTTP	37	324	5	E	0	M1
NMTAP	38	0	2
NMTAP	38	24	3
NMTAP	38	48	2
NMTAP	38	72	3
NMHLD	38	96	1	48
NMTAP	38	144	4
NMHLD	38	168	7	48
NMTAP	38	216	6
NMHLD	38	240	0	48
NMTAP	38	288	5
NMTAP	38	312	4
NMTAP	38	336	5
NMSTR	39	0	6
NMSLL	39	0	6	96	96	0
NMTAP	39	24	7
NMTAP	39	48	6
NMTAP	39	72	7
NMTAP	39	96	6
NMTAP	39	144	3
NMTAP	39	168	3
NMTAP	39	216	1
NMTAP	39	240	1
NMTAP	39	288	3
NMTAP	39	288	4
NMSTR	40	0	1
NMSLR	40	0	1	96	96	7
NMTAP	40	24	0
NMTAP	40	48	1
NMTAP	40	72	0
NMTAP	40	96	1
NMTAP	40	144	4
NMTAP	40	168	4
NMTAP	40	216	5
NMTAP	40	240	5
NMTAP	40	288	6
NMTAP	40	288	7
NMTAP	40	336	0
NMTAP	40	336	1
NMTTP	41	0	1	E	0	M1
EXHLD	41	0	5	48
NMTTP	41	12	0	B	0	M1
NMTTP	41	24	7	B	0	M1
NMTTP	41	36	7	E	0	M1
EXHLD	41	96	1	48
NMTTP	41	96	5	E	0	M1
NMTTP	41	108	4	B	0	M1
NMTTP	41	120	3	B	0	M1
NMTTP	41	132	3	E	0	M1
NMTTP	41	192	1	E	0	M1
EXHLD	41	192	5	48
NMTTP	41	204	0	B	0	M1
NMTTP	41	216	7	B	0	M1
NMTTP	41	228	7	E	0	M1
EXTAP	41	288	1
NMTTP	41	288	5	E	0	M1
NMTTP	41	300	4	B	0	M1
NMTTP	41	312	3	B	0	M1
NMTTP	41	324	3	E	0	M1
NMHLD	42	0	2	384
NMTAP	42	0	3
NMTAP	42	48	1
NMTAP	42	72	1
NMSTR	42	144	7
NMSCR	42	144	7	96	96	4
NMTAP	42	192	7
NMHLD	43	0	5	384
NMTAP	43	48	6
NMTAP	43	72	6
NMTAP	43	120	7
NMTAP	43	144	7
EXSTR	43	192	0
NMSI_	43	192	0	96	48	3
EXTAP	43	288	0
EXTAP	44	0	3
NMHLD	44	144	2	48
BRHLD	44	144	5	48
NMTAP	44	240	3
BRTAP	44	240	4
NMTAP	44	288	2
BRTAP	44	288	5
NMTAP	44	336	1
BRTAP	44	336	6
BRSTR	45	0	7
BRSI_	45	0	7	96	48	4
NMSTR	45	1	0
NMSI_	45	1	0	96	47	3
NMTHO	45	192	0	192	C	1	M1
BRTAP	46	0	0
NMTAP	46	96	1
NMHLD	46	144	1	144
NMTAP	46	240	2
NMSTR	46	288	3
NMSLR	46	288	3	96	96	1
NMTAP	46	336	4
NMHLD	47	0	5	144
NMSTR	47	144	0
NMSCR	47	144	0	96	48	3
NMTAP	47	240	4
NMTAP	47	288	4
NMTAP	47	336	6
NMTAP	47	360	4
NMTAP	48	0	5
NMTAP	48	72	3
NMSTR	48	72	5
NMSXL	48	72	5	96	120	3
EXHLD	48	144	2	144
EXTAP	48	144	5
NMTAP	48	336	1
NMTAP	48	360	3
NMTAP	49	0	2
NMSTR	49	72	2
NMSSL	49	72	2	96	120	6
NMTAP	49	72	4
EXTAP	49	144	2
EXHLD	49	144	5	144
NMTAP	50	0	1
NMTAP	50	0	3
NMTAP	50	48	5
NMTAP	50	72	4
NMTAP	50	96	6
NMTAP	50	120	6
NMTAP	50	144	3
NMTAP	50	168	4
NMTAP	50	192	1
NMTAP	50	216	1
NMTAP	50	264	0
NMTAP	50	264	2
NMTAP	50	312	7
NMTAP	50	336	0
EXTAP	51	0	7
NMTAP	51	16	6
NMTAP	51	32	5
EXTAP	51	48	0
NMTAP	51	64	1
NMTAP	51	80	2
EXHLD	51	96	4	48
EXHLD	51	144	3	48
EXTAP	51	192	6
NMTAP	51	208	5
NMTAP	51	224	4
EXTAP	51	240	1
NMTAP	51	256	2
NMTAP	51	272	3
NMSTR	51	288	5
NMSCL	51	288	5	96	96	7
NMHLD	52	0	1	96
EXTAP	52	0	5
NMTAP	52	144	2
NMTAP	52	168	3
NMTAP	52	192	2
NMTAP	52	240	5
NMTAP	52	264	4
NMTAP	52	312	2
NMTAP	52	336	3
EXTAP	53	0	4
NMTAP	53	24	4
NMTAP	53	48	0
EXTAP	53	72	5
NMTAP	53	96	5
NMTAP	53	120	1
EXTAP	53	144	6
NMTAP	53	168	6
NMTAP	53	192	2
EXTAP	53	216	7
NMTAP	53	240	7
NMTAP	53	264	3
EXSTR	53	288	0
NMSCL	53	288	0	96	192	3
NMHLD	54	0	2	1344
NMTTP	55	0	1	E	0	M1
NMTTP	55	192	0	C	0	M1
NMTTP	56	0	5	E	0	M1
NMTAP	56	144	6
NMTAP	56	240	5
NMTAP	56	288	4
NMTAP	56	336	3
NMHLD	57	0	1	96
NMSTR	57	192	3
NMSI_	57	192	3	96	48	7
NMHLD	58	0	4	1104
NMTAP	58	0	5
NMTAP	58	48	5
NMTAP	58	96	5
NMTAP	58	144	5
NMTAP	58	192	5
NMTAP	58	240	5
NMTAP	58	288	6
NMTAP	58	336	6
NMTAP	59	0	5
NMTAP	59	48	5
NMTAP	59	96	5
NMTAP	59	144	5
NMTAP	59	192	5
NMTAP	59	240	5
NMTAP	59	288	6
NMTAP	59	336	6
NMTAP	60	0	5
NMTAP	60	48	5
NMTAP	60	96	5
NMTAP	60	144	5
NMTAP	60	192	5
NMTAP	60	240	5
NMTAP	60	288	6
NMTAP	60	336	5
NMSTR	61	0	3
NMSI_	61	0	3	96	48	7
NMTAP	61	0	4
NMTAP	61	48	2
NMSTR	61	96	4
NMSI_	61	96	4	96	48	0
NMTAP	61	144	5
NMSTR	61	192	3
NMSI_	61	192	3	96	48	7
NMTAP	61	240	2
NMSTR	61	288	4
NMSCL	61	288	4	96	192	5
BRTAP	62	0	0
NMTAP	62	288	5
NMTAP	62	312	2
NMTAP	62	336	5
NMTAP	62	360	2
EXTAP	63	0	7
NMTAP	63	24	7
NMTAP	63	48	1
NMTAP	63	72	1
NMSTR	63	96	0
NMSLL	63	96	0	96	72	2
NMTAP	63	144	3
NMTAP	63	168	3
NMTAP	63	216	1
NMTAP	63	240	1
NMTAP	63	288	1
NMTAP	63	288	3
NMTAP	63	336	4
NMTAP	63	336	5
NMTAP	64	0	0
NMTAP	64	24	0
NMTAP	64	48	6
NMTAP	64	72	6
NMSTR	64	96	7
NMSLR	64	96	7	96	72	5
NMTAP	64	144	4
NMTAP	64	168	4
NMTAP	64	216	6
NMTAP	64	240	6
NMTAP	64	288	4
NMTAP	64	288	6
NMTAP	64	336	2
NMTAP	64	336	3
NMTAP	65	0	7
NMTAP	65	24	7
NMTAP	65	48	1
NMTAP	65	72	1
NMSTR	65	96	0
NMSLL	65	96	0	96	72	2
NMTAP	65	144	3
NMTAP	65	168	3
NMTAP	65	216	1
NMTAP	65	240	1
NMTAP	65	288	0
NMTAP	65	336	1
NMTAP	65	336	7
EXHLD	66	0	2	48
NMTTP	66	0	7	E	1	M1
NMTTP	66	12	7	B	0	M1
NMTTP	66	24	0	B	0	M1
NMTTP	66	36	1	E	0	M1
NMTTP	66	96	3	E	1	M1
EXHLD	66	96	6	48
NMTTP	66	108	3	B	0	M1
NMTTP	66	120	4	B	0	M1
NMTTP	66	132	5	E	0	M1
EXHLD	66	192	2	48
NMTTP	66	192	7	E	1	M1
NMTTP	66	204	7	B	0	M1
NMTTP	66	216	0	B	0	M1
NMTTP	66	228	1	E	0	M1
NMTTP	66	288	3	E	1	M1
BRTAP	66	288	6
NMTTP	66	300	3	B	0	M1
NMTTP	66	312	4	B	0	M1
NMTTP	66	324	5	E	0	M1
EXTAP	67	0	0
NMTAP	67	24	0
NMTAP	67	48	6
NMTAP	67	72	6
NMSTR	67	96	7
NMSLR	67	96	7	96	72	5
NMTAP	67	144	4
NMTAP	67	168	4
NMTAP	67	216	6
NMTAP	67	240	6
NMTAP	67	288	4
NMTAP	67	288	6
NMTAP	67	336	2
NMTAP	67	336	3
NMTAP	68	0	7
NMTAP	68	24	7
NMTAP	68	48	1
NMTAP	68	72	1
NMSTR	68	96	0
NMSLL	68	96	0	96	72	2
NMTAP	68	144	3
NMTAP	68	168	3
NMTAP	68	216	1
NMTAP	68	240	1
NMTAP	68	288	1
NMTAP	68	288	3
NMTAP	68	336	4
NMTAP	68	336	5
NMSTR	69	0	0
NMSI_	69	0	0	96	48	4
NMTAP	69	24	1
NMTAP	69	24	7
NMTAP	69	72	5
NMTAP	69	96	5
NMSTR	69	144	7
NMSI_	69	144	7	96	48	3
NMTAP	69	168	0
NMTAP	69	168	6
NMTAP	69	216	2
NMTAP	69	240	2
NMTAP	69	288	0
NMTAP	69	336	1
NMTAP	69	336	7
NMTTP	70	0	1	E	1	M1
EXHLD	70	0	5	48
NMTTP	70	12	0	B	0	M1
NMTTP	70	24	7	B	0	M1
NMTTP	70	36	7	E	0	M1
EXHLD	70	96	1	48
NMTTP	70	96	5	E	1	M1
NMTTP	70	108	4	B	0	M1
NMTTP	70	120	3	B	0	M1
NMTTP	70	132	3	E	0	M1
NMTTP	70	192	1	E	1	M1
EXHLD	70	192	5	48
NMTTP	70	204	0	B	0	M1
NMTTP	70	216	7	B	0	M1
NMTTP	70	228	7	E	0	M1
EXTAP	70	288	1
NMTTP	70	288	5	E	1	M1
NMTTP	70	300	4	B	0	M1
NMTTP	70	312	3	B	0	M1
NMTTP	70	324	3	E	0	M1
NMTAP	71	0	0
NMTAP	71	0	6
NMTAP	71	48	1
NMSTR	71	48	7
NMSXR	71	48	7	96	144	4
NMTAP	71	72	1
NMTAP	71	72	7
NMTAP	71	120	2
NMTAP	71	144	2
NMTAP	71	192	3
NMTAP	71	240	2
NMTAP	71	288	1
NMTAP	71	336	0
NMTAP	71	336	3
NMTAP	72	0	1
NMTAP	72	0	7
NMSTR	72	48	0
NMSXL	72	48	0	96	144	3
NMTAP	72	48	6
NMTAP	72	72	0
NMTAP	72	72	6
NMTAP	72	120	5
NMTAP	72	144	5
NMTAP	72	192	4
NMTAP	72	240	5
NMTAP	72	288	6
NMTAP	72	336	4
NMTAP	72	336	7
NMTAP	73	0	3
NMTAP	73	0	5
NMTAP	73	48	2
NMTAP	73	48	4
NMTAP	73	96	6
NMTAP	73	120	4
NMHLD	73	144	5	48
NMTAP	73	192	1
NMTAP	73	216	3
NMHLD	73	240	2	48
NMTAP	73	288	7
NMTAP	73	312	5
NMHLD	73	336	6	48
NMTAP	74	0	0
NMTAP	74	24	7
NMTAP	74	48	0
NMTAP	74	72	7
NMSTR	74	96	2
NMSI_	74	96	2	96	48	4
NMSTR	74	96	6
NMSI_	74	96	6	96	48	4
EXSTR	74	192	2
NMSI_	74	192	2	96	48	0
EXSTR	74	192	6
NMSI_	74	192	6	96	48	0
EXTAP	74	288	2
EXTAP	74	288	6
NMHLD	75	0	1	768
BRSTR	75	0	5
BRSLL	75	0	5	96	672	0

T_REC_TAP	536
T_REC_BRK	8
T_REC_XTP	33
T_REC_BXX	0
T_REC_HLD	39
T_REC_XHO	16
T_REC_BHO	1
T_REC_BXH	0
T_REC_STR	44
T_REC_BST	2
T_REC_XST	5
T_REC_XBS	0
T_REC_TTP	73
T_REC_THO	1
T_REC_SLD	49
T_REC_BSL	2
T_REC_ALL	809
T_NUM_TAP	691
T_NUM_BRK	13
T_NUM_HLD	56
T_NUM_SLD	49
T_NUM_ALL	809
T_JUDGE_TAP	701
T_JUDGE_HLD	190
T_JUDGE_SLD	51
T_JUDGE_ALL	942
TTM_EACHPAIRS	107
TTM_SCR_TAP	345500
TTM_SCR_BRK	33800
TTM_SCR_HLD	56000
TTM_SCR_SLD	73500
TTM_SCR_ALL	508800
TTM_SCR_S	492300
TTM_SCR_SS	507500
TTM_RAT_ACV	10025

