VERSION	0.00.00	1.04.00
FES_MODE	1
BPM_DEF	147.000	147.000	147.000	147.000
MET_DEF	4	4
RESOLUTION	384
CLK_DEF	384
COMPATIBLE_CODE	MA2

BPM	0	0	147.000
MET	0	0	4	4

NMTAP	3	0	4
NMTAP	3	0	5
NMHLD	3	48	4	192
NMHLD	3	48	5	192
NMHLD	3	288	4	768
NMHLD	3	288	5	768
NMSTR	4	0	2
NMSTR	4	0	3
NMHLD	4	48	2	192
NMHLD	4	48	3	192
NMSTR	4	288	2
NMSTR	4	288	3
NMSTR	5	0	2
NMSTR	5	0	3
NMHLD	5	48	2	192
NMHLD	5	48	3	192
NMHLD	5	288	2	1152
NMHLD	5	288	3	1152
NMTAP	6	0	4
NMTAP	6	0	5
NMHLD	6	48	4	192
NMHLD	6	48	5	192
NMHLD	6	288	4	768
NMHLD	6	288	5	768
BRTAP	9	192	4
BRTAP	9	192	7
BRSTR	9	288	0
BRSTR	9	288	3
BRTAP	10	192	4
BRTAP	10	192	7
BRSTR	10	288	0
BRSTR	10	288	3
BRTAP	12	0	4
BRTAP	12	0	5
NMTTP	12	96	6	B	0	M1
NMTTP	12	96	7	E	1	M1
NMTTP	12	96	7	D	0	M1
BRSTR	12	192	2
BRSTR	12	192	3
NMTTP	12	288	1	B	0	M1
NMTTP	12	288	1	E	1	M1
NMTTP	12	288	1	D	0	M1
NMTAP	13	96	4
NMSI_	13	96	4	96	48	7
NMTAP	13	96	5
NMSI_	13	96	5	96	48	7
NMSTR	13	192	2
NMSI_	13	192	2	96	48	0
NMSTR	13	192	3
NMSI_	13	192	3	96	48	0
BRTAP	13	192	4
BRTAP	13	192	5
BRSTR	13	288	2
BRSTR	13	288	3
NMTAP	14	96	4
NMSI_	14	96	4	96	48	7
NMTAP	14	96	5
NMSI_	14	96	5	96	48	7
NMSTR	14	192	2
NMSI_	14	192	2	96	48	0
NMSTR	14	192	3
NMSI_	14	192	3	96	48	0
BRTAP	14	192	4
BRTAP	14	192	5
BRSTR	14	288	2
BRSTR	14	288	3
NMHLD	15	0	0	384
NMHLD	15	0	1	672
BRSTR	16	288	3
BRTAP	17	192	4
BRTAP	17	192	7
BRSTR	17	288	0
BRSTR	17	288	3
NMTTP	17	288	5	B	0	M1
NMTTP	17	288	5	E	0	M1
NMTTP	17	288	6	B	0	M1
NMTTP	17	288	7	E	0	M1
BRSTR	18	0	0
BRSTR	18	0	3
NMTTP	18	0	5	B	0	M1
NMTTP	18	0	5	E	0	M1
NMTTP	18	0	6	B	0	M1
NMTTP	18	0	7	E	0	M1
BRSTR	18	96	0
BRSTR	18	96	3
NMTTP	18	96	5	B	0	M1
NMTTP	18	96	5	E	0	M1
NMTTP	18	96	6	B	0	M1
NMTTP	18	96	7	E	0	M1
BRSTR	18	192	0
BRSTR	18	192	3
NMTTP	18	192	5	B	0	M1
NMTTP	18	192	5	E	0	M1
NMTTP	18	192	6	B	0	M1
NMTTP	18	192	7	E	0	M1
BRSTR	18	288	0
BRSTR	18	288	3
NMTAP	19	96	4
NMSI_	19	96	4	96	48	7
NMTAP	19	96	5
NMSI_	19	96	5	96	48	7
NMSTR	19	192	2
NMSI_	19	192	2	96	48	0
NMSTR	19	192	3
NMSI_	19	192	3	96	48	0
BRTAP	19	192	4
BRTAP	19	192	5
BRSTR	19	288	2
BRSTR	19	288	3
NMSTR	20	192	4
NMSI_	20	192	4	96	48	6
NMSTR	20	288	3
NMSI_	20	288	3	96	48	0
BRSTR	20	288	4
NMHLD	21	0	1	672
NMTAP	21	0	4
NMSI_	21	0	4	96	48	7
NMHLD	21	0	5	672
NMSTR	21	288	3
NMSI_	21	288	3	96	48	0
NMTAP	22	0	4
NMSI_	22	0	4	96	48	7
NMSTR	22	288	3
NMSI_	22	288	3	96	48	0
NMHLD	23	0	2	576
NMTAP	23	0	4
NMSI_	23	0	4	96	48	7
NMHLD	23	0	6	576
NMSTR	23	288	3
NMSI_	23	288	3	96	48	0
NMTAP	24	0	4
NMSI_	24	0	4	96	48	7
NMSTR	24	288	2
NMSI_	24	288	2	96	48	5
NMHLD	25	0	3	576
NMTAP	25	0	6
NMSI_	25	0	6	96	48	1
NMHLD	25	0	7	576
NMSTR	25	288	2
NMSI_	25	288	2	96	48	5
NMTAP	26	0	6
NMSI_	26	0	6	96	48	1
NMSTR	26	288	1
NMSI_	26	288	1	96	48	6
NMHLD	27	0	0	336
NMHLD	27	0	4	336
NMTAP	27	0	5
NMSI_	27	0	5	96	48	2
NMSTR	28	288	2
NMSTR	28	288	3
NMSTR	28	336	2
NMHLD	28	336	3	288
NMTTP	29	0	7	E	0	M1
NMSTR	29	96	2
NMTTP	29	96	6	E	0	M1
NMHLD	29	144	2	288
NMTTP	29	192	5	E	0	M1
NMSTR	29	288	3
NMTTP	29	288	5	B	0	M1
NMTTP	29	288	6	B	0	M1
NMHLD	29	336	3	240
NMTTP	30	0	7	E	0	M1
NMSTR	30	96	2
NMTTP	30	96	6	E	0	M1
NMHLD	30	144	2	96
NMTTP	30	192	5	E	0	M1
NMSTR	30	240	3
NMTTP	30	288	5	B	0	M1
NMTTP	30	288	6	B	0	M1
BRSTR	30	336	2
BRSTR	30	336	3
NMTTP	31	0	7	E	0	M1
NMSTR	31	96	2
NMSTR	31	96	3
NMTTP	31	96	6	E	0	M1
NMHLD	31	144	2	240
NMSTR	31	144	3
NMTTP	31	192	5	E	0	M1
NMSTR	31	288	3
NMTTP	31	288	5	B	0	M1
NMTTP	31	288	6	B	0	M1
NMHLD	31	336	3	336
NMTTP	32	0	7	E	0	M1
NMSTR	32	48	2
NMHLD	32	96	2	192
NMTTP	32	96	6	E	0	M1
NMTTP	32	192	5	E	0	M1
NMTTP	32	288	5	B	0	M1
NMTTP	32	288	6	B	0	M1
NMSTR	33	0	2
NMSTR	33	0	3
NMTAP	33	0	4
NMTAP	33	0	5
NMHLD	33	48	2	336
NMHLD	33	48	3	288
NMHLD	33	48	4	240
NMHLD	33	48	5	192
NMHLD	33	288	5	336
NMHLD	33	336	4	336
NMHLD	34	0	3	336
NMHLD	34	48	2	336
NMHLD	34	288	5	336
NMHLD	34	336	4	336
NMHLD	35	0	3	384
NMHLD	35	48	2	336
NMTAP	35	288	5
NMTAP	35	336	4
NMTAP	35	336	5
BRSTR	36	48	2
BRSTR	36	48	3
BRSTR	36	144	2
BRSTR	36	144	3
BRTAP	36	144	4
BRTAP	36	144	5
BRSTR	36	240	2
BRSTR	36	240	3
BRTAP	36	240	4
BRTAP	36	240	5
BRSTR	36	288	2
BRSTR	36	288	3
BRTAP	36	288	4
BRTAP	36	288	5
NMHLD	37	0	2	672
NMHLD	37	0	3	672
BRTAP	37	0	4
BRTAP	37	0	7
NMTAP	37	48	5
NMTAP	37	48	6
BRTAP	37	96	4
BRTAP	37	96	7
NMTAP	37	144	5
NMTAP	37	144	6
BRTAP	37	192	4
BRTAP	37	192	7
NMTAP	37	240	5
NMTAP	37	240	6
BRTAP	37	288	4
BRTAP	37	288	7
NMTAP	37	336	5
NMTAP	37	336	6
BRTAP	38	0	4
BRTAP	38	0	7
NMTAP	38	48	5
NMTAP	38	48	6
BRTAP	38	96	4
BRTAP	38	96	7
NMTAP	38	144	5
NMTAP	38	144	6
BRTAP	38	192	4
BRTAP	38	192	7
NMTAP	38	240	5
NMTAP	38	240	6
BRTAP	38	288	4
BRTAP	38	288	7
BRTAP	40	0	4
BRTAP	40	0	5
NMTTP	40	96	6	B	0	M1
NMTTP	40	96	7	E	1	M1
NMTTP	40	96	7	D	0	M1
BRSTR	40	192	2
BRSTR	40	192	3
BRTAP	40	192	4
BRTAP	40	192	5
NMTTP	40	288	1	B	0	M1
NMTTP	40	288	1	E	0	M1
NMTTP	40	288	1	D	0	M1
NMTTP	40	288	6	B	0	M1
NMTTP	40	288	7	E	1	M1
NMTTP	40	288	7	D	0	M1
BRTAP	42	192	6
BRTAP	42	192	7
NMTAP	42	240	4
NMTAP	42	240	5
BRSTR	42	288	0
BRSTR	42	288	1
NMTAP	42	336	2
NMTAP	42	336	3
NMHLD	43	0	2	672
NMHLD	43	0	3	384
BRSTR	44	288	1
BRSTR	45	96	0
BRSTR	45	96	3
NMSTR	45	144	1
NMSTR	45	144	2
BRSTR	45	192	0
BRSTR	45	192	3
NMSTR	45	240	1
NMSTR	45	240	2
BRSTR	45	288	0
BRSTR	45	288	3
NMSTR	45	336	1
NMSTR	45	336	2
BRSTR	46	0	0
BRSTR	46	0	3
NMSTR	46	48	1
NMSTR	46	48	2
BRSTR	46	96	0
BRSTR	46	96	3
NMSTR	46	144	1
NMSTR	46	144	2
BRSTR	46	192	0
BRSTR	46	192	3
NMSTR	46	240	1
NMSTR	46	240	2
BRSTR	46	288	0
BRSTR	46	288	3
NMSTR	47	192	2
NMSI_	47	192	2	96	48	0
NMSTR	47	192	3
NMSI_	47	192	3	96	48	0
NMTAP	47	192	4
NMSI_	47	192	4	96	48	7
NMTAP	47	192	5
NMSI_	47	192	5	96	48	7
BRSTR	47	288	2
BRSTR	47	288	3
BRTAP	47	288	4
BRTAP	47	288	5
NMSTR	48	192	2
NMSI_	48	192	2	96	48	0
NMSTR	48	192	3
NMSI_	48	192	3	96	48	0
NMTAP	48	192	4
NMSI_	48	192	4	96	48	7
NMTAP	48	192	5
NMSI_	48	192	5	96	48	7
BRSTR	48	288	2
BRSTR	48	288	3
BRTAP	48	288	4
BRTAP	48	288	5
BRTAP	49	192	4
BRTAP	49	192	7
NMTAP	49	240	5
NMTAP	49	240	6
BRSTR	49	288	0
BRSTR	49	288	3
BRTAP	49	288	4
BRTAP	49	288	7
NMSTR	49	336	1
NMSTR	49	336	2
NMTAP	49	336	5
NMTAP	49	336	6
BRSTR	50	0	0
BRSTR	50	0	3
BRTAP	50	0	4
BRTAP	50	0	7
NMSTR	50	48	1
NMSTR	50	48	2
NMTAP	50	48	5
NMTAP	50	48	6
BRSTR	50	96	0
BRSTR	50	96	3
BRTAP	50	96	4
BRTAP	50	96	7
NMSTR	50	144	1
NMSTR	50	144	2
NMTAP	50	144	5
NMTAP	50	144	6
BRSTR	50	192	0
BRSTR	50	192	3
BRTAP	50	192	4
BRTAP	50	192	7
NMSTR	50	240	1
NMSTR	50	240	2
NMTAP	50	240	5
NMTAP	50	240	6
BRSTR	50	288	0
BRSTR	50	288	3
NMSTR	50	336	1
NMSTR	50	336	2
NMSTR	51	192	1
NMSI_	51	192	1	96	48	6
NMSTR	51	192	2
NMSI_	51	192	2	96	48	5
BRSTR	51	288	1
BRSTR	51	288	2
NMSTR	52	192	1
NMSI_	52	192	1	96	48	6
NMSTR	52	192	2
NMSI_	52	192	2	96	48	5
BRSTR	52	288	1
BRSTR	52	288	2
NMSTR	55	0	2
NMSTR	55	48	2
NMSTR	55	96	3
NMSTR	55	144	3
NMSTR	55	192	2
NMSTR	55	240	2
NMSTR	55	288	3
NMSTR	55	336	3
NMHLD	56	0	2	1056
NMHLD	56	0	3	1056
NMTAP	56	0	5
NMTAP	56	48	5
NMTAP	56	96	4
NMTAP	56	144	4
NMTAP	56	192	5
NMTAP	56	240	5
NMTAP	56	288	4
NMSXL	56	288	6	96	1344	1
NMTAP	56	336	4
NMHLD	58	0	5	1824
EXSTR	59	0	2
EXSTR	59	0	3
NMHLD	59	0	4	1440
BRSTR	61	0	1
NMSXR	61	0	1	96	1248	6
NMSTR	61	48	1
NMHLD	62	0	2	1056
NMHLD	63	0	3	672
EXTAP	63	0	4
EXTAP	63	0	5
NMHLD	64	0	5	672
BRSTR	65	0	2
NMHLD	65	0	4	288
NMSTR	65	48	2
BRSTR	65	96	3
NMSTR	65	144	3
BRSTR	65	192	2
NMSTR	65	240	2
BRSTR	65	288	3
NMSTR	65	336	3
NMHLD	66	0	2	720
NMHLD	66	0	3	720
BRTAP	66	0	5
NMTAP	66	48	5
BRTAP	66	96	4
NMTAP	66	144	4
BRTAP	66	192	5
NMTAP	66	240	5
BRTAP	66	288	4
NMTAP	66	336	4
NMHLD	67	0	4	336
NMHLD	67	0	5	336
BRSTR	68	48	2
BRSTR	68	48	3
BRTAP	68	48	4
BRTAP	68	48	5
BRSTR	68	144	2
BRSTR	68	144	3
BRTAP	68	144	4
BRTAP	68	144	5
BRSTR	68	240	2
BRSTR	68	240	3
BRTAP	68	240	4
BRTAP	68	240	5
BRSTR	68	288	2
BRSTR	68	288	3
BRTAP	68	288	4
BRTAP	68	288	5
NMTTP	70	0	5	A	0	M1
NMTTP	70	96	4	B	0	M1
NMTTP	70	192	3	B	0	M1
NMTTP	70	288	2	A	0	M1
BRTAP	71	192	4
BRTAP	71	192	7
BRSTR	71	288	0
BRSTR	71	288	3
NMTTP	71	288	5	B	0	M1
NMTTP	71	288	5	E	0	M1
NMTTP	71	288	6	B	0	M1
NMTTP	71	288	7	E	0	M1
BRSTR	72	0	0
BRSTR	72	0	3
NMTTP	72	0	5	B	0	M1
NMTTP	72	0	5	E	0	M1
NMTTP	72	0	6	B	0	M1
NMTTP	72	0	7	E	0	M1
BRSTR	72	96	0
BRSTR	72	96	3
NMTTP	72	96	5	B	0	M1
NMTTP	72	96	5	E	0	M1
NMTTP	72	96	6	B	0	M1
NMTTP	72	96	7	E	0	M1
BRSTR	72	192	0
BRSTR	72	192	3
NMTTP	72	192	5	B	0	M1
NMTTP	72	192	5	E	0	M1
NMTTP	72	192	6	B	0	M1
NMTTP	72	192	7	E	0	M1
BRSTR	72	288	0
BRSTR	72	288	3
BRTAP	74	0	4
BRTAP	74	0	5
NMTTP	74	96	6	B	0	M1
NMTTP	74	96	7	E	1	M1
NMTTP	74	96	7	D	0	M1
BRSTR	74	192	2
BRSTR	74	192	3
NMTTP	74	288	1	B	0	M1
NMTTP	74	288	1	E	1	M1
NMTTP	74	288	1	D	0	M1
NMTAP	75	96	4
NMSI_	75	96	4	96	48	7
NMTAP	75	96	5
NMSI_	75	96	5	96	48	7
NMSTR	75	192	2
NMSI_	75	192	2	96	48	0
NMSTR	75	192	3
NMSI_	75	192	3	96	48	0
BRTAP	75	192	4
BRTAP	75	192	5
BRSTR	75	288	2
BRSTR	75	288	3
NMTAP	76	96	4
NMTAP	76	96	5
NMTAP	76	144	6
NMSTR	76	192	2
NMSI_	76	192	2	96	48	0
NMSTR	76	192	3
NMSI_	76	192	3	96	48	0
NMTAP	76	192	4
NMTAP	76	192	5
BRSTR	76	288	2
BRSTR	76	288	3
NMTAP	77	0	5
NMTAP	77	48	5
BRTAP	77	96	4
BRTAP	77	96	6
NMTAP	77	192	5
NMTAP	77	192	6
NMTAP	77	240	5
NMTAP	77	240	6
BRTAP	77	288	4
BRHLD	77	288	7	480
BRSTR	78	0	2
BRSTR	78	0	3
BRSTR	78	48	0
BRSTR	78	48	1
BRSTR	78	96	2
BRSTR	78	96	3
BRSTR	78	144	0
BRSTR	78	144	1
BRSTR	78	192	2
BRSTR	78	192	3
BRSTR	78	240	0
BRSTR	78	240	1
BRSTR	78	288	2
BRSTR	78	288	3
BRSTR	78	336	0
BRSTR	78	336	1
BRSTR	79	0	2
BRSTR	79	0	3
NMTTP	79	0	5	B	0	M1
NMTTP	79	0	6	B	0	M1
NMTTP	79	0	6	E	1	M1
BRTAP	79	192	4
BRTAP	79	192	7
BRSTR	79	288	0
BRSTR	79	288	3
NMTTP	79	288	5	B	0	M1
NMTTP	79	288	5	E	0	M1
NMTTP	79	288	6	B	0	M1
NMTTP	79	288	7	E	0	M1
BRSTR	80	0	0
BRSTR	80	0	3
NMTTP	80	0	5	B	0	M1
NMTTP	80	0	5	E	0	M1
NMTTP	80	0	6	B	0	M1
NMTTP	80	0	7	E	0	M1
BRSTR	80	96	0
BRSTR	80	96	3
NMTTP	80	96	5	B	0	M1
NMTTP	80	96	5	E	0	M1
NMTTP	80	96	6	B	0	M1
NMTTP	80	96	7	E	0	M1
BRSTR	80	192	0
BRSTR	80	192	3
NMTTP	80	192	5	B	0	M1
NMTTP	80	192	5	E	0	M1
NMTTP	80	192	6	B	0	M1
NMTTP	80	192	7	E	0	M1
BRSTR	80	288	0
BRSTR	80	288	3
BRTAP	80	288	4
BRTAP	80	288	7
BRTAP	82	0	4
BRTAP	82	0	5
NMTTP	82	96	6	B	0	M1
NMTTP	82	96	7	E	1	M1
NMTTP	82	96	7	D	0	M1
BRTAP	82	192	2
BRTAP	82	192	3
NMTTP	82	288	1	B	0	M1
NMTTP	82	288	1	E	1	M1
NMTTP	82	288	1	D	0	M1
NMSTR	83	96	2
NMSI_	83	96	2	96	48	5
NMTAP	83	192	7
NMSI_	83	192	7	96	48	4
NMSTR	84	96	2
NMSI_	84	96	2	96	48	5
NMTAP	84	192	7
NMSI_	84	192	7	96	48	4
NMHLD	85	96	2	384
NMHLD	85	96	3	480
NMHLD	85	192	4	288
NMHLD	85	192	5	384
NMSTR	86	192	2
NMSCL	86	192	2	96	48	0
NMTAP	86	192	4
NMSV_	86	192	4	96	48	7
NMSTR	86	288	3
NMTAP	86	288	5
BRSTR	87	0	2
BRTAP	87	0	4

T_REC_TAP	83
T_REC_BRK	86
T_REC_XTP	2
T_REC_BXX	0
T_REC_HLD	63
T_REC_XHO	0
T_REC_BHO	1
T_REC_BXH	0
T_REC_STR	85
T_REC_BST	129
T_REC_XST	2
T_REC_XBS	0
T_REC_TTP	102
T_REC_THO	0
T_REC_SLD	53
T_REC_BSL	0
T_REC_ALL	606
T_NUM_TAP	274
T_NUM_BRK	216
T_NUM_HLD	63
T_NUM_SLD	53
T_NUM_ALL	606
T_JUDGE_TAP	489
T_JUDGE_HLD	674
T_JUDGE_SLD	53
T_JUDGE_ALL	1216
TTM_EACHPAIRS	156
TTM_SCR_TAP	137000
TTM_SCR_BRK	561600
TTM_SCR_HLD	63000
TTM_SCR_SLD	79500
TTM_SCR_ALL	841100
TTM_SCR_S	794950
TTM_SCR_SS	819500
TTM_RAT_ACV	10263

