VERSION	0.00.00	1.04.00
FES_MODE	1
BPM_DEF	147.000	147.000	147.000	147.000
MET_DEF	4	4
RESOLUTION	384
CLK_DEF	384
COMPATIBLE_CODE	MA2

BPM	0	0	147.000
MET	0	0	4	4

NMTAP	1	0	4
NMTAP	1	0	5
NMHLD	1	48	4	192
NMHLD	1	48	5	192
NMHLD	1	288	4	2304
NMHLD	1	288	5	2304
NMSTR	2	0	2
NMSTR	2	0	3
NMHLD	2	48	2	192
NMHLD	2	48	3	192
NMHLD	2	288	2	1536
NMHLD	2	288	3	1536
NMSTR	7	0	2
NMSTR	7	0	3
NMHLD	7	48	2	192
NMHLD	7	48	3	192
NMHLD	7	288	2	384
NMHLD	7	288	3	384
NMTAP	8	0	4
NMTAP	8	0	5
NMHLD	8	48	4	240
NMHLD	8	48	5	240
BRTAP	9	0	4
BRTAP	9	0	7
BRSTR	9	96	0
BRSTR	9	96	3
BRTAP	10	0	4
BRTAP	10	0	7
BRSTR	10	96	0
BRSTR	10	96	3
BRTAP	11	0	4
BRTAP	11	0	5
NMTTP	11	96	6	B	0	M1
NMTTP	11	96	7	E	1	M1
NMTTP	11	96	7	D	0	M1
BRSTR	11	192	2
BRSTR	11	192	3
NMTTP	11	288	1	B	0	M1
NMTTP	11	288	1	E	1	M1
NMTTP	11	288	1	D	0	M1
NMTAP	12	288	4
NMSI_	12	288	4	96	48	7
NMTAP	12	288	5
NMSI_	12	288	5	96	48	7
NMSTR	13	0	2
NMSI_	13	0	2	96	48	0
NMSTR	13	0	3
NMSI_	13	0	3	96	48	0
BRTAP	13	0	4
BRTAP	13	0	5
BRSTR	13	96	2
BRSTR	13	96	3
NMTAP	13	288	4
NMSI_	13	288	4	96	48	7
NMTAP	13	288	5
NMSI_	13	288	5	96	48	7
NMSTR	14	0	2
NMSI_	14	0	2	96	48	0
NMSTR	14	0	3
NMSI_	14	0	3	96	48	0
BRTAP	14	0	4
BRTAP	14	0	5
BRSTR	14	96	2
BRSTR	14	96	3
BRTAP	17	0	4
BRTAP	17	0	7
BRSTR	17	96	0
BRSTR	17	96	3
NMTTP	17	96	5	B	0	M1
NMTTP	17	96	5	E	0	M1
NMTTP	17	96	6	B	0	M1
NMTTP	17	96	7	E	0	M1
NMTTP	17	192	1	B	0	M1
NMTTP	17	192	1	E	0	M1
NMTTP	17	192	2	B	0	M1
NMTTP	17	192	3	E	0	M1
NMTTP	17	192	5	B	0	M1
NMTTP	17	192	5	E	0	M1
NMTTP	17	192	6	B	0	M1
NMTTP	17	192	7	E	0	M1
NMTTP	17	288	1	B	0	M1
NMTTP	17	288	1	E	0	M1
NMTTP	17	288	2	B	0	M1
NMTTP	17	288	3	E	0	M1
NMTTP	17	288	5	B	0	M1
NMTTP	17	288	5	E	0	M1
NMTTP	17	288	6	B	0	M1
NMTTP	17	288	7	E	0	M1
NMTTP	18	0	1	B	0	M1
NMTTP	18	0	1	E	0	M1
NMTTP	18	0	2	B	0	M1
NMTTP	18	0	3	E	0	M1
NMTTP	18	0	5	B	0	M1
NMTTP	18	0	5	E	0	M1
NMTTP	18	0	6	B	0	M1
NMTTP	18	0	7	E	0	M1
NMTTP	18	96	1	B	0	M1
NMTTP	18	96	1	E	0	M1
NMTTP	18	96	2	B	0	M1
NMTTP	18	96	3	E	0	M1
NMTAP	18	288	4
NMSI_	18	288	4	96	48	7
NMTAP	18	288	5
NMSI_	18	288	5	96	48	7
NMSTR	19	0	2
NMSI_	19	0	2	96	48	0
NMSTR	19	0	3
NMSI_	19	0	3	96	48	0
BRTAP	19	0	4
BRTAP	19	0	5
BRSTR	19	96	2
BRSTR	19	96	3
NMSTR	20	192	3
NMSI_	20	192	3	96	48	1
BRSTR	20	288	3
NMHLD	21	0	2	576
NMHLD	21	0	6	576
NMSTR	21	96	3
NMSI_	21	96	3	96	48	0
NMTAP	21	192	4
NMSI_	21	192	4	96	48	7
NMSTR	22	96	3
NMSI_	22	96	3	96	48	0
NMTAP	22	192	4
NMSI_	22	192	4	96	48	7
NMHLD	23	0	1	576
NMHLD	23	0	5	576
NMSTR	23	96	3
NMSI_	23	96	3	96	48	0
NMTAP	23	192	4
NMSI_	23	192	4	96	48	7
NMSTR	24	96	3
NMSI_	24	96	3	96	48	0
NMTAP	24	192	4
NMSI_	24	192	4	96	48	7
NMHLD	25	0	3	1104
NMHLD	25	0	7	1104
NMSTR	25	96	2
NMSI_	25	96	2	96	48	5
NMTAP	25	192	6
NMSI_	25	192	6	96	48	1
NMSTR	26	96	2
NMSI_	26	96	2	96	48	5
NMTAP	26	192	6
NMSI_	26	192	6	96	48	1
NMSTR	27	96	2
NMSI_	27	96	2	96	48	5
NMTAP	27	192	6
NMSI_	27	192	6	96	48	1
NMSTR	29	0	2
NMSTR	29	0	3
NMTAP	29	0	4
NMTAP	29	0	5
NMHLD	29	48	2	336
NMHLD	29	48	3	288
NMHLD	29	48	4	240
NMHLD	29	48	5	192
NMHLD	29	288	5	336
NMHLD	29	336	4	336
NMHLD	30	0	3	336
NMHLD	30	48	2	336
NMHLD	30	288	5	336
NMHLD	30	336	4	336
NMHLD	31	0	3	336
NMHLD	31	48	2	336
NMHLD	31	288	5	288
NMHLD	31	336	4	240
NMHLD	32	0	3	192
NMHLD	32	48	2	144
NMTAP	32	288	6
NMTAP	32	288	7
NMTAP	32	336	6
NMHLD	32	336	7	288
NMTTP	33	0	1	E	0	M1
NMTTP	33	96	2	E	0	M1
NMTAP	33	96	6
NMHLD	33	144	6	288
NMTTP	33	192	3	E	0	M1
NMTTP	33	288	1	B	0	M1
NMTTP	33	288	2	B	0	M1
NMTAP	33	288	7
NMHLD	33	336	7	288
NMTTP	34	0	1	E	0	M1
NMTTP	34	96	2	E	0	M1
NMTAP	34	96	6
NMHLD	34	144	6	288
NMTTP	34	192	3	E	0	M1
NMTTP	34	288	1	B	0	M1
NMTTP	34	288	2	B	0	M1
NMTAP	34	288	7
NMHLD	34	336	7	288
NMTTP	35	0	1	E	0	M1
NMTTP	35	96	2	E	0	M1
NMTAP	35	96	6
NMHLD	35	144	6	144
NMTTP	35	192	3	E	0	M1
NMTTP	35	288	1	B	0	M1
NMTTP	35	288	2	B	0	M1
NMTAP	35	288	7
NMTAP	35	336	7
BRSTR	36	48	0
BRSTR	36	48	1
BRTAP	36	48	6
BRTAP	36	48	7
BRSTR	36	144	0
BRSTR	36	144	1
BRTAP	36	144	6
BRTAP	36	144	7
BRSTR	36	240	0
BRSTR	36	240	1
BRTAP	36	240	6
BRTAP	36	240	7
BRSTR	36	288	0
BRSTR	36	288	1
BRTAP	36	288	6
BRTAP	36	288	7
NMHLD	37	0	2	576
NMHLD	37	0	3	576
NMHLD	37	0	4	576
NMHLD	37	0	5	576
BRTAP	39	0	4
BRTAP	39	0	5
NMTTP	39	96	6	B	0	M1
NMTTP	39	96	7	E	1	M1
NMTTP	39	96	7	D	0	M1
BRSTR	39	192	2
BRSTR	39	192	3
BRTAP	39	192	4
BRTAP	39	192	5
NMTTP	39	288	1	B	0	M1
NMTTP	39	288	1	E	0	M1
NMTTP	39	288	1	D	0	M1
NMTTP	39	288	6	B	0	M1
NMTTP	39	288	7	E	1	M1
NMTTP	39	288	7	D	0	M1
BRSTR	40	0	2
BRSTR	40	0	3
BRTAP	40	0	4
BRTAP	40	0	5
NMTTP	40	96	1	B	0	M1
NMTTP	40	96	1	E	0	M1
NMTTP	40	96	1	D	0	M1
NMTTP	40	96	6	B	0	M1
NMTTP	40	96	7	E	1	M1
NMTTP	40	96	7	D	0	M1
BRSTR	40	192	2
BRSTR	40	192	3
BRTAP	40	192	4
BRTAP	40	192	5
NMTTP	40	288	1	B	0	M1
NMTTP	40	288	1	E	0	M1
NMTTP	40	288	1	D	0	M1
NMTTP	40	288	5	A	0	M1
NMTTP	40	288	6	A	0	M1
NMTTP	40	288	6	D	1	M1
BRTAP	41	0	6
BRTAP	41	0	7
NMTAP	41	48	4
NMTAP	41	48	5
BRTAP	41	96	6
BRTAP	41	96	7
NMTAP	41	144	4
NMTAP	41	144	5
BRTAP	41	192	6
BRTAP	41	192	7
NMTAP	41	240	4
NMTAP	41	240	5
BRTAP	41	288	6
BRTAP	41	288	7
NMTAP	41	336	4
NMTAP	41	336	5
BRTAP	42	0	6
BRTAP	42	0	7
NMTAP	42	48	4
NMTAP	42	48	5
BRSTR	42	96	0
BRSTR	42	96	1
NMSTR	42	144	2
NMSTR	42	144	3
NMHLD	43	0	6	672
NMHLD	43	0	7	384
BRTAP	44	288	5
NMTTP	45	0	0	E	0	M1
NMTTP	45	0	0	D	0	M1
NMTTP	45	0	7	B	0	M1
NMTTP	45	0	7	E	0	M1
NMTTP	45	0	7	A	0	M1
NMTTP	45	0	7	D	0	M1
NMSTR	47	0	2
NMSI_	47	0	2	96	48	0
NMSTR	47	0	3
NMSI_	47	0	3	96	48	0
NMTAP	47	0	4
NMSI_	47	0	4	96	48	7
NMTAP	47	0	5
NMSI_	47	0	5	96	48	7
BRSTR	47	96	2
BRSTR	47	96	3
BRTAP	47	96	4
BRTAP	47	96	5
NMSTR	48	0	2
NMSI_	48	0	2	96	48	0
NMSTR	48	0	3
NMSI_	48	0	3	96	48	0
NMTAP	48	0	4
NMSI_	48	0	4	96	48	7
NMTAP	48	0	5
NMSI_	48	0	5	96	48	7
BRSTR	48	96	2
BRSTR	48	96	3
BRTAP	48	96	4
BRTAP	48	96	5
NMSTR	49	0	3
NMTAP	49	0	4
BRSTR	49	96	0
BRSTR	49	96	3
BRTAP	49	96	4
BRTAP	49	96	7
NMSTR	49	144	1
NMSTR	49	144	2
NMTAP	49	144	5
NMTAP	49	144	6
BRSTR	49	192	0
BRSTR	49	192	3
BRTAP	49	192	4
BRTAP	49	192	7
NMSTR	49	240	1
NMSTR	49	240	2
NMTAP	49	240	5
NMTAP	49	240	6
BRSTR	49	288	0
BRSTR	49	288	3
BRTAP	49	288	4
BRTAP	49	288	7
NMSTR	49	336	1
NMSTR	49	336	2
NMTAP	49	336	5
NMTAP	49	336	6
BRSTR	50	0	0
BRSTR	50	0	3
BRTAP	50	0	4
BRTAP	50	0	7
NMSTR	50	48	1
NMSTR	50	48	2
NMTAP	50	48	5
NMTAP	50	48	6
BRSTR	50	96	0
BRSTR	50	96	3
NMSTR	50	144	1
NMSTR	50	144	2
NMTAP	51	0	5
NMSI_	51	0	5	96	48	2
NMTAP	51	0	6
NMSI_	51	0	6	96	48	1
BRTAP	51	96	5
BRTAP	51	96	6
NMTAP	52	0	5
NMSI_	52	0	5	96	48	2
NMTAP	52	0	6
NMSI_	52	0	6	96	48	1
BRTAP	52	96	5
BRTAP	52	96	6
NMHLD	53	0	2	672
NMHLD	53	0	3	672
BRTAP	53	0	6
NMSXL	53	0	6	96	1248	1
NMTAP	53	48	6
NMHLD	54	0	5	1056
EXSTR	55	0	2
EXSTR	55	0	3
NMHLD	55	0	4	672
NMHLD	56	0	3	672
NMHLD	57	0	2	288
NMTAP	57	0	5
NMTAP	57	48	5
NMTAP	57	96	4
NMTAP	57	144	4
NMTAP	57	192	5
NMTAP	57	240	5
NMTAP	57	288	4
NMTAP	57	336	4
NMSTR	58	0	2
NMHLD	58	0	4	288
NMHLD	58	0	5	288
NMSTR	58	48	2
NMSTR	58	96	3
NMSTR	58	144	3
NMSTR	58	192	2
NMSTR	58	240	2
NMSTR	58	288	3
NMSTR	58	336	3
NMHLD	59	0	2	288
NMHLD	59	0	3	288
NMTAP	59	0	5
NMTAP	59	48	5
NMTAP	59	96	4
NMTAP	59	144	4
NMTAP	59	192	5
NMTAP	59	240	5
NMTAP	59	288	4
NMTAP	59	336	4
NMSTR	60	0	2
NMHLD	60	0	4	288
NMHLD	60	0	5	288
NMSTR	60	48	2
NMSTR	60	96	3
NMSTR	60	144	3
NMSTR	60	192	2
NMSTR	60	240	2
NMSTR	60	288	3
NMSTR	60	336	3
NMHLD	61	0	2	288
NMTAP	61	0	4
NMHLD	61	0	5	288
NMTAP	61	48	4
NMSTR	61	96	3
NMSTR	61	144	3
NMTAP	61	192	4
NMTAP	61	240	4
NMSTR	61	288	3
NMSTR	61	336	3
NMHLD	62	0	3	288
NMHLD	62	0	4	288
NMTAP	62	0	5
NMTAP	62	48	5
NMSTR	62	96	2
NMSTR	62	144	2
NMTAP	62	192	5
NMTAP	62	240	5
NMSTR	62	288	2
NMSTR	62	336	2
NMHLD	63	0	2	288
NMHLD	63	0	4	288
NMTAP	63	0	5
NMTAP	63	48	5
NMSTR	63	96	3
NMSTR	63	144	3
NMTAP	63	192	5
NMTAP	63	240	5
NMSTR	63	288	3
NMSTR	63	336	3
NMHLD	64	0	3	288
NMTAP	64	0	4
NMHLD	64	0	5	288
NMTAP	64	48	4
NMSTR	64	96	2
NMSTR	64	144	2
NMTAP	64	192	4
NMTAP	64	240	4
NMSXR	64	288	1	96	1344	6
NMSTR	64	288	2
NMSTR	64	336	2
NMHLD	65	0	4	672
NMHLD	65	0	5	672
NMHLD	66	0	2	720
NMHLD	67	0	3	336
EXTAP	67	0	4
EXTAP	67	0	5
BRSTR	68	48	2
BRSTR	68	48	3
BRSTR	68	144	2
BRSTR	68	144	3
BRSTR	68	240	2
BRSTR	68	240	3
BRTAP	68	240	7
BRSTR	68	288	2
BRSTR	68	288	3
BRTAP	68	288	7
NMTTP	69	0	5	A	0	M1
NMTTP	69	96	4	B	0	M1
NMTTP	69	192	3	B	0	M1
NMTTP	69	288	2	A	0	M1
BRTAP	71	0	4
BRTAP	71	0	7
BRSTR	71	96	0
BRSTR	71	96	3
NMTTP	71	96	5	B	0	M1
NMTTP	71	96	5	E	0	M1
NMTTP	71	96	6	B	0	M1
NMTTP	71	96	7	E	0	M1
NMTTP	71	192	1	B	0	M1
NMTTP	71	192	1	E	0	M1
NMTTP	71	192	2	B	0	M1
NMTTP	71	192	3	E	0	M1
NMTTP	71	192	5	B	0	M1
NMTTP	71	192	5	E	0	M1
NMTTP	71	192	6	B	0	M1
NMTTP	71	192	7	E	0	M1
NMTTP	71	288	1	B	0	M1
NMTTP	71	288	1	E	0	M1
NMTTP	71	288	2	B	0	M1
NMTTP	71	288	3	E	0	M1
NMTTP	71	288	5	B	0	M1
NMTTP	71	288	5	E	0	M1
NMTTP	71	288	6	B	0	M1
NMTTP	71	288	7	E	0	M1
NMTTP	72	0	1	B	0	M1
NMTTP	72	0	1	E	0	M1
NMTTP	72	0	2	B	0	M1
NMTTP	72	0	3	E	0	M1
NMTTP	72	0	5	B	0	M1
NMTTP	72	0	5	E	0	M1
NMTTP	72	0	6	B	0	M1
NMTTP	72	0	7	E	0	M1
NMTTP	72	96	1	B	0	M1
NMTTP	72	96	1	E	0	M1
NMTTP	72	96	2	B	0	M1
NMTTP	72	96	3	E	0	M1
BRTAP	73	0	4
BRTAP	73	0	5
NMTTP	73	96	6	B	0	M1
NMTTP	73	96	7	E	1	M1
NMTTP	73	96	7	D	0	M1
BRSTR	73	192	2
BRSTR	73	192	3
NMTTP	73	288	1	B	0	M1
NMTTP	73	288	1	E	1	M1
NMTTP	73	288	1	D	0	M1
BRTAP	74	192	6
BRTAP	74	192	7
NMTAP	74	288	4
NMSI_	74	288	4	96	48	7
NMTAP	74	288	5
NMSI_	74	288	5	96	48	7
NMSTR	75	0	2
NMSTR	75	0	3
BRTAP	75	0	4
BRTAP	75	0	5
NMTTP	75	96	0	A	0	M1
NMTTP	75	96	1	A	0	M1
NMTTP	75	96	1	D	0	M1
NMTAP	75	288	4
NMSI_	75	288	4	96	48	7
NMTAP	75	288	5
NMSI_	75	288	5	96	48	7
NMSTR	76	0	2
NMSI_	76	0	2	96	48	0
NMSTR	76	0	3
NMSI_	76	0	3	96	48	0
BRTAP	76	0	4
BRTAP	76	0	5
BRSTR	76	96	2
BRSTR	76	96	3
NMSTR	77	0	2
NMSTR	77	48	2
BRSTR	77	96	1
BRSTR	77	96	3
NMSTR	77	192	1
NMSTR	77	192	2
NMSTR	77	240	1
NMSTR	77	240	2
BRHLD	77	288	0	480
BRSTR	77	288	3
BRTAP	78	0	4
BRTAP	78	0	5
BRTAP	78	48	6
BRTAP	78	48	7
BRTAP	78	96	4
BRTAP	78	96	5
BRTAP	78	144	6
BRTAP	78	144	7
BRTAP	78	192	4
BRTAP	78	192	5
BRTAP	78	240	6
BRTAP	78	240	7
BRTAP	78	288	4
BRTAP	78	288	5
BRTAP	78	336	6
BRTAP	78	336	7
NMTTP	79	0	1	B	0	M1
NMTTP	79	0	2	B	0	M1
NMTTP	79	0	2	E	1	M1
BRTAP	79	0	4
BRTAP	79	0	5
BRSTR	79	96	0
BRSTR	79	96	3
NMTTP	79	96	5	B	0	M1
NMTTP	79	96	5	E	0	M1
NMTTP	79	96	6	B	0	M1
NMTTP	79	96	7	E	0	M1
NMTTP	79	192	1	B	0	M1
NMTTP	79	192	1	E	0	M1
NMTTP	79	192	2	B	0	M1
NMTTP	79	192	3	E	0	M1
NMTTP	79	192	5	B	0	M1
NMTTP	79	192	5	E	0	M1
NMTTP	79	192	6	B	0	M1
NMTTP	79	192	7	E	0	M1
NMTTP	79	288	1	B	0	M1
NMTTP	79	288	1	E	0	M1
NMTTP	79	288	2	B	0	M1
NMTTP	79	288	3	E	0	M1
NMTTP	79	288	5	B	0	M1
NMTTP	79	288	5	E	0	M1
NMTTP	79	288	6	B	0	M1
NMTTP	79	288	7	E	0	M1
NMTTP	80	0	1	B	0	M1
NMTTP	80	0	1	E	0	M1
NMTTP	80	0	2	B	0	M1
NMTTP	80	0	3	E	0	M1
NMTTP	80	0	5	B	0	M1
NMTTP	80	0	5	E	0	M1
NMTTP	80	0	6	B	0	M1
NMTTP	80	0	7	E	0	M1
NMTTP	80	96	1	B	0	M1
NMTTP	80	96	1	E	0	M1
NMTTP	80	96	2	B	0	M1
NMTTP	80	96	3	E	0	M1
BRTAP	80	96	4
BRTAP	80	96	7
BRSTR	80	192	0
BRSTR	80	192	3
BRTAP	80	192	4
BRTAP	80	192	7
BRSTR	80	288	0
BRSTR	80	288	3
BRTAP	80	288	4
BRTAP	80	288	7
BRTAP	81	0	4
BRTAP	81	0	5
NMTTP	81	96	6	B	0	M1
NMTTP	81	96	7	E	1	M1
NMTTP	81	96	7	D	0	M1
BRSTR	81	192	2
BRSTR	81	192	3
NMTTP	81	288	3	E	0	M1
BRTAP	82	192	4
BRTAP	82	192	5
BRTAP	82	288	6
NMSI_	82	288	6	96	48	1
BRTAP	82	288	7
NMSTR	83	0	3
NMSI_	83	0	3	96	48	0
NMTAP	83	288	6
NMSI_	83	288	6	96	48	1
NMSTR	84	0	3
NMSI_	84	0	3	96	48	0
NMHLD	84	288	4	576
NMHLD	84	288	5	672
NMHLD	85	0	2	480
NMHLD	85	0	3	576
NMSTR	86	192	2
NMSCL	86	192	2	96	48	0
NMTAP	86	192	4
NMSV_	86	192	4	96	48	7
NMSTR	86	288	3
NMTAP	86	288	5
BRSTR	87	0	2
BRTAP	87	0	4

T_REC_TAP	96
T_REC_BRK	101
T_REC_XTP	2
T_REC_BXX	0
T_REC_HLD	76
T_REC_XHO	0
T_REC_BHO	1
T_REC_BXH	0
T_REC_STR	83
T_REC_BST	71
T_REC_XST	2
T_REC_XBS	0
T_REC_TTP	164
T_REC_THO	0
T_REC_SLD	53
T_REC_BSL	0
T_REC_ALL	649
T_NUM_TAP	347
T_NUM_BRK	173
T_NUM_HLD	76
T_NUM_SLD	53
T_NUM_ALL	649
T_JUDGE_TAP	519
T_JUDGE_HLD	779
T_JUDGE_SLD	53
T_JUDGE_ALL	1351
TTM_EACHPAIRS	128
TTM_SCR_TAP	173500
TTM_SCR_BRK	449800
TTM_SCR_HLD	76000
TTM_SCR_SLD	79500
TTM_SCR_ALL	778800
TTM_SCR_S	738700
TTM_SCR_SS	761500
TTM_RAT_ACV	10227

