VERSION	0.00.00	1.04.00
FES_MODE	0
BPM_DEF	182.000	182.000	182.000	182.000
MET_DEF	4	4
RESOLUTION	384
CLK_DEF	384
COMPATIBLE_CODE	MA2

BPM	0	0	182.000
MET	0	0	4	4

BRSTR	1	288	1
NMSI_	1	288	1	96	48	7
NMSV_	1	288	1	96	48	3
NMTAP	2	96	6
NMTAP	2	144	6
EXTAP	2	192	1
NMTAP	2	192	4
NMTAP	2	288	3
NMSTR	2	288	5
NMSI_	2	288	5	96	48	3
EXTAP	3	0	2
NMTAP	3	96	1
NMTAP	3	144	1
EXTAP	3	192	3
NMTAP	3	288	2
NMSTR	3	288	4
NMSI_	3	288	4	96	48	7
EXTAP	4	0	0
NMTAP	4	96	6
NMTAP	4	144	6
EXTAP	4	192	1
NMTAP	4	192	5
NMTAP	4	288	0
NMSTR	4	288	6
NMSCL	4	288	6	96	48	3
EXTAP	5	0	2
NMTAP	5	96	1
NMTAP	5	144	1
EXTAP	5	192	3
NMSTR	5	288	2
NMSI_	5	288	2	96	48	4
NMTAP	5	288	4
EXTAP	6	0	0
NMTAP	6	96	6
NMTAP	6	144	6
EXTAP	6	192	1
NMTAP	6	192	4
NMTAP	6	288	3
NMSTR	6	288	5
NMSI_	6	288	5	96	48	0
EXTAP	7	0	2
NMTAP	7	96	1
NMTAP	7	144	1
EXTAP	7	192	3
NMSTR	7	288	2
NMSCR	7	288	2	96	48	5
NMTAP	7	288	5
EXTAP	8	0	0
NMTAP	8	96	6
NMTAP	8	144	6
EXTAP	8	192	1
NMTAP	8	192	5
NMTAP	8	288	3
NMSTR	8	288	6
NMSUL	8	288	6	96	144	4
EXTAP	9	0	2
NMTAP	9	96	1
NMTAP	9	144	1
EXTAP	9	192	3
NMTAP	9	216	2
NMTAP	9	240	4
NMTAP	9	264	3
BRTAP	9	288	5
NMHLD	10	0	6	96
NMTAP	10	96	4
NMHLD	10	144	6	96
NMTAP	10	240	4
NMTAP	10	288	3
NMTAP	10	336	2
NMHLD	11	0	1	96
NMTAP	11	96	3
NMHLD	11	144	1	96
NMTAP	11	240	3
NMTAP	11	288	4
NMTAP	11	336	5
NMHLD	12	0	6	96
NMTAP	12	96	4
NMHLD	12	144	4	96
NMTAP	12	240	7
NMTAP	12	288	6
NMTAP	12	336	5
NMTAP	13	0	3
NMTAP	13	0	4
NMSTR	13	48	2
NMSI_	13	48	2	96	48	0
NMSTR	13	48	3
NMSI_	13	48	3	96	48	7
EXTAP	13	240	6
NMTAP	13	288	5
NMTAP	13	336	4
NMHLD	14	0	2	96
NMTAP	14	0	3
NMTAP	14	96	3
NMHLD	14	144	1	96
NMTAP	14	144	4
NMTAP	14	240	2
NMTAP	14	288	3
NMTAP	14	336	4
NMTAP	15	0	5
NMTAP	15	48	4
NMTAP	15	48	5
NMTAP	15	144	3
NMHLD	15	144	6	96
NMTAP	15	240	5
NMTAP	15	288	4
NMTAP	15	336	3
NMSTR	16	0	2
NMSCR	16	0	2	96	48	5
NMSTR	16	96	5
NMSCL	16	96	5	96	48	2
NMTAP	16	192	2
NMTAP	16	288	6
NMTAP	16	336	7
NMTAP	17	0	0
NMSTR	17	48	1
NMSI_	17	48	1	96	48	5
EXHLD	17	144	7	96
EXTAP	17	240	0
BRTAP	17	288	1
BRTAP	17	288	6
NMHLD	18	0	5	72
NMHLD	18	72	3	72
NMSTR	18	144	4
NMSCR	18	144	4	96	96	0
NMTAP	18	240	0
NMTAP	18	288	1
NMTAP	18	336	2
NMHLD	19	0	3	72
NMTAP	19	72	7
NMTAP	19	144	2
NMHLD	19	144	6	96
NMTAP	19	240	0
NMTAP	19	264	1
NMTAP	19	288	2
NMTAP	19	336	2
NMHLD	20	0	3	72
NMTAP	20	0	4
NMHLD	20	72	5	72
NMSTR	20	144	4
NMSCL	20	144	4	96	96	0
NMTAP	20	240	7
NMTAP	20	288	6
NMTAP	20	336	5
NMHLD	21	0	4	72
NMTAP	21	72	0
NMTAP	21	144	2
NMHLD	21	144	5	96
NMTAP	21	240	1
NMTAP	21	264	2
NMTAP	21	288	3
NMTAP	21	336	3
NMTAP	22	0	3
NMHLD	22	0	5	96
NMTAP	22	96	4
NMTAP	22	144	3
NMHLD	22	144	6	96
NMTAP	22	240	5
NMTAP	22	288	4
NMTAP	22	336	3
NMTAP	23	0	2
NMTAP	23	48	2
NMTAP	23	48	3
NMHLD	23	144	1	96
NMTAP	23	144	4
NMTAP	23	240	2
NMTAP	23	288	3
NMTAP	23	336	4
NMSTR	24	0	5
NMSCL	24	0	5	96	96	2
NMSTR	24	96	2
NMSCL	24	96	2	96	96	7
NMSTR	24	192	7
NMSCL	24	192	7	96	96	4
NMTAP	24	288	4
NMTAP	24	336	3
NMTAP	25	0	2
NMSTR	25	48	1
NMSI_	25	48	1	96	48	5
EXTAP	25	144	1
EXTAP	25	144	6
NMTAP	25	240	7
NMTAP	25	264	0
BRTAP	25	288	7
NMSTR	26	0	1
NMSCR	26	0	1	96	48	3
NMSTR	26	192	6
NMSCL	26	192	6	96	48	4
NMTTP	27	0	3	E	0	M1
NMTTP	27	96	5	E	0	M1
NMTTP	27	192	4	E	0	M1
NMHLD	28	0	2	96
NMHLD	28	96	3	96
NMHLD	28	192	4	96
NMHLD	28	288	5	96
NMTAP	29	0	2
NMTAP	29	48	3
NMTAP	29	48	4
NMTTP	29	144	0	C	0	M1
BRSTR	30	0	1
NMSI_	30	0	1	96	48	4
BRSTR	30	0	5
NMSI_	30	0	5	96	48	0
EXTAP	30	96	1
EXTAP	30	96	5
NMTAP	30	192	3
NMHLD	30	192	7	72
NMHLD	30	264	6	72
NMSTR	30	336	5
NMSCL	30	336	5	96	48	2
NMTAP	31	48	0
NMTAP	31	96	0
NMTAP	31	144	1
NMTAP	31	192	2
NMTAP	31	192	3
NMTAP	31	264	5
NMTAP	31	264	6
NMTAP	31	336	0
NMSTR	31	336	1
NMSCR	31	336	1	96	48	4
NMTAP	32	48	6
NMHLD	32	96	6	48
NMTAP	32	144	7
NMTAP	32	168	6
NMTAP	32	240	1
NMTAP	32	240	4
NMTAP	32	288	0
NMTAP	32	336	7
NMTAP	33	0	3
NMTAP	33	0	6
NMSTR	33	72	1
NMSCR	33	72	1	96	144	0
NMTAP	33	72	4
NMHLD	33	144	6	144
EXTAP	33	336	1
EXTAP	33	336	6
EXTAP	33	360	2
EXTAP	33	360	5
EXSTR	34	0	3
NMSI_	34	0	3	96	48	0
EXSTR	34	0	4
NMSI_	34	0	4	96	48	7
EXTAP	34	96	3
EXTAP	34	96	4
NMHLD	34	192	1	72
NMTAP	34	192	6
NMSTR	34	264	3
NMSI_	34	264	3	96	48	7
NMTAP	34	336	2
NMTAP	35	48	1
NMTAP	35	96	0
NMTAP	35	144	7
NMHLD	35	192	6	72
NMSTR	35	264	4
NMSI_	35	264	4	96	48	0
NMTAP	35	336	5
NMTAP	36	48	6
NMTAP	36	96	0
NMTAP	36	96	7
NMTAP	36	144	1
NMTAP	36	192	2
NMTAP	36	192	3
NMTAP	36	240	4
NMTAP	36	288	5
NMSTR	36	288	6
NMSXR	36	288	6	96	144	2
NMTAP	36	336	7
NMHLD	37	0	0	96
NMTAP	37	144	1
NMSTR	37	192	1
NMSI_	37	192	1	96	48	5
NMTTP	37	288	0	C	1	M1
EXSTR	38	0	7
NMSI_	38	0	7	96	48	3
EXTAP	38	48	7
EXSTR	38	192	0
NMSI_	38	192	0	96	48	2
EXSTR	38	192	6
NMSI_	38	192	6	96	48	4
EXTAP	38	240	0
EXTAP	38	240	6
NMTAP	39	0	3
NMTAP	39	0	4
NMTAP	39	48	2
NMTAP	39	96	1
NMTAP	39	96	5
NMTAP	39	144	6
EXTAP	39	192	0
EXTAP	39	192	7
EXTAP	39	240	0
EXTAP	39	240	7
NMTAP	39	336	3
NMHLD	39	336	4	96
NMTAP	40	48	0
NMTAP	40	96	1
NMTAP	40	96	7
NMTAP	40	144	6
NMTAP	40	192	1
NMTAP	40	192	5
NMTAP	40	240	2
NMTAP	40	288	3
NMSTR	40	288	5
NMSCR	40	288	5	96	96	2
NMTAP	40	336	4
NMHLD	41	0	3	144
NMTAP	41	144	4
EXTAP	41	192	1
EXTAP	41	192	6
NMTAP	41	336	3
NMTAP	41	336	4
NMSTR	42	0	3
NMSI_	42	0	3	96	48	7
NMTAP	42	0	4
NMTAP	42	96	6
NMHLD	42	192	0	72
NMTAP	42	192	5
NMHLD	42	264	1	72
NMTAP	42	336	2
NMTAP	43	48	3
NMTAP	43	48	4
NMTAP	43	96	5
NMTAP	43	144	6
NMTAP	43	192	2
NMHLD	43	192	7	72
NMHLD	43	264	6	72
NMTAP	43	336	5
NMTAP	44	48	3
NMTAP	44	48	4
NMTAP	44	96	2
NMTAP	44	144	1
NMTAP	44	192	0
NMTAP	44	192	7
NMTAP	44	240	6
NMTAP	44	288	4
NMTAP	44	288	5
NMTAP	44	336	3
EXTAP	45	0	2
EXTAP	45	0	6
EXTAP	45	48	1
EXTAP	45	48	5
EXSTR	45	96	2
NMSXL	45	96	2	96	144	2
EXSTR	45	96	6
NMSXL	45	96	6	96	144	6
EXTAP	45	144	1
EXTAP	45	144	5
EXTAP	45	192	2
EXTAP	45	192	6
NMTAP	46	0	4
NMTAP	46	48	3
NMTAP	46	96	4
NMTAP	46	144	2
NMHLD	46	192	1	72
NMTAP	46	192	4
NMHLD	46	264	2	72
NMTAP	46	336	3
NMTAP	47	48	5
NMTAP	47	96	4
NMTAP	47	144	5
NMTAP	47	192	3
NMTAP	47	192	6
NMTAP	47	240	5
NMTAP	47	288	2
NMTAP	47	312	2
NMTAP	47	336	3
NMTAP	48	48	1
NMSTR	48	48	6
NMSCR	48	48	6	96	48	1
NMTAP	48	96	1
NMTAP	48	96	6
NMTAP	48	192	2
NMTAP	48	240	3
NMTAP	48	288	2
NMTAP	48	336	1
NMTAP	48	336	4
NMTAP	49	48	5
NMTAP	49	96	4
NMTAP	49	144	5
NMTAP	49	192	3
NMHLD	49	192	6	72
NMHLD	49	264	5	72
NMSTR	49	336	4
NMSI_	49	336	4	96	48	7
NMTAP	50	48	0
NMHLD	50	96	0	96
NMTAP	50	192	7
NMTAP	50	264	3
NMTAP	50	264	4
NMTAP	50	336	1
NMTAP	50	336	6
NMTAP	51	48	5
NMTAP	51	96	7
NMTAP	51	144	0
NMHLD	51	192	2	96
NMTTP	51	288	1	E	0	M1
NMTTP	51	304	0	E	0	M1
NMTTP	51	320	7	E	0	M1
NMTTP	51	336	6	E	0	M1
NMTTP	51	352	5	E	0	M1
NMTTP	51	368	4	E	0	M1
NMTAP	52	48	1
NMTAP	52	96	1
NMTAP	52	144	2
NMTAP	52	192	3
NMTAP	52	192	6
NMTAP	52	240	5
NMTAP	52	288	1
NMTAP	52	288	4
NMTAP	52	336	2
NMSTR	53	0	3
NMSI_	53	0	3	96	48	0
NMTAP	53	0	6
NMTAP	53	96	7
NMTAP	53	144	7
EXTAP	53	192	0
NMHLD	53	192	7	144
EXTAP	53	240	0
EXTAP	53	288	0
EXTAP	53	336	0
NMTTP	54	0	0	C	1	M1
NMTTP	54	0	1	B	0	M1
NMTTP	54	0	2	B	0	M1
NMTTP	54	0	5	B	0	M1
NMTTP	54	0	6	B	0	M1
NMTTP	55	192	3	B	0	M1
NMTTP	55	204	4	B	0	M1
NMTTP	56	0	3	E	0	M1
NMTTP	56	192	3	B	0	M1
NMTTP	57	0	4	B	0	M1
NMTTP	57	192	5	E	0	M1
NMHLD	58	0	3	288
NMTAP	58	96	1
NMTAP	58	288	1
NMTAP	59	0	2
NMTAP	59	96	3
NMTAP	59	192	4
NMTAP	59	288	5
NMHLD	60	0	6	192
NMHLD	60	192	1	192
NMTAP	61	0	6
NMTAP	61	96	7
NMTAP	61	120	0
NMTAP	61	144	7
NMTAP	61	168	0
NMTAP	61	192	7
NMTAP	61	216	0
NMTAP	61	240	7
NMTAP	61	264	0
NMSTR	61	288	7
NMSI_	61	288	7	96	24	3
NMTAP	61	312	0
NMTAP	61	336	7
NMTAP	61	360	0
NMTTP	62	6	7	B	0	M1
NMTTP	62	12	0	C	0	M1
NMTTP	62	18	3	B	0	M1
EXTAP	62	336	3
EXTAP	62	336	7
EXTAP	62	352	2
EXTAP	62	352	6
EXTAP	62	368	1
EXTAP	62	368	5
EXHLD	63	0	0	180
EXHLD	63	0	4	180
NMTTP	63	186	0	B	0	M1
NMTTP	63	192	0	C	1	M1
NMTTP	63	198	4	B	0	M1
BRTAP	63	264	2
BRTAP	63	264	6
BRTAP	63	336	1
BRTAP	63	336	5
NMTAP	64	48	0
NMTAP	64	48	7
NMTAP	64	96	1
NMTAP	64	96	6
NMTAP	64	144	2
NMTAP	64	144	5
NMTAP	64	192	3
NMTAP	64	192	4
NMTAP	64	264	0
NMTAP	64	264	1
NMSTR	64	336	6
NMSCL	64	336	6	96	48	3
NMTAP	64	336	7
NMTAP	65	48	1
NMHLD	65	96	1	48
NMTAP	65	144	0
NMTAP	65	168	1
NMTAP	65	240	3
NMTAP	65	240	6
NMTAP	65	288	7
NMTAP	65	336	0
NMTAP	66	0	1
NMTAP	66	0	4
NMSTR	66	72	3
NMSCL	66	72	3	96	120	6
NMTAP	66	72	6
NMHLD	66	144	4	144
EXTAP	66	336	3
EXTAP	66	336	4
EXTAP	66	360	2
EXTAP	66	360	5
EXSTR	67	0	1
NMSI_	67	0	1	96	48	4
EXSTR	67	0	6
NMSI_	67	0	6	96	48	3
EXTAP	67	96	1
EXTAP	67	96	6
NMTAP	67	192	0
NMTAP	67	192	7
NMTAP	67	264	3
NMTAP	67	264	4
BRTAP	67	336	1
BRTAP	67	336	6
NMTAP	68	48	2
NMTAP	68	72	3
EXTAP	68	96	1
NMTAP	68	144	5
NMTAP	68	168	4
EXTAP	68	192	6
NMTAP	68	240	2
NMTAP	68	264	3
EXTAP	68	288	0
NMTAP	68	336	5
NMTAP	68	360	4
EXHLD	69	0	7	48
NMTAP	69	48	0
EXTAP	69	96	1
NMTAP	69	96	3
NMTAP	69	144	2
NMTAP	69	192	4
EXTAP	69	192	6
NMTAP	69	240	5
EXTAP	69	288	1
NMTAP	69	288	3
NMTAP	69	336	2
NMTAP	70	0	3
NMTAP	70	0	4
NMTAP	70	48	2
NMTAP	70	48	5
NMSTR	70	96	3
BRSCL	70	96	3	96	96	6
NMTAP	70	96	4
NMTAP	70	144	2
NMTAP	70	144	5
NMHLD	70	192	4	96
EXSTR	71	0	7
NMSI_	71	0	7	96	48	3
EXTAP	71	48	7
EXSTR	71	192	0
NMSCR	71	192	0	96	48	3
EXSTR	71	192	4
NMSCR	71	192	4	96	48	7
EXTAP	71	240	0
EXTAP	71	240	4
NMTAP	72	0	0
NMTAP	72	0	4
NMTAP	72	48	7
NMTAP	72	96	2
NMTAP	72	96	6
NMTAP	72	144	1
EXTAP	72	192	0
EXTAP	72	192	4
NMSTR	72	240	0
NMSI_	72	240	0	96	48	4
EXTAP	72	240	4
NMHLD	72	336	7	96
NMTAP	73	48	0
NMTAP	73	96	1
NMTAP	73	96	7
NMTAP	73	144	6
NMTAP	73	192	1
NMTAP	73	192	5
NMTAP	73	240	2
NMTAP	73	288	3
NMSTR	73	288	5
NMSCR	73	288	5	96	96	2
NMTAP	73	336	4
NMHLD	74	0	3	144
NMTAP	74	144	4
EXTAP	74	192	1
EXTAP	74	192	6
NMTAP	74	336	3
NMTAP	74	336	4
NMSTR	75	0	3
NMSI_	75	0	3	96	48	0
NMSTR	75	0	4
NMSI_	75	0	4	96	48	7
NMHLD	75	192	1	72
NMTAP	75	192	6
NMSTR	75	264	3
NMSCR	75	264	3	96	72	7
EXTAP	75	336	2
NMTAP	76	48	1
NMTAP	76	96	0
NMTAP	76	144	7
NMTAP	76	192	1
NMHLD	76	192	6	72
NMSTR	76	264	4
NMSCL	76	264	4	96	72	0
EXTAP	76	336	5
NMTAP	77	48	6
NMTAP	77	96	7
NMTAP	77	144	0
NMTAP	77	192	1
NMTAP	77	192	4
NMTAP	77	240	2
NMTAP	77	288	3
NMTAP	77	288	7
NMTAP	77	336	6
NMTAP	78	0	3
NMTAP	78	0	5
NMTAP	78	48	2
NMTAP	78	48	6
NMSTR	78	96	3
BRSCL	78	96	3	96	96	6
NMTAP	78	96	5
NMTAP	78	144	2
NMTAP	78	144	6
NMHLD	78	192	5	96
EXTAP	79	0	1
EXTAP	79	0	5
EXTAP	79	48	2
EXTAP	79	48	6
EXSTR	79	96	1
NMSI_	79	96	1	96	48	6
EXSTR	79	96	5
NMSI_	79	96	5	96	48	2
EXTAP	79	144	2
EXTAP	79	144	6
EXTAP	79	192	1
EXTAP	79	192	5

T_REC_TAP	329
T_REC_BRK	10
T_REC_XTP	84
T_REC_BXX	0
T_REC_HLD	55
T_REC_XHO	4
T_REC_BHO	0
T_REC_BXH	0
T_REC_STR	43
T_REC_BST	3
T_REC_XST	14
T_REC_XBS	0
T_REC_TTP	28
T_REC_THO	0
T_REC_SLD	59
T_REC_BSL	2
T_REC_ALL	631
T_NUM_TAP	498
T_NUM_BRK	15
T_NUM_HLD	59
T_NUM_SLD	59
T_NUM_ALL	631
T_JUDGE_TAP	511
T_JUDGE_HLD	132
T_JUDGE_SLD	61
T_JUDGE_ALL	704
TTM_EACHPAIRS	134
TTM_SCR_TAP	249000
TTM_SCR_BRK	39000
TTM_SCR_HLD	59000
TTM_SCR_SLD	88500
TTM_SCR_ALL	435500
TTM_SCR_S	421000
TTM_SCR_SS	434000
TTM_RAT_ACV	10034

