VERSION	0.00.00	1.04.00
FES_MODE	0
BPM_DEF	182.000	182.000	182.000	182.000
MET_DEF	4	4
RESOLUTION	384
CLK_DEF	384
COMPATIBLE_CODE	MA2

BPM	0	0	182.000
MET	0	0	4	4

BRSTR	1	288	1
NMSI_	1	288	1	96	48	7
NMSV_	1	288	1	96	48	3
NMTAP	2	96	6
NMTAP	2	144	6
EXTAP	2	192	1
NMTAP	2	192	4
NMTAP	2	288	3
NMSTR	2	288	5
NMSI_	2	288	5	96	48	3
EXTAP	3	0	2
NMTAP	3	96	1
NMTAP	3	144	1
EXTAP	3	192	3
NMTAP	3	288	2
NMSTR	3	288	4
NMSI_	3	288	4	96	48	7
EXTAP	4	0	0
NMTAP	4	96	6
NMTAP	4	144	6
EXTAP	4	192	1
NMTAP	4	192	5
NMTAP	4	288	0
NMSTR	4	288	6
NMSCL	4	288	6	96	48	3
EXTAP	5	0	2
NMTAP	5	96	1
NMTAP	5	144	1
EXTAP	5	192	3
NMSTR	5	288	2
NMSI_	5	288	2	96	48	4
NMTAP	5	288	4
EXTAP	6	0	0
NMTAP	6	96	6
NMTAP	6	144	6
EXTAP	6	192	1
NMTAP	6	192	4
NMTAP	6	288	3
NMSTR	6	288	5
NMSI_	6	288	5	96	48	0
EXTAP	7	0	2
NMTAP	7	96	1
NMTAP	7	144	1
EXTAP	7	192	3
NMSTR	7	288	2
NMSCR	7	288	2	96	48	5
NMTAP	7	288	5
EXTAP	8	0	0
NMTAP	8	96	6
NMTAP	8	144	6
EXTAP	8	192	1
NMTAP	8	192	5
NMTAP	8	288	3
NMSTR	8	288	6
NMSUL	8	288	6	96	144	4
EXTAP	9	0	2
NMTAP	9	96	1
NMTAP	9	144	1
EXTAP	9	192	3
NMTAP	9	216	2
NMTAP	9	240	4
NMTAP	9	264	3
BRTAP	9	288	5
NMHLD	10	0	1	96
NMTAP	10	96	3
NMHLD	10	144	3	96
NMTAP	10	240	2
NMTAP	10	288	3
NMTAP	10	336	4
NMTAP	11	0	1
NMTAP	11	0	5
NMSTR	11	48	1
NMSI_	11	48	1	96	48	6
NMSTR	11	48	5
NMSI_	11	48	5	96	48	2
EXTAP	11	144	1
EXTAP	11	144	5
NMTAP	11	288	3
NMTAP	11	288	4
NMTAP	11	336	5
NMHLD	12	0	6	96
NMTAP	12	96	5
NMHLD	12	144	5	96
NMTAP	12	240	7
NMTAP	12	288	6
NMTAP	12	336	5
NMTAP	13	0	3
NMTAP	13	0	4
NMTAP	13	48	3
NMSTR	13	48	4
NMSI_	13	48	4	96	48	0
NMSTR	13	144	1
NMSCR	13	144	1	96	48	3
NMTAP	13	240	7
NMTAP	13	264	6
NMTAP	13	288	5
NMHLD	14	0	6	96
NMTAP	14	96	4
NMHLD	14	144	6	96
NMTAP	14	240	4
NMTAP	14	288	3
NMTAP	14	336	2
NMHLD	15	0	1	96
NMTAP	15	96	3
NMHLD	15	144	1	96
NMTAP	15	240	3
NMTAP	15	288	4
NMTAP	15	336	5
NMHLD	16	0	6	96
NMTAP	16	96	4
NMHLD	16	144	4	96
NMTAP	16	240	7
NMTAP	16	288	6
NMTAP	16	336	5
NMTAP	17	0	3
NMTAP	17	0	4
NMSTR	17	48	2
NMSI_	17	48	2	96	48	0
NMSTR	17	48	3
NMSI_	17	48	3	96	48	7
EXTAP	17	240	0
EXTAP	17	240	6
BRTAP	17	288	1
BRTAP	17	288	5
NMHLD	18	0	0	96
NMTAP	18	0	4
NMTAP	18	96	7
NMHLD	18	144	7	96
NMTAP	18	240	3
NMTAP	18	288	2
NMTAP	18	336	1
NMTAP	19	0	0
NMTAP	19	0	4
NMSTR	19	48	0
NMSI_	19	48	0	96	48	3
NMSTR	19	48	4
NMSI_	19	48	4	96	48	7
EXTAP	19	144	0
EXTAP	19	144	4
NMTAP	19	288	3
NMTAP	19	288	7
NMTAP	19	336	2
NMTAP	20	0	1
NMTAP	20	0	5
NMTAP	20	48	1
NMTAP	20	96	1
NMTAP	20	96	3
NMHLD	20	144	1	96
NMTAP	20	240	0
NMTAP	20	288	1
NMTAP	20	336	2
NMTAP	21	0	3
NMHLD	21	0	4	72
NMHLD	21	72	5	72
NMSTR	21	144	6
NMSCL	21	144	6	96	48	4
NMTAP	21	240	1
NMTAP	21	264	2
NMTAP	21	288	3
NMHLD	22	0	2	72
NMHLD	22	72	4	72
NMSTR	22	144	3
NMSCL	22	144	3	96	96	7
NMTAP	22	240	7
NMTAP	22	288	6
NMTAP	22	336	5
NMHLD	23	0	4	72
NMTAP	23	72	0
NMHLD	23	144	1	96
NMTAP	23	144	5
NMTAP	23	240	7
NMTAP	23	264	6
NMTAP	23	288	5
NMTAP	23	336	5
NMTAP	24	0	3
NMHLD	24	0	4	72
NMHLD	24	72	2	72
NMSTR	24	144	3
NMSCR	24	144	3	96	96	7
NMTAP	24	240	0
NMTAP	24	288	1
NMTAP	24	336	2
NMHLD	25	0	3	72
NMTAP	25	72	7
NMHLD	25	144	2	96
NMTAP	25	144	5
NMTAP	25	240	4
NMTAP	25	264	3
BRTAP	25	288	4
NMSTR	26	0	6
NMSCL	26	0	6	96	48	4
NMSTR	26	192	1
NMSCR	26	192	1	96	48	3
NMTTP	27	0	5	E	0	M1
NMTTP	27	96	3	E	0	M1
NMTTP	27	192	4	E	0	M1
NMHLD	28	0	5	96
NMHLD	28	96	4	96
NMHLD	28	192	3	96
NMHLD	28	288	2	96
NMTAP	29	0	5
NMTAP	29	48	3
NMTAP	29	48	4
NMTTP	29	144	0	C	0	M1
BRSTR	30	0	2
NMSI_	30	0	2	96	48	7
BRSTR	30	0	6
NMSI_	30	0	6	96	48	3
EXTAP	30	96	2
EXTAP	30	96	6
NMHLD	30	192	0	72
NMTAP	30	192	4
NMHLD	30	264	1	72
NMSTR	30	336	2
NMSCR	30	336	2	96	48	5
NMTAP	31	48	7
NMTAP	31	96	7
NMTAP	31	144	6
NMTAP	31	192	4
NMTAP	31	192	5
NMTAP	31	264	1
NMTAP	31	264	2
NMSTR	31	336	6
NMSCL	31	336	6	96	48	3
NMTAP	31	336	7
NMTAP	32	48	1
NMHLD	32	96	1	48
NMTAP	32	144	0
NMTAP	32	168	1
NMTAP	32	240	3
NMTAP	32	240	6
NMTAP	32	288	7
NMTAP	32	336	0
NMTAP	33	0	1
NMTAP	33	0	4
NMTAP	33	72	3
NMSTR	33	72	6
NMSCL	33	72	6	96	144	7
NMHLD	33	144	1	144
EXTAP	33	336	1
EXTAP	33	336	6
EXTAP	33	360	2
EXTAP	33	360	5
EXSTR	34	0	3
NMSI_	34	0	3	96	48	0
EXSTR	34	0	4
NMSI_	34	0	4	96	48	7
EXTAP	34	96	3
EXTAP	34	96	4
NMTAP	34	192	1
NMHLD	34	192	6	72
NMSTR	34	264	4
NMSI_	34	264	4	96	48	0
NMTAP	34	336	5
NMTAP	35	48	6
NMTAP	35	96	7
NMTAP	35	144	0
NMHLD	35	192	1	72
NMSTR	35	264	3
NMSI_	35	264	3	96	48	7
NMTAP	35	336	2
NMTAP	36	48	1
NMTAP	36	96	0
NMTAP	36	96	7
NMTAP	36	144	6
NMTAP	36	192	4
NMTAP	36	192	5
NMTAP	36	240	3
NMSTR	36	288	1
NMSXL	36	288	1	96	144	5
NMTAP	36	288	2
NMTAP	36	336	0
NMHLD	37	0	7	96
NMTAP	37	144	6
NMSTR	37	192	6
NMSI_	37	192	6	96	48	2
NMTTP	37	288	0	C	1	M1
EXSTR	38	0	0
NMSI_	38	0	0	96	48	4
EXTAP	38	48	0
EXSTR	38	192	1
NMSI_	38	192	1	96	48	3
EXSTR	38	192	7
NMSI_	38	192	7	96	48	5
EXTAP	38	240	1
EXTAP	38	240	7
NMTAP	39	0	3
NMTAP	39	0	4
NMTAP	39	48	5
NMTAP	39	96	2
NMTAP	39	96	6
NMTAP	39	144	1
EXTAP	39	192	0
EXTAP	39	192	7
EXTAP	39	240	0
EXTAP	39	240	7
NMHLD	39	336	3	96
NMTAP	39	336	4
NMTAP	40	48	7
NMTAP	40	96	0
NMTAP	40	96	6
NMTAP	40	144	1
NMTAP	40	192	2
NMTAP	40	192	6
NMTAP	40	240	5
NMSTR	40	288	2
NMSCL	40	288	2	96	96	5
NMTAP	40	288	4
NMTAP	40	336	3
NMHLD	41	0	4	144
NMTAP	41	144	3
EXTAP	41	192	1
EXTAP	41	192	6
NMTAP	41	336	3
NMTAP	41	336	4
NMTAP	42	0	3
NMSTR	42	0	4
NMSI_	42	0	4	96	48	0
NMTAP	42	96	1
NMTAP	42	192	2
NMHLD	42	192	7	72
NMHLD	42	264	6	72
NMTAP	42	336	5
NMTAP	43	48	3
NMTAP	43	48	4
NMTAP	43	96	2
NMTAP	43	144	1
NMHLD	43	192	0	72
NMTAP	43	192	5
NMHLD	43	264	1	72
NMTAP	43	336	2
NMTAP	44	48	3
NMTAP	44	48	4
NMTAP	44	96	5
NMTAP	44	144	6
NMTAP	44	192	0
NMTAP	44	192	7
NMTAP	44	240	1
NMTAP	44	288	2
NMTAP	44	288	3
NMTAP	44	336	4
EXTAP	45	0	1
EXTAP	45	0	5
EXTAP	45	48	2
EXTAP	45	48	6
EXSTR	45	96	1
NMSXR	45	96	1	96	144	1
EXSTR	45	96	5
NMSXR	45	96	5	96	144	5
EXTAP	45	144	2
EXTAP	45	144	6
EXTAP	45	192	1
EXTAP	45	192	5
NMTAP	46	0	3
NMTAP	46	48	4
NMTAP	46	96	3
NMTAP	46	144	5
NMTAP	46	192	3
NMHLD	46	192	6	72
NMHLD	46	264	5	72
NMTAP	46	336	4
NMTAP	47	48	2
NMTAP	47	96	3
NMTAP	47	144	2
NMTAP	47	192	1
NMTAP	47	192	4
NMTAP	47	240	2
NMTAP	47	288	5
NMTAP	47	312	5
NMTAP	47	336	4
NMSTR	48	48	1
NMSCL	48	48	1	96	48	6
NMTAP	48	48	6
NMTAP	48	96	1
NMTAP	48	96	6
NMTAP	48	192	5
NMTAP	48	240	4
NMTAP	48	288	5
NMTAP	48	336	3
NMTAP	48	336	6
NMTAP	49	48	2
NMTAP	49	96	3
NMTAP	49	144	2
NMHLD	49	192	1	72
NMTAP	49	192	4
NMHLD	49	264	2	72
NMSTR	49	336	3
NMSI_	49	336	3	96	48	0
NMTAP	50	48	7
NMHLD	50	96	7	96
NMTAP	50	192	0
NMTAP	50	264	3
NMTAP	50	264	4
NMTAP	50	336	1
NMTAP	50	336	6
NMTAP	51	48	2
NMTAP	51	96	0
NMTAP	51	144	7
NMHLD	51	192	5	96
NMTTP	51	288	7	E	0	M1
NMTTP	51	304	0	E	0	M1
NMTTP	51	320	1	E	0	M1
NMTTP	51	336	2	E	0	M1
NMTTP	51	352	3	E	0	M1
NMTTP	51	368	4	E	0	M1
NMTAP	52	48	6
NMTAP	52	96	6
NMTAP	52	144	5
NMTAP	52	192	1
NMTAP	52	192	4
NMTAP	52	240	2
NMTAP	52	288	3
NMTAP	52	288	6
NMTAP	52	336	5
NMTAP	53	0	1
NMSTR	53	0	4
NMSI_	53	0	4	96	48	7
NMTAP	53	96	0
NMTAP	53	144	0
NMHLD	53	192	0	144
EXTAP	53	192	7
EXTAP	53	240	7
EXTAP	53	288	7
EXTAP	53	336	7
NMTTP	54	0	0	C	1	M1
NMTTP	54	0	1	B	0	M1
NMTTP	54	0	2	B	0	M1
NMTTP	54	0	5	B	0	M1
NMTTP	54	0	6	B	0	M1
NMTTP	55	192	4	B	0	M1
NMTTP	55	204	3	B	0	M1
NMTTP	56	0	5	E	0	M1
NMTTP	56	192	4	B	0	M1
NMTTP	57	0	3	B	0	M1
NMTTP	57	192	3	E	0	M1
NMHLD	58	0	4	288
NMTAP	58	96	6
NMTAP	58	288	6
NMTAP	59	0	5
NMTAP	59	96	4
NMTAP	59	192	3
NMTAP	59	288	2
NMHLD	60	0	1	192
NMHLD	60	192	6	192
NMTAP	61	0	1
NMTAP	61	96	0
NMTAP	61	120	7
NMTAP	61	144	0
NMTAP	61	168	7
NMTAP	61	192	0
NMTAP	61	216	7
NMTAP	61	240	0
NMTAP	61	264	7
NMSTR	61	288	0
NMSI_	61	288	0	96	24	4
NMTAP	61	312	7
NMTAP	61	336	0
NMTAP	61	360	7
NMTTP	62	6	0	B	0	M1
NMTTP	62	12	0	C	0	M1
NMTTP	62	18	4	B	0	M1
EXTAP	62	336	0
EXTAP	62	336	4
EXTAP	62	352	1
EXTAP	62	352	5
EXTAP	62	368	2
EXTAP	62	368	6
EXHLD	63	0	3	180
EXHLD	63	0	7	180
NMTTP	63	186	7	B	0	M1
NMTTP	63	192	0	C	1	M1
NMTTP	63	198	3	B	0	M1
BRTAP	63	264	1
BRTAP	63	264	5
BRTAP	63	336	2
BRTAP	63	336	6
NMTAP	64	48	0
NMTAP	64	48	7
NMTAP	64	96	1
NMTAP	64	96	6
NMTAP	64	144	2
NMTAP	64	144	5
NMTAP	64	192	3
NMTAP	64	192	4
NMTAP	64	264	6
NMTAP	64	264	7
NMTAP	64	336	0
NMSTR	64	336	1
NMSCR	64	336	1	96	48	4
NMTAP	65	48	6
NMHLD	65	96	6	48
NMTAP	65	144	7
NMTAP	65	168	6
NMTAP	65	240	1
NMTAP	65	240	4
NMTAP	65	288	0
NMTAP	65	336	7
NMTAP	66	0	3
NMTAP	66	0	6
NMTAP	66	72	1
NMSTR	66	72	4
NMSCR	66	72	4	96	120	1
NMHLD	66	144	3	144
EXTAP	66	336	3
EXTAP	66	336	4
EXTAP	66	360	2
EXTAP	66	360	5
EXSTR	67	0	1
NMSI_	67	0	1	96	48	4
EXSTR	67	0	6
NMSI_	67	0	6	96	48	3
EXTAP	67	96	1
EXTAP	67	96	6
NMTAP	67	192	0
NMTAP	67	192	7
NMTAP	67	264	3
NMTAP	67	264	4
BRTAP	67	336	1
BRTAP	67	336	6
NMTAP	68	48	5
NMTAP	68	72	4
EXTAP	68	96	6
NMTAP	68	144	2
NMTAP	68	168	3
EXTAP	68	192	1
NMTAP	68	240	5
NMTAP	68	264	4
EXTAP	68	288	7
NMTAP	68	336	2
NMTAP	68	360	3
EXHLD	69	0	0	48
NMTAP	69	48	7
NMTAP	69	96	4
EXTAP	69	96	6
NMTAP	69	144	5
EXTAP	69	192	1
NMTAP	69	192	3
NMTAP	69	240	2
NMTAP	69	288	4
EXTAP	69	288	6
NMTAP	69	336	5
NMTAP	70	0	3
NMTAP	70	0	4
NMTAP	70	48	2
NMTAP	70	48	5
NMTAP	70	96	3
NMSTR	70	96	4
BRSCR	70	96	4	96	96	1
NMTAP	70	144	2
NMTAP	70	144	5
NMHLD	70	192	3	96
EXSTR	71	0	0
NMSI_	71	0	0	96	48	4
EXTAP	71	48	0
EXSTR	71	192	3
NMSCL	71	192	3	96	48	0
EXSTR	71	192	7
NMSCL	71	192	7	96	48	4
EXTAP	71	240	3
EXTAP	71	240	7
NMTAP	72	0	3
NMTAP	72	0	7
NMTAP	72	48	0
NMTAP	72	96	1
NMTAP	72	96	5
NMTAP	72	144	6
EXTAP	72	192	3
EXTAP	72	192	7
EXTAP	72	240	3
NMSTR	72	240	7
NMSI_	72	240	7	96	48	3
NMHLD	72	336	0	96
NMTAP	73	48	7
NMTAP	73	96	0
NMTAP	73	96	6
NMTAP	73	144	1
NMTAP	73	192	2
NMTAP	73	192	6
NMTAP	73	240	5
NMSTR	73	288	2
NMSCL	73	288	2	96	96	5
NMTAP	73	288	4
NMTAP	73	336	3
NMHLD	74	0	4	144
NMTAP	74	144	3
EXTAP	74	192	1
EXTAP	74	192	6
NMTAP	74	336	3
NMTAP	74	336	4
NMSTR	75	0	3
NMSI_	75	0	3	96	48	0
NMSTR	75	0	4
NMSI_	75	0	4	96	48	7
NMTAP	75	192	1
NMHLD	75	192	6	72
NMSTR	75	264	4
NMSCL	75	264	4	96	72	0
EXTAP	75	336	5
NMTAP	76	48	6
NMTAP	76	96	7
NMTAP	76	144	0
NMHLD	76	192	1	72
NMTAP	76	192	6
NMSTR	76	264	3
NMSCR	76	264	3	96	72	7
EXTAP	76	336	2
NMTAP	77	48	1
NMTAP	77	96	0
NMTAP	77	144	7
NMTAP	77	192	3
NMTAP	77	192	6
NMTAP	77	240	5
NMTAP	77	288	0
NMTAP	77	288	4
NMTAP	77	336	1
NMTAP	78	0	2
NMTAP	78	0	4
NMTAP	78	48	1
NMTAP	78	48	5
NMTAP	78	96	2
NMSTR	78	96	4
BRSCR	78	96	4	96	96	1
NMTAP	78	144	1
NMTAP	78	144	5
NMHLD	78	192	2	96
EXTAP	79	0	2
EXTAP	79	0	6
EXTAP	79	48	1
EXTAP	79	48	5
EXSTR	79	96	2
NMSI_	79	96	2	96	48	5
EXSTR	79	96	6
NMSI_	79	96	6	96	48	1
EXTAP	79	144	1
EXTAP	79	144	5
EXTAP	79	192	2
EXTAP	79	192	6

T_REC_TAP	331
T_REC_BRK	10
T_REC_XTP	86
T_REC_BXX	0
T_REC_HLD	58
T_REC_XHO	3
T_REC_BHO	0
T_REC_BXH	0
T_REC_STR	43
T_REC_BST	3
T_REC_XST	14
T_REC_XBS	0
T_REC_TTP	28
T_REC_THO	0
T_REC_SLD	59
T_REC_BSL	2
T_REC_ALL	637
T_NUM_TAP	502
T_NUM_BRK	15
T_NUM_HLD	61
T_NUM_SLD	59
T_NUM_ALL	637
T_JUDGE_TAP	515
T_JUDGE_HLD	136
T_JUDGE_SLD	61
T_JUDGE_ALL	712
TTM_EACHPAIRS	140
TTM_SCR_TAP	251000
TTM_SCR_BRK	39000
TTM_SCR_HLD	61000
TTM_SCR_SLD	88500
TTM_SCR_ALL	439500
TTM_SCR_S	424900
TTM_SCR_SS	438000
TTM_RAT_ACV	10034

