VERSION	0.00.00	1.04.00
FES_MODE	1
BPM_DEF	200.000	200.000	200.000	200.000
MET_DEF	4	4
RESOLUTION	384
CLK_DEF	384
COMPATIBLE_CODE	MA2

BPM	0	0	200.000
MET	0	0	4	4

NMSTR	1	0	2
NMSTR	1	192	2
NMSTR	1	192	3
NMSTR	2	0	3
NMSTR	2	0	4
NMSTR	2	128	4
NMSTR	2	128	5
NMSTR	2	160	4
NMSTR	2	192	5
NMSTR	2	256	3
NMSTR	2	320	2
NMSTR	3	0	1
NMSTR	3	64	2
NMSTR	3	64	3
NMSTR	3	128	3
NMSTR	3	128	4
NMSTR	3	192	5
NMSTR	3	256	3
NMSTR	3	256	4
NMSTR	3	320	2
NMSTR	3	320	3
NMSTR	4	0	1
NMSTR	4	0	4
NMSTR	4	96	1
NMSTR	4	128	3
NMSTR	4	160	2
NMSTR	4	192	6
NMSTR	4	224	4
NMSTR	4	256	5
NMSTR	4	288	0
NMSTR	4	320	2
NMSTR	4	352	1
BRSTR	5	0	7
NMSTR	5	192	3
NMSI_	5	192	3	96	48	0
NMSTR	5	192	4
NMSI_	5	192	4	96	48	7
NMSTR	5	288	3
NMSTR	5	288	4
EXSTR	6	0	1
EXSTR	6	0	6
NMSTR	6	48	2
NMSTR	6	96	3
NMSTR	6	144	1
NMSTR	6	144	4
NMSTR	6	240	0
NMSTR	6	240	1
NMSTR	6	288	2
NMSTR	6	288	7
NMSTR	7	0	0
NMSTR	7	0	6
NMSTR	7	48	5
NMSTR	7	96	4
NMSTR	7	144	3
NMSTR	7	144	6
NMSTR	7	240	6
NMSTR	7	240	7
NMSTR	7	288	0
NMSTR	7	288	5
NMSTR	8	0	1
NMSTR	8	0	7
NMSTR	8	48	0
NMSI_	8	48	0	96	48	2
NMSTR	8	96	7
NMSTR	8	144	0
NMSTR	8	192	6
NMSI_	8	192	6	96	48	4
NMSTR	8	240	7
NMSTR	8	288	6
NMSTR	8	336	1
NMSI_	8	336	1	96	48	7
NMSTR	9	0	2
NMSTR	9	48	1
NMSTR	9	96	3
NMSI_	9	96	3	96	48	5
NMSTR	9	144	2
NMSTR	9	192	3
NMSTR	9	240	1
NMSTR	9	288	0
NMSCL	9	288	0	96	240	1
NMSTR	9	336	7
BRSTR	10	0	6
NMSTR	11	0	0
NMSTR	11	0	7
NMSTR	11	48	0
NMSTR	11	48	7
NMSTR	11	96	0
NMSTR	11	96	7
NMSTR	11	144	1
NMSTR	11	144	6
NMSTR	11	240	3
NMSTR	11	264	4
BRSTR	11	288	2
BRSTR	11	288	5
NMSTR	12	0	1
NMSTR	12	48	1
NMSTR	12	96	3
NMSTR	12	144	3
NMSTR	12	192	2
NMSTR	12	240	0
NMSTR	12	288	3
NMSTR	12	336	7
NMSTR	13	0	4
NMSTR	13	48	4
NMSTR	13	96	6
NMSTR	13	144	6
NMSTR	13	192	7
NMSTR	13	240	5
NMSTR	13	288	0
NMSTR	13	336	4
NMSTR	14	0	1
NMSTR	14	48	1
NMSTR	14	48	3
NMSTR	14	64	4
NMSTR	14	80	5
NMSTR	14	96	2
NMSTR	14	144	2
NMSTR	14	192	7
NMSTR	14	240	1
NMSTR	14	264	2
NMSTR	14	288	7
NMSTR	14	312	6
NMSTR	14	336	5
NMSTR	14	360	4
NMSTR	15	0	2
NMSTR	15	24	1
NMSTR	15	48	0
NMSTR	15	72	7
NMSTR	15	96	3
NMSTR	15	120	4
NMSTR	15	144	5
NMSTR	15	168	6
NMSTR	15	192	0
NMSTR	15	216	1
NMSTR	15	240	2
NMSTR	15	264	3
NMSTR	15	288	0
NMSTR	15	312	7
NMSTR	15	336	6
NMSTR	15	360	5
BRSTR	16	0	0
NMSTR	16	0	4
NMSTR	16	96	7
NMSTR	16	144	2
BRSTR	16	144	6
NMSTR	16	240	0
BRSTR	16	288	1
NMSTR	16	288	5
NMSTR	17	0	3
NMSTR	17	0	7
NMSI_	17	0	7	96	48	3
BRSTR	17	96	0
NMSTR	17	192	1
NMSTR	17	288	2
NMSUR	17	288	2	96	240	5
NMSTR	17	288	6
NMSTR	18	0	7
NMSTR	18	336	0
NMSTR	18	336	7
BRSTR	19	0	1
BRSTR	19	0	6
NMSTR	19	240	2
NMSTR	19	264	3
NMSTR	19	288	4
NMSTR	19	312	5
NMSTR	19	336	0
NMSTR	19	360	7
NMSTR	20	0	6
NMSTR	20	144	2
NMSTR	20	192	3
NMSTR	20	240	4
NMSTR	20	288	5
NMSTR	20	336	6
NMSTR	21	48	1
NMSTR	21	96	2
NMSTR	21	144	3
NMSTR	21	240	6
NMSTR	21	288	5
NMSTR	21	336	4
NMSTR	22	0	1
NMSTR	22	0	6
NMSTR	22	96	7
NMSTR	22	144	0
NMSTR	22	240	3
NMSTR	22	288	4
NMSTR	22	336	5
NMSTR	23	48	7
NMSTR	23	96	0
NMSTR	23	144	1
NMSTR	23	192	2
NMSTR	23	192	5
NMSTR	23	240	3
NMSTR	23	264	4
NMSTR	23	288	5
NMSTR	23	336	1
NMSTR	24	0	7
NMSTR	24	48	6
NMSTR	24	96	5
NMSTR	24	144	0
NMSTR	24	144	4
NMSTR	25	0	6
NMSTR	25	0	7
NMSTR	25	144	0
NMSTR	25	144	1
NMSTR	25	288	5
NMSTR	26	0	3
NMSTR	26	96	1
NMSTR	26	96	6
NMSTR	26	192	0
NMSTR	26	240	1
NMSTR	26	336	6
NMSTR	26	336	7
NMSTR	27	96	2
NMSTR	27	192	4
NMSTR	27	288	1
NMSTR	27	288	6
NMSTR	28	0	0
NMSTR	28	0	7
NMSTR	28	96	0
NMSTR	28	96	6
NMSTR	28	144	1
NMSTR	28	168	5
NMSTR	28	192	1
NMSTR	28	240	3
NMSTR	28	288	0
NMSTR	28	336	6
NMSTR	29	0	1
NMSTR	29	48	3
NMSTR	29	96	0
NMSTR	29	144	1
NMSTR	29	144	7
NMSTR	29	240	6
NMSTR	29	264	4
NMSTR	29	288	5
NMSTR	29	312	3
NMSTR	29	336	4
NMSTR	29	360	2
NMSTR	30	0	3
NMSI_	30	0	3	96	48	7
NMSTR	30	96	1
NMSTR	30	192	2
NMSTR	30	264	1
NMSTR	30	264	2
NMSTR	30	336	0
NMSI_	30	336	0	96	48	4
NMSTR	30	336	1
EXSTR	31	48	7
EXSTR	31	96	7
NMSTR	31	192	3
NMSTR	31	192	6
NMSTR	31	288	1
NMSTR	31	288	4
NMSTR	32	0	2
NMSTR	32	24	3
NMSTR	32	48	2
NMSTR	32	72	3
NMSTR	32	96	2
NMSTR	32	144	1
NMSTR	32	144	4
NMSTR	32	240	0
NMSTR	32	240	1
NMSTR	32	288	2
NMSTR	32	288	7
NMSTR	32	336	3
NMSTR	32	336	6
NMSTR	33	0	5
NMSTR	33	24	4
NMSTR	33	48	5
NMSTR	33	72	4
NMSTR	33	96	5
NMSTR	33	144	3
NMSTR	33	144	6
NMSTR	33	240	3
NMSTR	33	288	2
NMSTR	33	288	4
NMSTR	33	336	1
NMSTR	33	336	5
NMSTR	34	0	0
NMSTR	34	0	6
NMSTR	34	48	7
NMSTR	34	72	7
NMSTR	34	96	7
NMSTR	34	120	7
NMSTR	34	144	7
NMSTR	34	168	7
NMSTR	34	192	7
NMSTR	34	240	0
NMSI_	34	240	0	96	48	3
NMSI_	34	240	0	96	48	5
NMSTR	34	240	6
BRSTR	34	336	0
NMSTR	35	48	7
NMSTR	35	96	0
NMSTR	35	144	6
NMSTR	35	192	1
NMSTR	35	240	5
NMSTR	35	288	4
NMSTR	35	336	3
NMSTR	36	0	2
NMSCL	36	0	2	96	288	5
NMSTR	36	144	4
NMSTR	36	192	4
NMSTR	36	288	3
NMSTR	37	0	2
NMSCL	37	0	2	96	288	5
NMSTR	37	144	3
NMSTR	37	192	3
NMSTR	37	288	2
NMSTR	38	0	1
NMSTR	38	96	1
NMSTR	38	96	3
NMSTR	38	144	3
NMSTR	38	240	3
NMSTR	38	240	4
NMSTR	38	336	3
NMSTR	38	336	5
NMSTR	39	48	4
NMSTR	39	96	3
NMSTR	39	192	2
NMSTR	39	192	4
NMSTR	39	288	1
NMSTR	39	288	5
NMSTR	40	0	6
NMSCL	40	0	6	96	288	1
NMSTR	40	96	0
NMSTR	40	144	0
NMSTR	40	240	7
NMSTR	40	288	7
NMSTR	41	0	6
NMSCL	41	0	6	96	288	1
NMSTR	41	96	7
NMSTR	41	144	7
NMSTR	41	240	6
NMSTR	41	288	6
NMSTR	42	0	5
NMSTR	42	96	0
NMSTR	42	96	5
NMSTR	42	144	1
NMSTR	42	240	1
NMSTR	42	240	3
NMSTR	42	288	4
NMSTR	42	336	5
NMSTR	43	48	4
NMSTR	43	96	3
NMSTR	43	96	5
NMSTR	43	192	2
NMSTR	43	192	4
NMSTR	43	288	1
NMSTR	43	288	5
NMSTR	44	0	2
NMSTR	44	0	6
NMSTR	44	96	3
NMSTR	44	96	7
NMSCL	44	96	7	96	96	4
NMSTR	44	192	5
NMSTR	44	192	6
NMSTR	44	336	0
NMSTR	45	48	0
NMSTR	45	96	0
NMSCR	45	96	0	96	96	3
NMSTR	45	192	1
NMSTR	45	192	2
NMSTR	45	288	7
NMSTR	46	0	6
NMSTR	46	96	4
NMSTR	46	96	6
NMSTR	46	144	4
NMSTR	46	240	3
NMSTR	46	240	4
NMSTR	46	336	2
NMSTR	46	336	4
NMSTR	47	48	3
NMSTR	47	96	4
NMSTR	47	192	3
NMSTR	47	192	5
NMSTR	47	288	2
NMSTR	47	288	6
NMSTR	48	0	7
NMSTR	48	96	3
NMSCL	48	96	3	96	96	0
NMSTR	48	96	7
NMSTR	48	192	1
NMSTR	48	192	2
NMSTR	48	336	4
NMSTR	49	48	4
NMSTR	49	96	4
NMSCR	49	96	4	96	96	7
NMSTR	49	192	5
NMSTR	49	192	6
NMSTR	49	288	3
NMSTR	50	0	2
NMSTR	50	96	1
NMSI_	50	96	1	96	96	4
NMSTR	50	192	1
NMSTR	50	192	6
NMSTR	50	336	7
NMSTR	51	48	0
NMSTR	51	48	7
NMSTR	51	96	6
NMSTR	51	144	1
NMSTR	51	192	4
NMSTR	51	240	3
NMSTR	51	288	5
NMSTR	51	336	2
NMSTR	52	0	6
NMSTR	52	0	7
NMSTR	52	48	1
NMSTR	52	72	2
NMSTR	52	96	3
NMSTR	52	144	4
NMSTR	52	144	5
NMSTR	52	192	0
NMSTR	52	216	1
NMSTR	52	240	2
NMSTR	52	288	4
NMSTR	52	288	5
NMSTR	52	336	5
NMSTR	52	336	6
NMSTR	53	192	0
NMSTR	53	192	7
NMSTR	53	216	1
NMSTR	53	240	2
NMSTR	53	264	3
NMSTR	53	288	4
NMSTR	53	312	5
NMSTR	53	336	6
NMSTR	53	360	7
NMSTR	54	0	0
EXSTR	54	0	5
NMSTR	54	48	6
NMSTR	54	72	7
NMSTR	54	96	6
EXSTR	54	144	2
NMSTR	54	144	7
NMSTR	54	192	1
NMSTR	54	216	0
NMSTR	54	240	2
NMSTR	54	288	3
NMSTR	54	288	7
NMSTR	54	336	1
NMSTR	54	336	5
NMSTR	55	96	0
NMSTR	55	96	7
NMSTR	55	192	1
NMSTR	55	192	6
NMSTR	55	240	3
NMSTR	55	264	4
BRSTR	55	288	2
BRSTR	55	288	5
NMSTR	56	0	2
NMSTR	56	0	3
NMSTR	56	48	7
NMSTR	56	96	3
NMSTR	56	96	4
NMSTR	56	144	7
NMSTR	56	192	1
NMSTR	56	192	2
NMSTR	56	240	6
NMSTR	56	288	3
NMSTR	56	288	4
NMSTR	56	336	6
NMSTR	57	0	0
NMSTR	57	48	4
NMSTR	57	48	5
NMSTR	57	96	0
NMSTR	57	144	3
NMSTR	57	144	4
NMSTR	57	192	1
NMSTR	57	240	5
NMSTR	57	240	6
NMSTR	57	288	1
NMSTR	57	336	4
NMSTR	57	336	5
NMSTR	58	0	0
NMSTR	58	24	7
NMSTR	58	48	0
NMSTR	58	72	7
NMSTR	58	96	0
NMSTR	58	120	7
NMSTR	58	144	0
NMSTR	58	168	7
NMSTR	58	192	1
NMSTR	58	216	6
NMSTR	58	240	1
NMSTR	58	264	6
NMSTR	58	288	1
NMSTR	58	312	6
NMSTR	58	336	1
NMSTR	58	360	6
NMSTR	59	0	1
NMSTR	59	16	2
NMSTR	59	32	3
NMSTR	59	48	6
NMSTR	59	64	5
NMSTR	59	80	4
BXSTR	59	96	0
NMSTR	59	192	0
NMSTR	59	240	0
NMSTR	59	288	7
NMSTR	59	336	6
NMSTR	60	0	1
NMSI_	60	0	1	96	48	4
NMSTR	60	48	4
NMSI_	60	48	4	96	48	2
NMSTR	60	96	1
NMSTR	60	144	7
NMSI_	60	144	7	96	48	4
NMSTR	60	240	6
NMSI_	60	240	6	96	48	2
NMSTR	60	240	7
NMSTR	60	336	0
NMSTR	60	336	6
NMSTR	61	48	1
NMSI_	61	48	1	96	48	5
NMSTR	61	96	7
NMSTR	61	144	1
NMSTR	61	192	7
NMSI_	61	192	7	96	48	2
NMSI_	61	192	7	96	48	4
NMSTR	61	288	7
NMSTR	62	0	6
NMSI_	62	0	6	96	48	3
NMSTR	62	48	3
NMSI_	62	48	3	96	48	5
NMSTR	62	96	6
NMSTR	62	144	0
NMSI_	62	144	0	96	48	3
NMSTR	62	240	0
NMSTR	62	240	1
NMSI_	62	240	1	96	48	5
NMSTR	62	336	1
NMSTR	62	336	7
NMSTR	63	48	0
NMSTR	63	96	1
NMSTR	63	96	7
NMSTR	63	144	2
NMSTR	63	144	6
NMSTR	63	192	3
NMSTR	63	216	2
NMSTR	63	240	1
NMSTR	63	264	0
NMSTR	63	288	4
NMSI_	63	288	4	96	48	1
NMSTR	63	312	5
NMSTR	63	336	6
NMSTR	63	360	7
NMSTR	64	0	4
NMSTR	64	48	0
NMSI_	64	48	0	96	48	4
NMSTR	64	96	7
NMSTR	64	144	0
NMSTR	64	144	6
NMSTR	64	240	1
NMSTR	64	288	2
NMSCL	64	288	2	96	96	6
NMSTR	64	336	7
NMSTR	65	0	6
NMSCL	65	0	6	96	96	2
NMSTR	65	96	2
NMSCL	65	96	2	96	96	7
NMSTR	65	192	6
NMSTR	65	288	3
NMSI_	65	288	3	96	48	6
NMSTR	66	0	7
NMSTR	66	48	0
NMSI_	66	48	0	96	48	3
NMSTR	66	96	1
NMSTR	66	144	0
NMSTR	66	144	2
NMSTR	66	240	6
NMSTR	66	288	5
NMSCL	66	288	5	96	96	1
NMSTR	66	336	0
NMSTR	67	0	1
NMSCL	67	0	1	96	96	5
NMSTR	67	96	5
NMSTR	67	192	1
NMSTR	67	288	0
NMSTR	67	288	4
NMSTR	68	0	1
NMSTR	68	0	7
NMSTR	68	48	2
NMSTR	68	72	3
NMSTR	68	96	1
NMSTR	68	144	5
NMSTR	68	168	4
NMSTR	68	192	6
NMSTR	68	240	0
NMSTR	68	264	7
NMSTR	68	288	1
NMSTR	68	336	2
NMSTR	68	336	6
NMSTR	69	48	0
NMSTR	69	48	4
NMSTR	69	96	1
NMSI_	69	96	1	96	48	4
NMSTR	69	96	5
NMSI_	69	96	5	96	48	0
NMSTR	69	192	1
NMSTR	69	192	5
NMSTR	69	288	2
NMSTR	69	288	6
NMSTR	69	336	1
NMSTR	69	336	5
NMSTR	70	0	0
NMSTR	70	0	4
NMSTR	70	48	5
NMSTR	70	72	4
NMSTR	70	96	6
NMSTR	70	144	2
NMSTR	70	168	3
NMSTR	70	192	1
NMSTR	70	240	7
NMSTR	70	264	0
NMSTR	70	288	6
NMSTR	70	336	1
NMSTR	70	336	5
NMSTR	71	48	0
NMSI_	71	48	0	96	48	3
NMSTR	71	48	4
NMSI_	71	48	4	96	48	7
NMSTR	71	96	1
NMSTR	71	96	5
NMSTR	71	144	0
NMSTR	71	144	4
EXSTR	71	240	7
NMSTR	71	264	6
NMSTR	71	288	5
NMSTR	71	312	4
NMSTR	71	336	2
NMSTR	71	360	1
NMSTR	72	0	0
NMSTR	72	0	7
NMSTR	72	48	6
NMSTR	72	72	7
NMSTR	72	96	5
NMSTR	72	120	0
NMSTR	72	144	4
NMSTR	72	168	1
NMSTR	72	192	3
NMSTR	72	240	0
NMSTR	72	240	1
NMSTR	72	288	2
NMSTR	72	288	7
NMSTR	72	336	3
NMSTR	72	336	6
NMSTR	73	48	0
NMSTR	73	48	6
NMSTR	73	96	3
NMSTR	73	96	4
NMSTR	73	144	1
NMSTR	73	144	7
NMSTR	73	240	6
NMSTR	73	256	5
NMSTR	73	272	4
BRSTR	73	288	0
NMSTR	73	288	3
NMSTR	74	0	2
NMSTR	74	32	2
NMSTR	74	64	4
NMSTR	74	96	6
NMSTR	74	128	6
NMSTR	74	160	4
NMSTR	74	192	2
NMSTR	74	224	2
NMSTR	74	256	0
NMSTR	74	288	6
NMSTR	74	320	6
NMSTR	74	352	0
NMSTR	75	0	2
NMSTR	75	32	4
NMSTR	75	64	6
NMSTR	75	96	2
NMSTR	75	128	0
NMSTR	75	160	6
NMSTR	75	192	1
NMSTR	75	224	7
NMSTR	75	256	5
NMSTR	75	288	1
NMSTR	75	320	3
NMSTR	75	352	5
BRSTR	76	0	0
NMSCR	76	0	0	96	576	7
EXSTR	78	0	0
NMSTR	78	96	1
NMSTR	78	96	2
NMSTR	78	192	6
NMSTR	78	192	7
NMSTR	78	288	5
NMSTR	78	336	1
NMSTR	78	336	6
NMSTR	79	48	2
NMSTR	79	72	3
NMSTR	79	96	4
NMSTR	79	144	1
NMSTR	79	192	0
NMSTR	79	240	7
NMSTR	79	288	6
NMSTR	79	336	5
NMSTR	80	48	2
NMSTR	80	96	1
NMSTR	80	96	6
NMSTR	80	240	7
NMSTR	80	288	6
NMSTR	80	336	5
NMSTR	81	0	1
NMSTR	81	48	2
NMSTR	81	96	3
NMSTR	81	144	1
NMSTR	81	144	6
NMSTR	81	240	4
NMSTR	81	240	5
NMSTR	81	288	1
NMSTR	81	312	0
NMSTR	81	336	7
NMSTR	81	360	6
NMSTR	82	96	2
NMSTR	82	96	3
NMSTR	82	192	4
NMSTR	82	192	5
NMSTR	82	288	0
NMSTR	82	336	2
NMSTR	83	48	7
NMSTR	83	96	6
NMSTR	83	144	5
NMSTR	83	240	0
NMSTR	83	240	1
NMSTR	83	336	6
NMSTR	83	336	7
NMSTR	84	48	2
NMSTR	84	48	3
NMSTR	84	96	6
NMSTR	84	120	5
NMSTR	84	144	4
NMSTR	84	288	1
NMSTR	85	0	0
NMSTR	85	96	7
NMSTR	85	192	6
NMSTR	85	288	5
NMSTR	86	0	3
NMSTR	86	96	3
NMSCL	86	96	3	96	144	6
NMSTR	86	192	1
NMSTR	86	192	2
NMSTR	86	336	4
NMSTR	87	48	4
NMSTR	87	96	4
NMSCR	87	96	4	96	144	1
NMSTR	87	192	5
NMSTR	87	192	6
NMSTR	88	0	3
NMSTR	88	96	3
NMSCL	88	96	3	96	144	6
NMSTR	88	192	1
NMSTR	88	192	2
NMSTR	88	336	4
NMSTR	89	48	4
NMSTR	89	96	4
NMSTR	89	192	3
NMSTR	89	192	4
NMSTR	89	288	2
NMSTR	89	288	5
NMSTR	90	0	0
NMSTR	90	0	1
NMSTR	90	48	6
NMSTR	90	72	5
NMSTR	90	96	4
NMSTR	90	144	1
NMSTR	90	144	2
NMSTR	90	192	0
NMSTR	90	216	7
NMSTR	90	240	6
NMSTR	90	288	4
NMSTR	90	288	5
NMSTR	90	336	2
NMSTR	90	336	3
NMSTR	91	192	0
NMSTR	91	192	7
NMSTR	91	216	6
NMSTR	91	240	5
NMSTR	91	264	4
NMSTR	91	288	3
NMSTR	91	312	2
NMSTR	91	336	1
NMSTR	91	360	0
EXSTR	92	0	2
NMSTR	92	0	7
NMSTR	92	48	1
NMSTR	92	72	0
NMSTR	92	96	1
NMSTR	92	144	0
EXSTR	92	144	5
NMSTR	92	192	6
NMSTR	92	216	7
NMSTR	92	240	5
NMSTR	92	288	0
NMSTR	92	288	4
NMSTR	92	336	2
NMSTR	92	336	6
NMSTR	93	72	1
NMSTR	93	72	7
NMSTR	93	144	2
NMSTR	93	144	3
NMSTR	93	192	2
NMSTR	93	192	4
NMSTR	93	264	4
NMSTR	93	264	6
NMSTR	93	336	0
NMSTR	93	336	7
NMSTR	94	0	1
NMSTR	94	0	7
NMSTR	94	48	1
NMSTR	94	96	2
NMSTR	94	144	2
NMSTR	94	192	3
NMSTR	94	240	3
NMSTR	94	288	4
NMSTR	94	336	4
NMSTR	95	0	5
NMSTR	95	48	5
NMSTR	95	96	6
NMSTR	95	144	6
NMSTR	95	192	7
NMSTR	95	240	7
NMSTR	95	288	0
NMSTR	95	336	0
NMSTR	96	0	1
NMSTR	96	0	7
NMSTR	96	48	6
NMSTR	96	72	7
NMSTR	96	96	6
NMSTR	96	120	7
NMSTR	96	144	6
NMSTR	96	168	7
NMSTR	96	192	5
NMSTR	96	216	7
NMSTR	96	240	5
NMSTR	96	264	7
NMSTR	96	288	4
NMSTR	96	312	7
NMSTR	96	336	4
NMSTR	96	360	7
NMSTR	97	0	4
NMSTR	97	24	3
NMSTR	97	48	2
NMSTR	97	72	1
NMSTR	97	96	0
NMSTR	97	120	7
NMSTR	97	144	6
NMSTR	97	168	5
NMSTR	97	192	3
NMSTR	97	192	4
BRSTR	98	0	1
BRSTR	98	0	5
NMSTR	100	336	0
NMSTR	101	48	0
NMSTR	101	48	7
NMSTR	101	96	1
NMSTR	101	96	6
NMSTR	101	144	2
NMSTR	101	144	5
BRSTR	101	288	0
NMSTR	101	288	5
NMSTR	102	0	1
NMSI_	102	0	1	96	48	4
NMSTR	102	48	7
NMSI_	102	48	7	96	48	3
NMSTR	102	96	1
NMSTR	102	144	7
NMSTR	102	240	0
NMSTR	102	240	1
NMSTR	102	288	2
NMSTR	102	288	7
NMSTR	103	0	6
NMSTR	103	64	6
NMSTR	103	64	7
NMSTR	103	96	5
NMSTR	103	160	0
NMSTR	103	160	5
NMSTR	103	192	6
NMSTR	103	224	4
NMSTR	103	256	5
NMSTR	103	288	1
NMSTR	103	320	3
NMSTR	103	352	2
NMSTR	104	0	6
NMSI_	104	0	6	96	48	3
NMSTR	104	48	3
NMSI_	104	48	3	96	24	1
NMSTR	104	96	6
NMSTR	104	144	0
NMSI_	104	144	0	96	48	4
NMSTR	104	240	0
NMSTR	104	240	5
NMSTR	104	288	6
NMSTR	104	336	6
NMSI_	104	336	6	96	48	2
NMSTR	105	0	3
NMSI_	105	0	3	96	48	0
NMSTR	105	48	6
NMSTR	105	96	3
NMSTR	105	144	7
EXSTR	105	192	0
EXSTR	105	192	6
NMSTR	105	240	4
NMSTR	105	240	5
NMSTR	105	288	1
NMSTR	105	288	7
NMSTR	106	0	0
NMSTR	106	0	6
NMSTR	106	48	5
NMSTR	106	72	4
NMSTR	106	96	6
NMSTR	106	144	2
NMSTR	106	168	3
NMSTR	106	192	1
NMSTR	106	240	7
NMSTR	106	264	0
NMSTR	106	288	6
NMSTR	106	336	1
NMSTR	106	336	5
NMSTR	107	48	0
NMSI_	107	48	0	96	48	3
NMSTR	107	48	4
NMSI_	107	48	4	96	48	7
NMSTR	107	144	0
NMSTR	107	144	4
EXSTR	107	240	7
NMSTR	107	264	6
NMSTR	107	288	5
NMSTR	107	312	4
NMSTR	107	336	2
NMSTR	107	360	1
NMSTR	108	0	0
NMSTR	108	0	7
NMSTR	108	48	5
NMSTR	108	72	4
NMSTR	108	96	6
NMSTR	108	144	2
NMSTR	108	168	3
NMSTR	108	192	1
NMSTR	108	240	6
NMSTR	108	264	7
NMSTR	108	288	5
NMSTR	108	336	1
NMSTR	108	360	0
NMSTR	109	0	2
NMSTR	109	48	3
NMSI_	109	48	3	96	48	0
NMSTR	109	48	7
NMSI_	109	48	7	96	48	4
NMSTR	109	96	0
NMSTR	109	96	4
NMSTR	109	144	3
NMSTR	109	144	7
EXSTR	109	240	0
NMSTR	109	264	1
NMSTR	109	288	2
NMSTR	109	312	3
NMSTR	109	336	5
NMSTR	109	360	6
NMSTR	110	0	0
NMSTR	110	0	7
NMSTR	110	48	1
NMSTR	110	72	0
NMSTR	110	96	2
NMSTR	110	144	3
NMSTR	110	144	7
NMSTR	110	240	6
NMSTR	110	264	7
NMSTR	110	288	5
NMSTR	110	312	0
NMSTR	110	336	1
NMSTR	110	336	4
NMSTR	111	48	0
NMSTR	111	48	1
BRSTR	111	96	2
BRSTR	111	96	7
NMSTR	111	240	1
NMSTR	111	264	3
NMSTR	111	288	2
NMSTR	111	312	3
NMSTR	111	336	2
NMSTR	112	0	1
NMSTR	112	0	4
NMSTR	112	48	5
NMSTR	112	72	4
NMSTR	112	96	6
NMSTR	112	144	3
NMSTR	112	144	7
NMSTR	112	240	1
NMSTR	112	264	0
NMSTR	112	288	2
NMSTR	112	312	7
NMSTR	112	336	3
NMSTR	112	336	6
NMSTR	113	48	0
NMSTR	113	48	6
BRSTR	113	96	1
BRSTR	113	96	5
NMSTR	113	240	3
NMSTR	113	288	2
NMSTR	113	336	1
NMSTR	114	0	7
NMSTR	114	48	6
NMSTR	114	96	5
NMSTR	114	144	0
NMSTR	114	192	1
NMSTR	114	240	2
NMSTR	114	288	6
NMSTR	114	336	5
NMSTR	115	0	2
NMSTR	115	48	3
NMSTR	115	96	6
NMSTR	115	144	7
NMSTR	115	192	0
NMSTR	115	240	3
NMSTR	115	288	4
NMSTR	115	336	5
NMSTR	116	0	1
NMSTR	116	24	0
NMSTR	116	48	1
NMSTR	116	72	0
NMSTR	116	96	2
NMSTR	116	120	7
NMSTR	116	144	2
NMSTR	116	168	7
NMSTR	116	192	3
NMSTR	116	216	4
NMSTR	116	240	3
NMSTR	116	264	4
NMSTR	116	288	2
NMSTR	116	312	5
NMSTR	116	336	2
NMSTR	116	360	5
NMSTR	117	0	7
NMSTR	117	24	6
NMSTR	117	48	7
NMSTR	117	72	6
NMSTR	117	96	0
NMSTR	117	120	5
NMSTR	117	144	0
NMSTR	117	168	5
NMSTR	117	192	3
NMSTR	117	216	4
NMSTR	117	240	3
NMSTR	117	264	4
NMSTR	117	288	2
NMSTR	117	312	5
NMSTR	117	336	2
NMSTR	117	360	5
NMSTR	118	0	0
NMSTR	118	16	1
NMSTR	118	32	2
NMSTR	118	48	4
NMSTR	118	96	4
NMSTR	118	144	7
NMSTR	118	160	0
NMSTR	118	176	1
NMSTR	118	192	3
NMSTR	118	240	3
NMSTR	118	288	6
NMSTR	118	304	7
NMSTR	118	320	0
NMSTR	118	336	4
NMSTR	119	0	2
NMSTR	119	24	3
NMSTR	119	48	2
NMSTR	119	72	3
NMSTR	119	96	1
NMSTR	119	120	4
NMSTR	119	144	1
NMSTR	119	168	4
NMSTR	119	192	0
NMSTR	119	204	1
NMSTR	119	216	2
NMSTR	119	228	3
NMSTR	119	240	4
NMSTR	119	252	5
NMSTR	119	264	6
NMSTR	119	276	7
NMSTR	119	288	0
NMSTR	119	300	1
NMSTR	119	312	2
NMSTR	119	324	3
NMSTR	119	336	4
NMSTR	119	348	5
NMSTR	119	360	6
NMSTR	119	372	7
BRSTR	120	0	0
NMSI_	120	0	0	96	48	4
BRSTR	120	0	4
NMSTR	120	96	0
NMSTR	120	96	7
NMSI_	120	96	7	96	48	2
NMSTR	120	192	1
NMSV_	120	192	1	96	48	4
NMSTR	120	192	7
NMSV_	120	192	7	96	48	4
EXSTR	120	288	1
EXSTR	120	288	7
NMSTR	121	0	2
NMSTR	121	0	6
NMSTR	121	64	5
NMSTR	121	96	3
NMSTR	121	128	1
NMSTR	121	160	5
NMSTR	121	192	7
NMSTR	121	256	2
NMSTR	121	288	4
NMSTR	121	320	6
NMSTR	121	352	2
NMSTR	122	0	0
NMSTR	122	64	0
NMSTR	122	64	6
NMSTR	122	128	4
NMSTR	122	128	6
NMSTR	122	192	2
NMSTR	122	192	4
NMSTR	122	256	2
NMSTR	122	256	6
NMSTR	122	320	0
NMSTR	122	320	6
NMSTR	123	0	0
NMSTR	123	0	2
NMSTR	123	64	2
NMSTR	123	64	4
NMSTR	123	128	4
NMSTR	123	128	7
NMSTR	123	192	0
NMSTR	123	192	4
NMSTR	123	256	1
NMSTR	123	256	5
NMSTR	123	320	2
NMSTR	123	320	6
NMSTR	124	0	3
NMSTR	124	0	7
NMSI_	124	0	7	96	48	3
NMSTR	124	96	0
NMSI_	124	96	0	96	48	5
NMSTR	124	96	7
NMSTR	124	192	0
NMSV_	124	192	0	96	48	3
NMSTR	124	192	6
NMSV_	124	192	6	96	48	3
EXSTR	124	288	0
EXSTR	124	288	6
NMSTR	125	0	1
NMSTR	125	0	5
NMSTR	125	64	2
NMSTR	125	96	4
NMSTR	125	128	6
NMSTR	125	160	2
NMSTR	125	192	0
NMSTR	125	256	5
NMSTR	125	288	3
NMSTR	125	320	1
NMSTR	125	352	5
NMSTR	126	0	7
NMSTR	126	64	2
NMSTR	126	96	4
NMSTR	126	128	6
NMSTR	126	160	2
NMSTR	126	192	0
NMSTR	126	224	6
NMSTR	126	256	1
NMSTR	126	288	7
NMSTR	126	320	5
NMSTR	126	352	1
NMSTR	127	0	3
NMSTR	127	32	5
NMSTR	127	64	7
NMSTR	127	96	3
NMSTR	127	128	1
NMSTR	127	160	7
NMSTR	127	192	4
NMSTR	127	224	6
NMSTR	127	256	0
NMSTR	127	288	4
NMSTR	127	320	2
NMSTR	127	352	0
BRSTR	128	0	4
NMSTR	128	64	1
NMSTR	128	64	6
NMSTR	128	128	3
NMSTR	128	192	6
NMSTR	128	256	5
NMSTR	128	320	4
NMSTR	129	0	1
NMSTR	129	64	2
NMSTR	129	128	3
NMSTR	129	192	6
NMSTR	129	256	7
NMSTR	129	320	0
NMSTR	130	0	2
NMSTR	130	32	3
NMSTR	130	64	4
NMSTR	130	96	6
NMSTR	130	128	5
NMSTR	130	160	4
NMSTR	130	192	1
NMSTR	130	224	2
NMSTR	130	256	3
NMSTR	130	288	7
NMSTR	130	320	6
NMSTR	130	352	5
NMSTR	131	0	0
NMSTR	131	32	1
NMSTR	131	64	2
NMSTR	131	96	6
NMSTR	131	128	5
NMSTR	131	160	4
NMSTR	131	192	1
NMSTR	131	224	2
NMSTR	131	256	3
NMSTR	131	288	5
NMSTR	131	320	4
NMSTR	131	352	3
NMSTR	132	0	2
NMSTR	132	0	5
NMSTR	132	16	6
NMSTR	132	32	7

T_REC_TAP	0
T_REC_BRK	0
T_REC_XTP	0
T_REC_BXX	0
T_REC_HLD	0
T_REC_XHO	0
T_REC_BHO	0
T_REC_BXH	0
T_REC_STR	1109
T_REC_BST	25
T_REC_XST	18
T_REC_XBS	1
T_REC_TTP	0
T_REC_THO	0
T_REC_SLD	69
T_REC_BSL	0
T_REC_ALL	1222
T_NUM_TAP	1127
T_NUM_BRK	26
T_NUM_HLD	0
T_NUM_SLD	69
T_NUM_ALL	1222
T_JUDGE_TAP	1153
T_JUDGE_HLD	0
T_JUDGE_SLD	69
T_JUDGE_ALL	1222
TTM_EACHPAIRS	216
TTM_SCR_TAP	563500
TTM_SCR_BRK	67600
TTM_SCR_HLD	0
TTM_SCR_SLD	103500
TTM_SCR_ALL	734600
TTM_SCR_S	710050
TTM_SCR_SS	732000
TTM_RAT_ACV	10035

