VERSION	0.00.00	1.05.00
FES_MODE	1
BPM_DEF	125.000	125.000	125.000	125.000
MET_DEF	4	4
RESOLUTION	384
CLK_DEF	384
COMPATIBLE_CODE	MA2

BPM	0	0	125.000
MET	0	0	4	4

NMSTR	1	0	7
NMSTR	1	1	1
NMSI_	1	1	1	96	47	4
NMSTR	1	48	0
NMSTR	1	96	0
EXSTR	1	192	6
EXSTR	1	264	5
EXSTR	1	336	4
NMSI_	1	336	4	96	48	0
NMSTR	2	48	3
NMSTR	2	96	3
NMSTR	2	191	1
NMSCR	2	191	1	96	48	4
NMSTR	2	192	7
NMSCL	2	192	7	96	48	4
NMSTR	3	0	0
NMSCL	3	0	0	96	48	5
NMSCR	3	1	0	96	47	3
EXSTR	3	192	4
EXSTR	3	264	5
EXSTR	3	336	6
NMSI_	3	336	6	96	48	0
NMSTR	4	48	2
NMSI_	4	48	2	96	48	6
NMSTR	4	144	4
NMSI_	4	144	4	96	48	2
NMSTR	4	240	1
NMSTR	4	288	1
NMSTR	5	0	0
NMSI_	5	0	6	96	48	3
NMSTR	5	1	6
NMSTR	5	48	7
NMSTR	5	96	7
EXSTR	5	192	1
EXSTR	5	264	2
NMSTR	5	336	3
NMSI_	5	336	3	96	48	7
NMSTR	6	48	4
NMSTR	6	96	4
NMSTR	6	192	6
NMSCL	6	192	6	96	48	3
NMSTR	6	193	0
NMSCR	6	193	0	96	47	3
NMSTR	7	0	7
NMSTR	7	72	6
NMSTR	7	144	5
NMSTR	7	192	0
NMSTR	7	264	1
NMSTR	7	336	2
NMSCR	7	336	2	96	48	5
NMSTR	8	48	6
NMSTR	8	96	7
NMSTR	8	144	0
NMSTR	8	192	6
NMSTR	8	193	1
NMSTR	9	0	5
NMSUR	9	0	5	96	96	3
NMSTR	9	1	3
NMSTR	9	96	2
NMSTR	9	240	0
NMSTR	9	312	3
NMSTR	9	313	1
NMSUL	10	0	2	96	96	4
NMSTR	10	0	4
NMSTR	10	1	2
NMSTR	10	96	5
NMSTR	10	240	7
NMSTR	10	312	4
NMSTR	10	313	6
NMSTR	11	0	3
NMSTR	11	1	5
NMSUR	11	1	5	96	95	3
NMSTR	11	96	2
NMSTR	11	240	0
NMSTR	11	312	1
NMSTR	11	313	3
NMSTR	12	0	6
NMSTR	12	1	4
NMSTR	12	72	5
NMSTR	12	73	2
NMSTR	12	144	4
NMSTR	12	145	3
NMSTR	12	192	0
NMSI_	12	192	0	96	48	3
NMSTR	12	193	7
NMSI_	12	193	7	96	47	4
NMSTR	13	0	5
NMSTR	13	1	1
NMSTR	13	48	4
NMSTR	13	96	3
NMSTR	13	97	2
NMSTR	13	144	1
NMSTR	13	192	4
NMSTR	13	193	0
NMSTR	13	240	5
NMSTR	13	288	6
NMSTR	13	289	2
NMSTR	13	336	3
NMSTR	14	0	5
NMSTR	14	1	4
NMSTR	14	48	6
NMSTR	14	96	3
NMSTR	14	97	7
NMSTR	14	144	2
NMSTR	14	192	1
NMSTR	14	193	5
NMSTR	14	240	4
NMSTR	14	288	2
NMSTR	14	289	3
NMSTR	14	336	1
EXSTR	15	0	4
EXSTR	15	1	0
EXSTR	15	48	5
NMSTR	15	96	6
EXSTR	15	97	2
EXSTR	15	144	3
NMSTR	15	192	5
NMSTR	15	193	4
NMSTR	15	240	6
NMSTR	15	288	7
NMSTR	15	289	3
NMSTR	15	336	7
NMSTR	15	337	3
NMSTR	16	48	0
NMSTR	16	96	1
NMSTR	16	97	6
NMSTR	16	144	2
NMSTR	16	145	5
NMSTR	16	192	3
NMSI_	16	192	3	96	48	0
NMSTR	16	193	4
NMSI_	16	193	4	96	47	7
NMSTR	17	0	1
NMSCR	17	0	1	96	192	6
NMSTR	17	1	6
NMTTP	17	96	0	C	0	M1
NMSTR	17	192	6
NMSUR	17	192	6	96	192	0
NMTTP	17	288	0	C	0	M1
NMSTR	18	0	0
NMSCR	18	0	0	96	192	5
NMTTP	18	96	0	C	0	M1
NMSTR	18	192	5
NMSUR	18	192	5	96	192	7
NMTTP	18	288	0	C	0	M1
NMSTR	19	0	7
NMSCR	19	0	7	96	192	4
NMTTP	19	96	0	C	0	M1
NMSTR	19	192	4
NMSUR	19	192	4	96	192	6
NMTTP	19	288	0	C	0	M1
NMSTR	20	0	6
NMSCR	20	0	6	96	96	1
NMTTP	20	96	0	C	0	M1
NMSTR	20	192	3
NMSTR	20	240	4
NMSTR	20	288	6
NMSTR	20	290	1
NMSI_	21	0	3	96	48	7
NMSTR	21	0	4
NMSTR	21	1	3
NMSTR	21	48	4
NMSTR	21	96	4
NMSTR	21	144	4
NMSTR	21	192	5
NMSTR	21	194	0
NMSI_	21	194	0	96	46	4
NMSTR	21	240	5
NMSTR	21	288	5
NMSTR	21	336	5
NMSTR	22	0	6
NMSTR	22	48	6
NMSTR	22	49	2
NMSTR	22	96	6
NMSTR	22	97	3
NMSTR	22	144	6
NMSTR	22	145	4
EXSTR	22	192	7
NMSTR	22	194	5
NMSCL	22	194	5	96	46	2
EXSTR	22	240	7
EXSTR	22	288	7
EXSTR	22	336	7
NMSTR	23	0	0
NMSTR	23	48	0
NMSTR	23	50	5
NMSTR	23	96	0
NMSTR	23	98	4
NMSTR	23	144	0
NMSTR	23	146	3
NMSTR	23	192	1
NMSTR	23	194	2
NMSCR	23	194	2	96	46	5
NMSTR	23	240	1
NMSTR	23	288	1
NMSTR	23	336	1
NMSTR	24	0	2
NMSI_	24	0	7	96	48	3
NMSTR	24	1	7
NMSTR	24	48	2
NMSTR	24	96	2
NMSTR	24	144	2
EXSTR	24	192	3
NMSTR	24	193	4
NMSCR	24	193	4	96	47	7
EXSTR	24	288	4
NMSTR	24	289	0
NMSCR	24	289	0	96	47	3
EXSTR	25	0	0
NMTHO	25	1	0	335	C	1	M1
NMSTR	26	48	3
NMSTR	26	50	1
NMSTR	26	96	4
NMSCR	26	96	4	96	144	3
NMSTR	26	97	2
NMSTR	26	144	5
NMSTR	26	145	3
EXSTR	26	192	4
NMSTR	26	193	6
NMSTR	27	0	1
NMSTR	27	1	6
NMSI_	27	1	6	96	47	4
NMSTR	27	48	3
NMSTR	27	96	6
NMSTR	27	98	2
NMSI_	27	98	2	96	46	5
NMSTR	27	144	1
NMSTR	27	192	2
NMSTR	27	193	7
NMSI_	27	193	7	96	47	3
NMSTR	27	240	6
NMSTR	27	288	7
NMSTR	27	289	1
NMSI_	27	289	1	96	47	4
NMSTR	27	336	0
NMSTR	28	0	1
NMSTR	28	1	6
NMSI_	28	1	6	96	47	2
NMSTR	28	48	7
NMSTR	28	96	6
NMSTR	28	97	0
NMSI_	28	97	0	96	47	3
EXSTR	28	144	1
NMSTR	28	192	0
NMSTR	28	193	5
NMSCL	28	193	5	96	47	2
NMSTR	28	240	6
NMSTR	28	288	0
NMSTR	28	289	5
EXSTR	28	336	0
NMSTR	29	48	3
NMSCL	29	48	3	96	48	0
NMSTR	29	96	4
EXSTR	29	144	6
NMSTR	29	240	4
NMSCR	29	240	4	96	48	7
NMSTR	29	288	3
EXSTR	29	336	2
NMSTR	30	48	3
NMSTR	30	96	1
NMSTR	30	97	4
NMSTR	30	144	6
NMSTR	30	145	3
EXSTR	30	192	7
NMSCL	30	192	7	96	48	4
EXSTR	30	193	0
NMSCR	30	193	0	96	47	3
NMSTR	31	0	1
NMSTR	31	1	6
NMSI_	31	1	6	96	47	2
NMSTR	31	48	7
NMSTR	31	96	6
NMSTR	31	98	0
NMSI_	31	98	0	96	46	3
NMSTR	31	144	1
NMSTR	31	192	0
NMSTR	31	193	5
NMSCL	31	193	5	96	47	2
NMSTR	31	240	6
NMSTR	31	288	0
NMSTR	31	289	5
NMSTR	31	336	1
NMSTR	32	0	2
NMSTR	32	1	3
NMSTR	32	48	6
NMSTR	32	96	5
NMSTR	32	97	4
NMSTR	32	144	1
NMSI_	32	144	1	96	48	5
NMSTR	32	192	0
NMSTR	32	240	7
NMSI_	32	240	7	96	48	4
NMSI_	32	241	7	96	47	2
NMSTR	32	288	6
EXSTR	32	336	7
NMSTR	33	48	1
NMSCR	33	48	1	96	48	4
NMSTR	33	49	5
NMSCR	33	49	5	96	47	0
NMSTR	33	96	4
NMSTR	33	97	0
EXSTR	33	144	1
EXSTR	33	145	5
NMSTR	33	240	6
NMSCL	33	240	6	96	48	3
NMSTR	33	241	2
NMSCL	33	241	2	96	47	7
NMSTR	33	288	7
NMSTR	33	289	3
EXSTR	33	336	6
EXSTR	33	337	2
NMSTR	34	48	5
NMSTR	34	49	1
NMSTR	34	96	7
NMSTR	34	97	2
NMSTR	34	144	5
NMSTR	34	145	0
EXSTR	34	192	3
NMSCL	34	192	3	96	48	0
EXSTR	34	193	7
NMSCL	34	193	7	96	47	4
EXSTR	35	0	2
NMTTP	35	96	2	B	0	M1
NMTTP	35	192	2	E	0	M1
NMTTP	35	240	3	E	0	M1
EXSTR	35	348	2
NMTTP	36	48	3	E	0	M1
NMTTP	36	96	2	E	0	M1
NMTTP	36	192	2	B	0	M1
NMSTR	36	240	1
NMSTR	36	288	1
NMSTR	36	289	3
EXSTR	37	0	5
NMTTP	37	96	5	B	0	M1
NMTTP	37	192	6	E	0	M1
NMTTP	37	240	5	E	0	M1
EXSTR	37	336	5
NMTTP	38	48	5	E	0	M1
NMTTP	38	96	6	E	0	M1
NMTTP	38	192	5	B	0	M1
NMSTR	38	240	6
NMSTR	38	288	6
NMSTR	38	289	4
EXSTR	39	0	3
NMTTP	39	96	4	E	0	M1
NMTTP	39	192	4	B	0	M1
NMTTP	39	240	3	B	0	M1
EXSTR	39	336	4
NMTTP	40	48	3	B	0	M1
NMTTP	40	96	4	B	0	M1
NMTTP	40	192	4	E	0	M1
NMSTR	40	240	5
NMSTR	40	241	2
NMSTR	40	288	5
NMSTR	40	289	2
NMSTR	41	0	2
NMSCR	41	0	2	96	48	5
NMSTR	41	144	6
NMSUL	41	144	6	96	48	1
NMSTR	41	288	0
NMSUL	41	288	0	96	336	7
NMTHO	42	336	0	432	C	0	M1
NMSTR	48	0	1
NMTTP	48	96	1	B	0	M1
NMSTR	48	192	2
NMTTP	48	288	2	B	0	M1
NMSTR	49	0	3
NMTTP	49	96	3	B	0	M1
NMSTR	49	192	4
NMTTP	49	288	4	B	0	M1
NMSTR	50	0	5
NMTTP	50	96	5	B	0	M1
NMSTR	50	192	6
NMTTP	50	288	6	B	0	M1
NMSTR	50	336	0
NMSTR	50	352	7
NMSTR	50	368	0
NMSTR	51	0	7
NMSTR	51	72	6
NMSTR	51	73	4
NMSTR	51	144	1
NMSTR	51	145	3
NMSTR	51	192	3
NMSCR	51	192	3	96	48	5
NMSTR	51	193	4
NMSCL	51	193	4	96	47	2
NMSTR	52	0	6
NMSTR	52	1	1
NMSI_	52	1	1	96	47	5
NMSTR	52	48	4
NMSTR	52	49	3
EXSTR	52	96	1
EXSTR	52	97	6
NMSI_	52	97	6	96	47	3
NMSTR	52	144	7
NMSI_	52	192	0	96	48	4
NMSTR	52	192	6
NMSTR	52	193	0
NMSTR	52	240	1
NMSTR	52	288	0
NMSTR	52	289	5
NMSI_	52	289	5	96	47	1
NMSTR	52	336	6
NMSI_	53	0	2	96	48	7
NMSTR	53	0	5
NMSTR	53	1	2
NMSTR	53	48	3
NMSTR	53	96	2
NMSTR	53	97	4
NMSI_	53	97	4	96	47	0
NMSTR	53	144	5
NMSTR	53	192	4
NMSTR	53	193	2
NMSCR	53	193	2	96	47	5
NMSTR	53	240	1
NMSTR	53	288	2
NMSTR	53	289	7
EXSTR	53	336	7
NMSTR	54	48	6
NMSI_	54	48	6	96	48	3
NMSTR	54	49	2
NMSI_	54	49	2	96	47	7
NMSTR	54	96	5
NMSTR	54	97	1
EXSTR	54	143	6
EXSTR	54	144	2
NMSTR	54	240	5
NMSI_	54	240	5	96	48	0
NMSTR	54	241	1
NMSI_	54	241	1	96	47	4
NMSTR	54	288	6
NMSTR	54	289	2
EXSTR	54	336	5
EXSTR	54	337	1
NMSTR	55	48	7
NMSCL	55	48	7	96	48	4
NMSTR	55	49	0
NMSCR	55	49	0	96	47	3
NMSTR	55	96	5
NMSTR	55	97	2
EXSTR	55	144	7
EXSTR	55	145	0
EXSTR	55	240	4
EXSTR	55	241	3
EXSTR	55	288	6
EXSTR	55	289	1
NMSTR	56	0	6
NMSI_	56	0	6	96	48	4
NMSTR	56	1	1
NMSTR	56	48	3
NMSI_	56	96	2	96	48	5
NMSTR	56	96	6
NMSTR	56	97	2
NMSTR	56	144	1
NMSTR	56	192	2
NMSTR	56	193	7
NMSI_	56	193	7	96	47	3
NMSTR	56	240	6
NMSI_	56	288	1	96	48	4
NMSTR	56	288	7
NMSTR	56	289	1
NMSTR	56	336	0
NMSTR	57	0	1
NMSTR	57	1	6
NMSI_	57	1	6	96	47	2
NMSTR	57	48	7
NMSI_	57	96	0	96	48	3
NMSTR	57	96	6
NMSTR	57	97	0
NMSTR	57	144	1
NMSTR	57	192	0
NMSTR	57	193	7
NMSTR	57	240	6
NMSXL	57	240	6	96	144	3
NMSTR	57	288	5
NMSTR	57	289	3
NMSTR	57	336	6
EXSTR	57	337	2
EXSTR	58	144	7
NMSTR	58	240	1
NMSXR	58	240	1	96	144	4
NMSTR	58	241	5
NMSTR	58	288	2
NMSTR	58	289	6
NMSTR	58	336	1
EXSTR	58	337	5
NMSTR	59	144	0
NMSTR	59	192	7
NMSI_	59	192	7	96	48	3
NMSTR	59	193	0
NMSI_	59	193	0	96	47	4
NMTTP	59	288	0	C	1	M1
NMSTR	60	0	1
NMSI_	60	0	1	96	48	4
NMSTR	60	1	6
NMSTR	60	48	0
NMSTR	60	96	6
NMSI_	60	96	6	96	48	3
EXSTR	60	144	7
NMSTR	60	192	1
NMSI_	60	192	1	96	48	4
NMSTR	60	240	0
NMSTR	60	288	6
NMSI_	60	288	6	96	48	3
NMSTR	60	336	7
NMSTR	61	0	1
NMSI_	61	0	1	96	48	4
NMSTR	61	48	0
NMSTR	61	96	6
NMSI_	61	96	6	96	48	3
NMSTR	61	144	7
NMSTR	61	192	2
NMSCL	61	192	2	96	96	5
NMSTR	61	240	2
NMSTR	61	288	4
EXSTR	61	336	4
NMSTR	62	48	3
NMSTR	62	96	3
NMSTR	62	97	4
NMSTR	62	144	2
NMSTR	62	168	1
NMSTR	62	169	3
NMSTR	62	216	6
NMSTR	62	240	7
NMSTR	62	241	5
NMSTR	62	288	1
NMSTR	62	312	0
NMSTR	62	313	2
NMSTR	62	360	5
NMSTR	63	0	6
NMSTR	63	1	4
NMSTR	63	48	2
NMSTR	63	71	3
NMSTR	63	72	1
NMSTR	63	84	4
NMSTR	63	96	5
NMSTR	63	108	6
NMSTR	63	120	7
NMSTR	63	132	0
NMSTR	63	144	1
NMSTR	63	156	2
NMSTR	63	168	3
NMSTR	63	180	4
NMSTR	63	192	0
NMSTR	63	208	7
NMSTR	63	224	0
NMSTR	63	240	7
NMSTR	63	256	0
NMSTR	63	272	7
NMSTR	63	288	0
NMSTR	63	304	7
NMSTR	63	320	0
NMSTR	63	336	7
NMSTR	63	352	0
NMSTR	63	368	7
NMSTR	64	0	1
NMSI_	64	0	1	96	48	4
NMSTR	64	1	6
NMSTR	64	48	5
NMSTR	64	95	1
NMSTR	64	96	6
NMSUL	64	96	6	96	48	2
NMSTR	64	144	7
NMSI_	64	192	1	96	48	4
NMSTR	64	192	6
NMSTR	64	193	1
NMSTR	64	240	0
NMSTR	64	287	1
NMSTR	64	288	7
NMSI_	64	288	7	96	48	3
NMSTR	64	336	5
NMSI_	65	0	1	96	48	4
NMSTR	65	0	7
NMSTR	65	1	1
NMSTR	65	48	0
NMSTR	65	95	1
NMSTR	65	96	6
NMSUL	65	96	6	96	48	2
NMSTR	65	144	7
NMSI_	65	192	1	96	48	4
NMSTR	65	192	6
NMSTR	65	193	1
NMSTR	65	240	0
NMSTR	65	287	1
NMSTR	65	288	7
NMSI_	65	288	7	96	48	3
NMSTR	65	336	5
NMSUR	66	0	1	96	48	5
NMSTR	66	0	7
NMSTR	66	1	1
NMSTR	66	48	0
NMSTR	66	96	1
NMSI_	66	96	6	96	48	3
NMSTR	66	97	6
NMSTR	66	144	7
NMSTR	66	191	6
NMSTR	66	192	0
NMSI_	66	192	0	96	48	4
NMSTR	66	240	2
NMSTR	66	288	0
NMSI_	66	288	6	96	48	3
NMSTR	66	289	6
NMSTR	66	336	7
NMSTR	66	383	6
NMSTR	67	0	1
NMSUR	67	0	1	96	48	5
NMSTR	67	48	0
NMSTR	67	96	1
NMSI_	67	96	6	96	48	3
NMSTR	67	97	6
NMSTR	67	144	7
NMSTR	67	191	6
NMSTR	67	192	0
NMSI_	67	192	0	96	48	4
NMSTR	67	240	2
EXSTR	67	288	0
EXSTR	67	289	4
NMSTR	68	0	2
EXSTR	68	1	6
NMSTR	68	96	4
EXSTR	68	97	6
NMSTR	68	144	5
EXSTR	68	145	1
NMSTR	68	240	2
EXSTR	68	241	1
NMSTR	68	288	1
NMSTR	68	336	2
EXSTR	68	337	6
NMSTR	69	48	5
EXSTR	69	49	6
NMSTR	69	96	6
NMSTR	69	144	4
EXSTR	69	145	2
NMSTR	69	240	3
EXSTR	69	241	2
NMSTR	69	288	2
NMSTR	69	336	3
EXSTR	69	337	5
NMSTR	70	48	4
EXSTR	70	49	5
NMSTR	70	96	5
NMSTR	70	144	4
EXSTR	70	145	2
NMSTR	70	240	3
EXSTR	70	241	2
NMSTR	70	288	2
NMSTR	70	336	3
EXSTR	70	337	4
NMTTP	71	48	3	B	0	M1
NMTTP	71	96	4	B	0	M1
BRSTR	71	144	0
NMTTP	71	145	0	C	1	M1

T_REC_TAP	0
T_REC_BRK	0
T_REC_XTP	0
T_REC_BXX	0
T_REC_HLD	0
T_REC_XHO	0
T_REC_BHO	0
T_REC_BXH	0
T_REC_STR	432
T_REC_BST	1
T_REC_XST	73
T_REC_XBS	0
T_REC_TTP	35
T_REC_THO	2
T_REC_SLD	109
T_REC_BSL	0
T_REC_ALL	652
T_NUM_TAP	540
T_NUM_BRK	1
T_NUM_HLD	2
T_NUM_SLD	109
T_NUM_ALL	652
T_JUDGE_TAP	541
T_JUDGE_HLD	16
T_JUDGE_SLD	109
T_JUDGE_ALL	666
TTM_EACHPAIRS	0
TTM_SCR_TAP	270000
TTM_SCR_BRK	2600
TTM_SCR_HLD	2000
TTM_SCR_SLD	163500
TTM_SCR_ALL	438100
TTM_SCR_S	424900
TTM_SCR_SS	438000
TTM_RAT_ACV	10002

