VERSION	0.00.00	1.04.00
FES_MODE	0
BPM_DEF	183.000	183.000	183.000	183.000
MET_DEF	4	4
RESOLUTION	384
CLK_DEF	384
COMPATIBLE_CODE	MA2

BPM	0	0	183.000
MET	0	0	4	4

NMHLD	2	0	6	768
NMTAP	2	96	4
NMTAP	2	288	4
NMSTR	3	96	4
NMSCL	3	96	4	96	96	2
NMHLD	4	0	1	912
NMTAP	4	96	3
NMTAP	4	288	3
NMSTR	5	96	3
NMSCL	5	96	3	96	96	7
EXTAP	6	144	7
EXTAP	6	240	2
EXTAP	6	240	6
EXHLD	6	312	3	72
EXSTR	6	312	5
BRSI_	6	312	5	96	48	3
CNSCL	7	72	3	0	168	7
EXTAP	8	96	6
EXTAP	8	128	7
EXTAP	8	160	6
EXTAP	8	192	7
EXTAP	8	256	0
EXTAP	8	256	5
EXTAP	8	304	1
EXTAP	8	304	4
EXTAP	8	368	2
EXTAP	9	16	3
BXTAP	9	64	1
BXTAP	9	96	1
BXHLD	9	128	1	112
EXTAP	9	240	7
EXTAP	9	288	7
EXTAP	10	0	3
EXSTR	10	0	5
NMSCR	10	0	5	96	48	0
NMSTR	10	96	2
NMSCL	10	96	2	96	48	7
NMSTR	10	192	4
NMSUR	10	192	4	96	48	0
NMSTR	10	288	3
NMSUL	10	288	3	96	48	7
NMSTR	11	0	5
NMSCR	11	0	5	96	48	0
NMSTR	11	96	2
NMSCL	11	96	2	96	48	7
NMTAP	11	192	4
NMTAP	11	240	4
NMTAP	11	288	1
NMTAP	11	288	3
NMSTR	12	0	5
NMSCR	12	0	5	96	48	0
NMSTR	12	96	2
NMSCL	12	96	2	96	48	7
NMSTR	12	192	4
NMSUR	12	192	4	96	48	0
NMTAP	12	288	3
NMTTP	13	0	2	B	0	M1
NMTTP	13	0	3	B	0	M1
NMTTP	13	0	3	E	0	M1
NMTAP	13	0	7
NMTAP	13	96	0
NMTTP	13	96	5	B	0	M1
NMTTP	13	96	5	E	0	M1
NMTTP	13	192	2	E	0	M1
NMSTR	13	192	7
NMSI_	13	192	7	96	48	3
EXTAP	13	288	0
NMHLD	14	0	1	96
NMHLD	14	0	5	96
NMTAP	14	144	2
NMTAP	14	144	6
NMTAP	14	192	2
NMTAP	14	192	6
NMTAP	14	288	3
NMTAP	14	288	5
NMHLD	15	0	2	96
NMHLD	15	0	6	96
NMTAP	15	144	1
NMTAP	15	144	5
NMTAP	15	192	1
NMTAP	15	192	5
NMTAP	15	288	2
NMTAP	15	288	4
NMHLD	16	0	0	96
NMHLD	16	0	6	96
NMTAP	16	144	1
NMTAP	16	144	7
NMHLD	16	192	1	96
NMHLD	16	192	7	96
NMTAP	16	336	2
NMTAP	16	336	6
NMHLD	17	0	2	96
NMHLD	17	0	6	96
NMTAP	17	144	1
NMTAP	17	144	5
NMTAP	17	192	1
NMTAP	17	192	5
NMTAP	17	288	2
NMTAP	17	288	4
NMHLD	18	0	2	96
NMHLD	18	0	3	96
NMHLD	18	192	4	96
NMHLD	18	192	5	96
NMHLD	19	0	2	48
NMHLD	19	0	4	48
NMHLD	19	96	3	48
NMHLD	19	96	5	48
NMTAP	19	192	2
NMTAP	19	192	4
NMHLD	19	288	1	384
NMTAP	19	288	5
NMTTP	20	0	2	B	0	M1
NMTTP	20	0	3	B	0	M1
NMTTP	20	96	0	B	0	M1
NMTTP	20	96	1	B	0	M1
NMTTP	20	192	6	B	0	M1
NMTTP	20	192	7	B	0	M1
NMTTP	20	288	4	B	0	M1
NMTTP	20	288	5	B	0	M1
NMTAP	21	0	2
NMTAP	21	0	3
NMTAP	21	48	2
NMTAP	21	48	3
NMSTR	21	96	2
NMSLR	21	96	2	96	96	0
NMSLR	21	96	2	96	96	6
NMTAP	21	96	3
NMHLD	22	0	2	96
NMHLD	22	0	6	96
NMTAP	22	144	3
NMTAP	22	192	3
NMTAP	22	240	5
NMTAP	22	288	5
NMHLD	22	336	1	96
NMHLD	22	336	3	96
NMTAP	23	144	0
NMTAP	23	192	0
NMTAP	23	240	4
NMSTR	23	288	2
NMSCL	23	288	2	96	48	0
NMSTR	24	0	6
NMSCL	24	0	6	96	48	4
NMSTR	24	96	2
NMSCL	24	96	2	96	48	0
NMSTR	24	192	6
NMSCL	24	192	6	96	48	4
NMSTR	24	288	2
NMSCR	24	288	2	96	48	4
NMSTR	25	0	6
NMSCR	25	0	6	96	48	0
NMSTR	25	96	2
NMSCR	25	96	2	96	48	4
NMSTR	25	192	6
NMSCR	25	192	6	96	48	0
NMTAP	25	288	2
NMHLD	26	0	4	96
NMTAP	26	0	5
NMTAP	26	96	2
NMHLD	26	144	2	192
NMTAP	26	240	1
NMHLD	26	336	0	192
NMTAP	27	48	7
NMHLD	27	144	6	144
NMTAP	27	240	4
NMTAP	27	288	4
NMTAP	28	0	5
NMTAP	28	48	5
NMTAP	28	96	4
NMTAP	28	144	1
NMTAP	28	144	3
NMTAP	28	240	4
NMTAP	28	240	6
NMSTR	28	336	1
BRSXR	28	336	1	96	144	6
NMSTR	28	336	2
BRSUR	28	336	2	96	144	5
NMTTP	29	192	6	D	1	M1
NMTAP	30	0	1
NMSTR	30	0	6
NMSCL	30	0	6	96	48	3
NMTTP	30	96	0	B	0	M1
NMTTP	30	96	7	B	0	M1
NMSTR	30	192	1
NMSCR	30	192	1	96	48	4
NMTAP	30	192	6
NMTTP	30	288	0	B	0	M1
NMTTP	30	288	7	B	0	M1
NMTAP	31	0	5
NMTAP	31	64	5
NMTAP	31	96	4
NMTAP	31	192	2
NMTAP	31	256	2
NMTAP	31	288	3
NMTAP	32	0	6
NMTAP	32	64	6
NMTAP	32	96	4
NMTAP	32	160	4
NMTAP	32	192	3
NMTAP	32	256	3
NMTAP	32	288	1
NMTAP	32	352	1
NMTAP	33	0	3
NMTAP	33	96	0
NMTAP	33	96	2
NMHLD	33	192	0	96
NMHLD	33	192	2	96
NMTAP	34	0	1
NMTAP	34	64	1
NMTAP	34	96	0
NMTAP	34	160	0
NMHLD	34	192	2	96
NMTAP	34	288	3
NMTAP	35	0	5
NMTAP	35	64	5
NMTAP	35	96	4
NMTAP	35	160	4
NMTAP	35	192	6
NMSTR	35	288	7
NMSI_	35	288	7	96	48	4
NMTAP	36	0	3
NMSTR	36	96	0
BRSI_	36	96	0	96	48	3
NMTAP	36	96	6
NMTAP	36	192	4
NMTAP	36	288	1
NMSTR	36	288	7
NMSCL	36	288	7	96	48	4
NMTAP	37	0	3
NMSTR	37	96	0
BRSCR	37	96	0	96	48	3
NMTAP	37	96	6
NMTAP	37	192	4
NMTAP	37	288	4
NMTAP	37	288	5
NMSTR	38	0	0
BRSUR	38	0	0	96	192	3
NMSTR	38	0	6
NMSXR	38	0	6	96	192	3
EXTAP	39	0	2
EXTAP	39	0	4
EXTAP	39	32	2
EXTAP	39	32	4
EXTAP	39	64	2
EXTAP	39	64	4
EXSTR	39	96	2
BRSCL	39	96	2	96	48	7
EXSTR	39	96	4
NMSV_	39	96	4	96	48	7
EXTAP	39	192	2
EXTAP	39	192	4
BRTAP	39	288	1
BRTAP	39	288	6
NMTAP	40	0	4
NMSTR	40	0	5
NMSCR	40	0	5	96	48	7
NMSTR	40	96	3
NMSUL	40	96	3	96	48	7
NMSTR	40	192	4
NMSI_	40	192	4	96	48	7
NMHLD	40	288	2	96
NMTAP	41	0	3
NMTAP	41	48	3
NMSTR	41	96	1
NMSUR	41	96	1	96	48	5
NMTAP	41	144	4
BRTAP	41	240	0
BRTAP	41	288	0
NMTAP	42	0	2
NMTAP	42	48	4
NMTAP	42	96	3
NMTAP	42	144	5
NMSTR	42	192	1
NMSI_	42	192	1	96	48	4
NMSTR	42	192	6
NMSI_	42	192	6	96	48	3
NMTAP	42	288	1
NMTAP	42	288	6
NMTAP	43	0	0
NMTAP	43	0	1
NMTAP	43	48	0
NMTAP	43	48	1
NMTAP	43	144	4
NMTAP	43	144	5
NMSTR	43	192	4
NMSCL	43	192	4	96	48	1
NMSTR	43	192	5
NMSCR	43	192	5	96	48	0
EXTAP	43	288	4
EXTAP	43	288	5
NMSTR	44	0	2
NMSCL	44	0	2	96	48	0
NMTAP	44	0	3
NMSTR	44	96	4
NMSUR	44	96	4	96	48	0
NMSTR	44	192	3
NMSI_	44	192	3	96	48	0
NMHLD	44	288	5	96
NMTAP	45	0	4
NMTAP	45	48	4
NMSTR	45	96	6
NMSUL	45	96	6	96	48	2
NMTAP	45	144	3
BRTAP	45	240	7
BRTAP	45	288	7
NMTAP	46	0	1
NMTAP	46	48	4
NMSTR	46	96	3
NMSXL	46	96	3	96	96	3
NMSXR	46	96	3	96	96	3
NMTAP	46	192	3
NMTAP	47	0	2
NMTAP	47	0	5
NMTTP	47	96	3	B	0	M1
NMTTP	47	96	3	E	0	M1
NMTAP	47	96	6
NMTAP	47	192	1
NMTTP	47	192	4	B	0	M1
NMTTP	47	192	5	E	0	M1
NMTTP	47	288	3	B	0	M1
NMTTP	47	288	3	E	0	M1
NMTAP	47	288	6
NMSTR	48	0	0
NMSI_	48	0	0	96	48	2
NMSTR	48	0	7
NMSI_	48	0	7	96	48	3
NMTAP	48	96	0
NMTAP	48	96	7
NMSTR	48	192	0
NMSI_	48	192	0	96	48	4
NMSTR	48	192	7
NMSI_	48	192	7	96	48	5
NMTAP	48	288	0
NMTAP	48	288	7
NMTAP	49	0	2
NMTAP	49	48	2
NMSTR	49	96	6
NMSUL	49	96	6	96	48	2
NMTAP	49	144	4
EXTAP	49	240	0
EXSTR	49	288	0
NMSCR	49	288	0	96	96	4
NMSTR	50	0	4
NMSUR	50	0	4	96	96	0
NMSTR	50	96	0
NMSCR	50	96	0	96	96	4
NMSTR	50	192	4
NMSUR	50	192	4	96	96	0
NMTAP	50	288	0
NMTAP	51	0	4
NMTAP	51	48	4
NMTAP	51	144	2
NMTAP	51	144	3
NMTAP	51	192	2
NMTAP	51	192	3
BRTAP	51	288	0
BRTAP	51	288	5
NMSTR	52	0	0
NMSI_	52	0	0	96	48	4
NMSTR	52	0	7
NMSI_	52	0	7	96	48	5
NMTAP	52	96	0
NMTAP	52	96	7
NMSTR	52	192	0
NMSI_	52	192	0	96	48	2
NMSTR	52	192	7
NMSI_	52	192	7	96	48	3
NMTAP	52	288	0
NMTAP	52	288	7
NMTAP	53	0	5
NMTAP	53	48	5
NMSTR	53	96	1
NMSUR	53	96	1	96	48	5
NMTAP	53	144	3
EXTAP	53	240	7
EXSTR	53	288	7
NMSCL	53	288	7	96	96	3
NMSTR	54	0	3
NMSUL	54	0	3	96	96	7
NMSTR	54	96	7
NMSCL	54	96	7	96	96	3
NMTAP	54	192	3
NMTAP	54	288	7
NMTAP	55	0	1
NMTAP	55	0	6
NMTAP	55	96	2
NMTAP	55	96	3
NMTAP	55	192	4
NMTAP	55	192	5
NMTAP	55	288	2
NMTAP	55	288	3
NMSTR	56	0	2
NMSXR	56	0	2	96	192	4
NMSTR	56	0	5
NMSXL	56	0	5	96	192	3
NMHLD	57	0	2	144
NMHLD	57	0	5	144
NMTTP	57	192	0	C	1	M1
NMTTP	57	192	2	E	0	M1
NMTTP	57	192	6	E	0	M1
NMSTR	58	0	3
BRSV_	58	0	3	96	96	2
BRSV_	58	0	3	96	96	4
NMTAP	58	0	4
CNSI_	58	192	2	0	96	0
CNSI_	58	192	4	0	96	6
EXTAP	59	0	0
EXTAP	59	0	6
NMTAP	59	96	1
NMTAP	59	144	2
NMTAP	59	192	3
NMTAP	59	240	4
NMTAP	59	288	3
NMTAP	59	336	2
NMTAP	60	0	0
NMTAP	60	0	1
NMTAP	60	48	7
NMTAP	60	96	6
NMTAP	60	144	5
NMTAP	60	192	3
NMTAP	60	192	4
NMTAP	60	240	2
NMTAP	60	264	3
NMHLD	60	288	2	96
NMTAP	61	0	3
NMTAP	61	48	4
NMTAP	61	96	5
NMTAP	61	144	3
NMTAP	61	192	2
NMTAP	61	192	5
NMTAP	61	240	4
NMTAP	61	264	3
NMTAP	61	288	4
NMTAP	61	312	3
NMTAP	61	336	4
NMTAP	61	360	3
NMSTR	62	0	5
NMSCR	62	0	5	96	48	0
NMSTR	62	96	2
NMSCL	62	96	2	96	48	7
NMSTR	62	192	4
NMSUR	62	192	4	96	48	1
NMSTR	62	288	3
NMSUL	62	288	3	96	48	6
NMSTR	63	0	5
NMSCR	63	0	5	96	48	0
NMSTR	63	96	2
NMSCL	63	96	2	96	48	7
NMTAP	63	192	4
NMTAP	63	240	4
NMTAP	63	288	1
NMTAP	63	288	3
NMSTR	64	0	5
NMSCR	64	0	5	96	48	0
NMSTR	64	96	2
NMSCL	64	96	2	96	48	7
NMSTR	64	192	4
NMSUR	64	192	4	96	48	1
NMSTR	64	288	3
NMSUL	64	288	3	96	48	6
NMTAP	65	0	5
NMTAP	65	48	5
NMSTR	65	96	2
BRSF_	65	96	2	96	96	6
NMTAP	65	96	4
EXTAP	65	192	2
NMTAP	66	0	3
NMTAP	66	0	4
BRTAP	66	96	0
BRTAP	66	96	7
NMTAP	66	192	2
NMTAP	66	192	4
NMTAP	66	240	1
NMTAP	66	264	3
NMSTR	66	288	1
BRSI_	66	288	1	96	48	4
NMTAP	66	336	5
NMTAP	67	0	6
NMTAP	67	48	6
NMTAP	67	96	3
NMTAP	67	144	3
NMTAP	67	168	4
NMTAP	67	240	3
NMTAP	67	240	6
NMTAP	67	288	3
NMTAP	67	288	6
NMTAP	68	0	4
NMTAP	68	24	5
NMTAP	68	48	4
NMTAP	68	72	5
NMTAP	68	96	3
NMTAP	68	120	6
NMTAP	68	144	3
NMTAP	68	168	6
NMTAP	68	192	2
NMTAP	68	216	7
NMTAP	68	240	2
NMTAP	68	264	7
NMSTR	68	288	1
BRSI_	68	288	1	96	48	5
NMSTR	69	0	0
BRSI_	69	0	0	96	48	4
NMSTR	69	96	1
BRSI_	69	96	1	96	48	5
NMSTR	69	192	0
BRSI_	69	192	0	96	48	4
BRTAP	69	288	1
NMTAP	70	0	2
NMHLD	70	0	3	96
NMTAP	70	96	4
NMTAP	70	144	4
NMHLD	70	192	4	96
NMTAP	70	288	5
NMTAP	70	336	5
NMHLD	71	0	6	48
NMHLD	71	48	5	48
NMHLD	71	96	4	48
NMHLD	71	144	3	48
NMTAP	71	192	2
NMTAP	71	288	1
NMTAP	71	288	4
NMTAP	72	0	2
NMTAP	72	24	3
NMTAP	72	48	2
NMTAP	72	72	5
NMTAP	72	96	4
NMTAP	72	120	5
NMTAP	72	144	2
NMTAP	72	168	3
NMTAP	72	192	2
NMSTR	72	288	4
BRSCL	72	288	4	96	96	7
NMSTR	72	288	5
BRSXL	72	288	5	96	96	7
NMHLD	73	192	3	96
NMHLD	73	192	4	96
NMTHO	74	0	0	1152	C	0	M1
NMSTR	74	0	7
NMSCL	74	0	7	96	1056	1
NMTAP	77	192	7
NMTAP	77	288	7
NMHLD	78	0	0	288
NMSTR	78	0	6
NMSSR	78	0	6	96	192	2
NMSTR	79	0	1
NMSSL	79	0	1	96	192	5
NMHLD	79	0	7	288
NMSTR	80	0	3
NMSXR	80	0	3	96	96	5
NMTAP	80	0	6
BRTAP	80	96	6
BRTAP	80	192	6
NMTAP	80	288	0
NMTAP	80	288	7
NMTAP	81	0	1
NMSTR	81	0	4
NMSXL	81	0	4	96	96	2
BRTAP	81	96	1
BRTAP	81	192	1
NMTAP	81	288	0
NMTAP	81	288	7
NMSTR	82	0	2
BRSXL	82	0	2	96	96	0
NMSTR	82	0	5
NMSXR	82	0	5	96	96	7
NMTAP	82	288	1
NMTAP	82	288	6
EXTAP	83	0	2
EXTAP	83	0	4
EXTAP	83	32	2
EXTAP	83	32	4
EXTAP	83	64	2
EXTAP	83	64	4
EXSTR	83	96	2
BRSXR	83	96	2	96	48	0
EXSTR	83	96	4
BRSXL	83	96	4	96	48	6
EXTAP	84	0	2
EXTAP	84	0	4
EXTAP	84	32	2
EXTAP	84	32	4
EXTAP	84	64	2
EXTAP	84	64	4
EXSTR	84	96	2
NMSCL	84	96	2	96	48	7
EXSTR	84	96	4
NMSV_	84	96	4	96	48	7
EXTAP	84	192	2
EXTAP	84	192	4
BRTAP	84	288	1
BRTAP	84	288	6
NMTAP	85	0	2
NMTAP	85	0	3
NMTAP	85	48	2
NMTAP	85	48	3
NMTAP	85	192	3
NMTAP	85	192	6
NMTAP	85	240	3
NMTAP	85	240	6
EXSTR	86	0	0
BRSCR	86	0	0	96	48	3
EXSTR	86	0	7
NMSCL	86	0	7	96	48	4
EXSTR	86	96	0
BRSI_	86	96	0	96	48	4
EXSTR	86	96	7
NMSI_	86	96	7	96	48	3
EXTAP	86	192	0
EXTAP	86	192	7
BRTAP	86	288	1
BRTAP	86	288	6
NMTAP	87	0	5
NMTAP	87	48	3
NMTAP	87	96	4
NMTAP	87	144	2
NMSTR	87	192	1
BRSV_	87	192	1	96	48	4
NMSTR	87	192	6
NMSV_	87	192	6	96	48	3
NMTAP	87	288	1
NMTAP	87	288	6
NMHLD	88	0	2	96
NMHLD	88	0	5	96
BRTAP	88	192	0
BRTAP	88	192	7
BRTAP	88	288	0
BRTAP	88	288	7
NMSTR	89	0	2
BRSCL	89	0	2	96	48	0
NMTAP	89	0	3
NMSTR	89	96	4
NMSUR	89	96	4	96	48	0
NMSTR	89	192	3
BRSI_	89	192	3	96	48	0
NMHLD	89	288	5	96
NMTAP	90	0	4
NMTAP	90	48	4
NMSTR	90	96	6
NMSLL	90	96	6	96	96	2
NMTAP	90	144	3
BRTAP	90	240	7
BRTAP	90	288	7
NMHLD	91	0	1	48
NMTAP	91	48	4
NMHLD	91	96	5	48
NMTAP	91	144	3
NMSTR	91	192	3
BRSXL	91	192	3	96	96	0
NMTAP	91	288	7
NMTAP	92	0	7
NMTTP	92	96	3	B	0	M1
NMTTP	92	96	3	E	0	M1
NMTAP	92	96	6
NMTAP	92	192	1
NMTTP	92	192	4	B	0	M1
NMTTP	92	192	5	E	0	M1
NMTTP	92	288	3	B	0	M1
NMTTP	92	288	3	E	0	M1
NMTAP	92	288	6
NMSTR	93	0	0
BRSI_	93	0	0	96	48	4
NMSTR	93	0	7
NMSCL	93	0	7	96	48	5
NMTAP	93	96	0
NMTAP	93	96	7
NMSTR	93	192	0
BRSCR	93	192	0	96	48	2
NMSTR	93	192	7
NMSI_	93	192	7	96	48	3
NMTAP	93	288	0
NMTAP	93	288	7
NMTAP	94	0	5
NMTAP	94	48	5
NMSTR	94	96	1
BRSLR	94	96	1	96	96	5
NMTAP	94	144	3
EXTAP	94	240	7
EXSTR	94	288	7
NMSCL	94	288	7	96	96	3
NMSTR	95	0	3
BRSCL	95	0	3	96	96	7
NMSTR	95	96	7
NMSCL	95	96	7	96	96	3
NMSTR	95	192	3
BRSCL	95	192	3	96	96	7
NMTAP	95	288	7
NMTAP	96	0	3
NMTAP	96	48	3
NMTAP	96	144	4
NMTAP	96	144	5
NMTAP	96	192	4
NMTAP	96	192	5
BRTAP	96	288	2
BRTAP	96	288	7
NMSTR	97	0	0
BRSCR	97	0	0	96	48	2
NMSTR	97	0	7
NMSI_	97	0	7	96	48	3
NMTAP	97	96	0
NMTAP	97	96	7
NMSTR	97	192	0
BRSI_	97	192	0	96	48	4
NMSTR	97	192	7
NMSCL	97	192	7	96	48	5
NMTAP	97	288	0
NMTAP	97	288	7
NMTAP	98	0	2
NMTAP	98	48	2
NMSTR	98	96	6
NMSLL	98	96	6	96	96	2
NMTAP	98	144	4
EXTAP	98	240	0
EXSTR	98	288	0
BRSCR	98	288	0	96	96	4
NMSTR	99	0	4
NMSCR	99	0	4	96	96	0
NMSTR	99	96	0
BRSCR	99	96	0	96	96	4
NMTAP	99	192	4
NMTAP	99	288	0
NMTAP	100	0	1
NMTAP	100	0	6
NMTAP	100	96	4
NMTAP	100	96	5
NMTAP	100	192	2
NMTAP	100	192	3
NMTAP	100	288	4
NMTAP	100	288	5
NMTAP	101	0	2
NMSTR	101	0	6
NMSSR	101	0	6	96	192	2
NMSTR	102	0	1
BRSCR	102	0	1	96	96	5

T_REC_TAP	306
T_REC_BRK	27
T_REC_XTP	50
T_REC_BXX	2
T_REC_HLD	52
T_REC_XHO	1
T_REC_BHO	0
T_REC_BXH	1
T_REC_STR	110
T_REC_BST	0
T_REC_XST	16
T_REC_XBS	0
T_REC_TTP	34
T_REC_THO	1
T_REC_SLD	93
T_REC_BSL	36
T_REC_ALL	729
T_NUM_TAP	516
T_NUM_BRK	66
T_NUM_HLD	54
T_NUM_SLD	93
T_NUM_ALL	729
T_JUDGE_TAP	545
T_JUDGE_HLD	175
T_JUDGE_SLD	129
T_JUDGE_ALL	849
TTM_EACHPAIRS	143
TTM_SCR_TAP	258000
TTM_SCR_BRK	171600
TTM_SCR_HLD	54000
TTM_SCR_SLD	139500
TTM_SCR_ALL	623100
TTM_SCR_S	598050
TTM_SCR_SS	616500
TTM_RAT_ACV	10107

