VERSION	0.00.00	1.04.00
FES_MODE	1
BPM_DEF	183.000	183.000	183.000	183.000
MET_DEF	4	4
RESOLUTION	384
CLK_DEF	384
COMPATIBLE_CODE	MA2

BPM	0	0	183.000
MET	0	0	4	4

NMTAP	2	0	2
NMTAP	2	0	5
NMTAP	2	96	3
NMSTR	2	96	4
NMSF_	2	96	4	96	96	0
NMSTR	3	0	1
NMSI_	3	0	1	96	48	3
NMHLD	3	0	6	288
CNSCR	3	144	3	0	48	4
CNSI_	3	192	4	0	96	0
EXTAP	4	48	0
EXTAP	4	48	7
EXTAP	4	120	1
EXTAP	4	120	6
EXTAP	4	192	2
EXTAP	4	192	5
EXTAP	4	264	3
EXHLD	4	264	4	408
NMTTP	5	0	0	C	1	M1
NMTTP	5	0	1	B	0	M1
NMTTP	5	0	2	B	0	M1
NMTTP	5	0	2	E	0	M1
NMTAP	6	0	2
NMTAP	6	0	3
NMTAP	6	96	0
NMTAP	6	96	1
NMTAP	6	192	3
NMTAP	6	192	4
NMTAP	6	288	0
NMTAP	6	288	1
NMTAP	7	0	2
NMTAP	7	0	3
NMTAP	7	96	0
NMTAP	7	96	1
NMTAP	7	192	3
NMTAP	7	192	4
NMTAP	7	288	0
NMTAP	7	288	1
NMTAP	8	0	4
NMTAP	8	0	5
NMTAP	8	96	6
NMTAP	8	96	7
NMTAP	8	192	3
NMTAP	8	192	4
NMTAP	8	288	6
NMTAP	8	288	7
NMTAP	9	0	4
NMTAP	9	0	5
NMTAP	9	96	6
NMTAP	9	96	7
NMTAP	9	192	2
NMTAP	9	192	5
NMTAP	9	240	3
NMTAP	9	264	4
NMTAP	9	288	3
NMSTR	10	0	2
NMSCL	10	0	2	96	48	7
NMSTR	10	96	5
NMSCR	10	96	5	96	48	0
NMSTR	10	192	3
NMSUL	10	192	3	96	48	7
NMSTR	10	288	4
NMSUR	10	288	4	96	48	0
NMSTR	11	0	2
NMSCL	11	0	2	96	48	7
NMSTR	11	96	5
NMSCR	11	96	5	96	48	0
NMTAP	11	192	3
NMTAP	11	240	3
NMTAP	11	288	4
NMTAP	11	288	6
NMSTR	12	0	2
NMSCL	12	0	2	96	48	7
NMSTR	12	96	5
NMSCR	12	96	5	96	48	0
NMSTR	12	192	3
NMSUL	12	192	3	96	48	7
NMTAP	12	288	4
NMTAP	13	0	0
NMTTP	13	0	4	B	0	M1
NMTTP	13	0	5	B	0	M1
NMTTP	13	0	5	E	0	M1
NMTTP	13	96	2	B	0	M1
NMTTP	13	96	3	E	0	M1
NMTAP	13	96	7
NMSTR	13	192	0
NMSI_	13	192	0	96	48	4
NMTTP	13	192	6	E	0	M1
EXTAP	13	288	7
NMHLD	14	0	1	96
NMHLD	14	0	5	96
NMTAP	14	144	4
NMTAP	14	192	4
NMTAP	14	240	2
NMTAP	14	288	2
NMTAP	14	336	6
NMHLD	15	0	4	96
NMHLD	15	0	6	96
NMTAP	15	144	7
NMTAP	15	192	7
NMTAP	15	240	3
NMSTR	15	288	5
NMSI_	15	288	5	96	48	7
NMSTR	16	0	1
NMSI_	16	0	1	96	48	3
NMSTR	16	96	5
NMSI_	16	96	5	96	48	7
NMSTR	16	192	1
NMSI_	16	192	1	96	48	3
NMSTR	16	288	5
NMSI_	16	288	5	96	48	3
NMSTR	17	0	1
NMSI_	17	0	1	96	48	7
NMSTR	17	96	5
NMSI_	17	96	5	96	48	3
NMSTR	17	192	1
NMSI_	17	192	1	96	48	7
NMTAP	17	288	5
NMHLD	18	0	2	96
NMHLD	18	0	3	96
NMHLD	18	192	4	96
NMHLD	18	192	5	96
NMHLD	19	0	2	48
NMHLD	19	0	4	48
NMHLD	19	96	3	48
NMHLD	19	96	5	48
NMTAP	19	192	2
NMTAP	19	192	4
NMTAP	19	240	1
NMSTR	19	288	1
NMSI_	19	288	1	96	48	4
BRTAP	20	0	4
NMTAP	20	96	3
NMTAP	20	96	5
NMSTR	20	144	3
NMSI_	20	144	3	96	48	0
NMSTR	20	144	5
NMSI_	20	144	5	96	48	0
NMTAP	20	336	1
NMTAP	20	336	7
NMTAP	21	48	2
NMTAP	21	48	4
NMSTR	21	96	2
NMSLR	21	96	2	96	96	0
NMSLR	21	96	2	96	96	6
NMTAP	21	96	4
EXTAP	22	0	1
EXTAP	22	0	7
NMTAP	22	96	2
NMTAP	22	144	2
NMTAP	22	192	2
NMHLD	22	192	3	96
NMTTP	22	288	2	B	0	M1
NMTTP	22	288	3	B	0	M1
NMTAP	23	0	0
NMTAP	23	0	6
NMTAP	23	96	5
NMTAP	23	144	5
NMHLD	23	192	4	96
NMTAP	23	192	5
NMTTP	23	288	4	B	0	M1
NMTTP	23	288	5	B	0	M1
NMHLD	24	0	6	96
NMHLD	24	96	4	96
NMHLD	24	192	2	96
NMHLD	24	288	0	96
NMHLD	25	0	7	96
NMHLD	25	96	5	96
NMTAP	25	192	3
NMTAP	25	288	2
NMSTR	25	288	4
NMSCR	25	288	4	96	96	0
NMSTR	26	0	0
NMSCR	26	0	0	96	96	4
NMSTR	26	96	4
NMSCR	26	96	4	96	96	0
NMSTR	26	192	0
NMSCR	26	192	0	96	96	4
NMSTR	26	288	4
NMSCR	26	288	4	96	96	0
NMSTR	27	0	0
NMSCR	27	0	0	96	96	4
NMTAP	27	96	4
NMTTP	27	192	0	C	0	M1
NMTAP	27	288	1
NMTAP	27	288	7
NMTAP	28	0	2
NMTAP	28	48	2
NMTAP	28	96	3
NMTAP	28	144	4
NMTAP	28	144	6
NMTAP	28	240	1
NMTAP	28	240	3
NMSTR	28	336	5
NMSUL	28	336	5	96	144	2
NMSTR	28	336	6
NMSXL	28	336	6	96	144	1
NMTTP	29	192	2	D	1	M1
NMTAP	30	0	6
NMTAP	30	64	6
NMTAP	30	96	7
NMTAP	30	160	7
NMHLD	30	192	5	96
NMTAP	30	288	4
NMSTR	31	0	4
NMSCL	31	0	4	96	96	1
NMTAP	31	0	5
NMSTR	31	192	7
NMSCL	31	192	7	96	96	4
NMTAP	32	0	2
NMTAP	32	64	2
NMTAP	32	96	3
NMTAP	32	160	3
NMHLD	32	192	1	96
NMTAP	32	288	0
NMTAP	33	0	2
NMTAP	33	0	7
NMTAP	33	96	3
NMTAP	33	96	6
NMTAP	33	192	5
NMTAP	33	224	4
NMTAP	33	256	5
NMTAP	33	288	4
NMTAP	34	0	1
NMSTR	34	0	6
NMSCL	34	0	6	96	48	3
NMTTP	34	96	0	B	0	M1
NMTTP	34	96	7	B	0	M1
NMSTR	34	192	1
NMSCR	34	192	1	96	48	4
NMTAP	34	192	6
NMTTP	34	288	0	B	0	M1
NMTTP	34	288	7	B	0	M1
NMTAP	35	0	6
NMTAP	35	64	6
NMTAP	35	96	4
NMTAP	35	160	4
NMTAP	35	192	3
NMTAP	35	288	1
NMSTR	35	288	7
NMSI_	35	288	7	96	48	4
NMTAP	36	0	3
NMSTR	36	96	0
BRSI_	36	96	0	96	48	3
NMTAP	36	96	6
NMTAP	36	192	4
NMTAP	36	288	1
NMSTR	36	288	7
NMSCL	36	288	7	96	48	4
NMTAP	37	0	3
NMSTR	37	96	0
BRSCR	37	96	0	96	48	3
NMTAP	37	96	6
NMTAP	37	192	4
NMTAP	37	288	4
NMTAP	37	288	5
NMSTR	38	0	0
BRSUR	38	0	0	96	192	3
NMSTR	38	0	6
NMSXR	38	0	6	96	192	3
EXTAP	39	0	2
EXTAP	39	0	4
EXTAP	39	32	2
EXTAP	39	32	4
EXTAP	39	64	2
EXTAP	39	64	4
EXSTR	39	96	2
BRSCL	39	96	2	96	48	7
EXSTR	39	96	4
NMSV_	39	96	4	96	48	7
EXTAP	39	192	2
EXTAP	39	192	4
BRTAP	39	288	1
BRTAP	39	288	6
NMTAP	40	0	4
NMSTR	40	0	5
NMSCR	40	0	5	96	48	7
NMSTR	40	96	3
NMSUL	40	96	3	96	48	7
NMSTR	40	192	4
NMSI_	40	192	4	96	48	7
NMHLD	40	288	2	96
NMTAP	41	0	3
NMTAP	41	48	3
NMSTR	41	96	1
NMSUR	41	96	1	96	48	5
NMTAP	41	144	4
BRTAP	41	240	0
BRTAP	41	288	0
NMTAP	42	0	2
NMTAP	42	48	4
NMTAP	42	96	3
NMTAP	42	144	5
NMSTR	42	192	1
NMSI_	42	192	1	96	48	4
NMSTR	42	192	6
NMSI_	42	192	6	96	48	3
NMTAP	42	288	1
NMTAP	42	288	6
NMTAP	43	0	0
NMTAP	43	0	1
NMTAP	43	48	0
NMTAP	43	48	1
NMTAP	43	144	4
NMTAP	43	144	5
NMSTR	43	192	4
NMSCL	43	192	4	96	48	1
NMSTR	43	192	5
NMSCR	43	192	5	96	48	0
EXTAP	43	288	4
EXTAP	43	288	5
NMSTR	44	0	2
NMSCL	44	0	2	96	48	0
NMTAP	44	0	3
NMSTR	44	96	4
NMSUR	44	96	4	96	48	0
NMSTR	44	192	3
NMSI_	44	192	3	96	48	0
NMHLD	44	288	5	96
NMTAP	45	0	4
NMTAP	45	48	4
NMSTR	45	96	6
NMSUL	45	96	6	96	48	2
NMTAP	45	144	3
BRTAP	45	240	7
BRTAP	45	288	7
NMTAP	46	0	1
NMTAP	46	48	4
NMSTR	46	96	3
NMSXL	46	96	3	96	96	3
NMSXR	46	96	3	96	96	3
NMTAP	46	192	3
NMTAP	47	0	2
NMTAP	47	0	5
NMTTP	47	96	3	B	0	M1
NMTTP	47	96	3	E	0	M1
NMTAP	47	96	6
NMTAP	47	192	1
NMTTP	47	192	4	B	0	M1
NMTTP	47	192	5	E	0	M1
NMTTP	47	288	3	B	0	M1
NMTTP	47	288	3	E	0	M1
NMTAP	47	288	6
NMSTR	48	0	0
NMSI_	48	0	0	96	48	2
NMSTR	48	0	7
NMSI_	48	0	7	96	48	3
NMTAP	48	96	0
NMTAP	48	96	7
NMSTR	48	192	0
NMSI_	48	192	0	96	48	4
NMSTR	48	192	7
NMSI_	48	192	7	96	48	5
NMTAP	48	288	0
NMTAP	48	288	7
NMTAP	49	0	2
NMTAP	49	48	2
NMSTR	49	96	6
NMSUL	49	96	6	96	48	2
NMTAP	49	144	4
EXTAP	49	240	0
EXSTR	49	288	0
NMSCR	49	288	0	96	96	4
NMSTR	50	0	4
NMSUR	50	0	4	96	96	0
NMSTR	50	96	0
NMSCR	50	96	0	96	96	4
NMSTR	50	192	4
NMSUR	50	192	4	96	96	0
NMTAP	50	288	0
NMTAP	51	0	4
NMTAP	51	48	4
NMTAP	51	144	2
NMTAP	51	144	3
NMTAP	51	192	2
NMTAP	51	192	3
BRTAP	51	288	0
BRTAP	51	288	5
NMSTR	52	0	0
NMSI_	52	0	0	96	48	4
NMSTR	52	0	7
NMSI_	52	0	7	96	48	5
NMTAP	52	96	0
NMTAP	52	96	7
NMSTR	52	192	0
NMSI_	52	192	0	96	48	2
NMSTR	52	192	7
NMSI_	52	192	7	96	48	3
NMTAP	52	288	0
NMTAP	52	288	7
NMTAP	53	0	5
NMTAP	53	48	5
NMSTR	53	96	1
NMSUR	53	96	1	96	48	5
NMTAP	53	144	3
EXTAP	53	240	7
EXSTR	53	288	7
NMSCL	53	288	7	96	96	3
NMSTR	54	0	3
NMSUL	54	0	3	96	96	7
NMSTR	54	96	7
NMSCL	54	96	7	96	96	3
NMTAP	54	192	3
NMTAP	54	288	7
NMTAP	55	0	1
NMTAP	55	0	6
NMTAP	55	96	2
NMTAP	55	96	3
NMTAP	55	192	4
NMTAP	55	192	5
NMTAP	55	288	2
NMTAP	55	288	3
NMSTR	56	0	2
NMSXR	56	0	2	96	192	4
NMSTR	56	0	5
NMSXL	56	0	5	96	192	3
NMHLD	57	0	2	144
NMHLD	57	0	5	144
NMTTP	57	192	0	C	1	M1
NMTTP	57	192	2	E	0	M1
NMTTP	57	192	6	E	0	M1
NMSTR	58	0	2
NMSI_	58	0	2	96	48	7
NMTAP	58	0	5
NMTAP	58	96	5
NMSTR	58	192	2
NMSI_	58	192	2	96	48	7
NMTAP	58	192	4
NMTAP	58	288	4
NMSTR	59	0	2
NMSI_	59	0	2	96	48	7
NMTAP	59	0	3
NMTAP	59	96	3
NMSTR	59	192	2
NMSI_	59	192	2	96	48	7
NMTAP	59	192	4
NMTAP	59	288	4
NMTAP	60	0	2
NMSTR	60	0	5
NMSI_	60	0	5	96	48	0
NMTAP	60	96	2
NMTAP	60	192	3
NMSTR	60	192	5
NMSI_	60	192	5	96	48	0
NMTAP	60	288	3
NMTAP	61	0	4
NMSTR	61	0	5
NMSI_	61	0	5	96	48	0
NMTAP	61	96	4
NMTAP	61	192	2
NMTAP	61	192	5
NMTAP	61	240	3
NMTAP	61	264	4
NMTAP	61	288	3
NMSTR	62	0	2
NMSCL	62	0	2	96	48	7
NMSTR	62	96	5
NMSCR	62	96	5	96	48	0
NMSTR	62	192	3
NMSUL	62	192	3	96	48	6
NMSTR	62	288	4
NMSUR	62	288	4	96	48	1
NMSTR	63	0	2
NMSCL	63	0	2	96	48	7
NMSTR	63	96	5
NMSCR	63	96	5	96	48	0
NMTAP	63	192	3
NMTAP	63	240	3
NMTAP	63	288	4
NMTAP	63	288	6
NMSTR	64	0	2
NMSCL	64	0	2	96	48	7
NMSTR	64	96	5
NMSCR	64	96	5	96	48	0
NMSTR	64	192	3
NMSUL	64	192	3	96	48	6
NMSTR	64	288	4
NMSUR	64	288	4	96	48	1
NMTAP	65	0	2
NMTAP	65	48	2
NMTAP	65	96	3
NMSTR	65	96	5
NMSF_	65	96	5	96	96	1
EXTAP	65	192	5
NMTAP	66	0	3
NMTAP	66	0	4
BRTAP	66	96	0
BRTAP	66	96	7
NMTAP	66	192	3
NMTAP	66	192	5
NMTAP	66	240	6
NMTAP	66	264	4
NMSTR	66	288	6
NMSI_	66	288	6	96	48	3
NMTAP	66	336	2
NMTAP	67	0	1
NMTAP	67	48	1
NMTAP	67	96	4
NMTAP	67	144	4
NMTAP	67	168	3
NMTAP	67	240	1
NMTAP	67	240	4
NMTAP	67	288	1
NMTAP	67	288	4
NMTAP	68	0	3
NMTAP	68	24	2
NMTAP	68	48	3
NMTAP	68	72	2
NMTAP	68	96	4
NMTAP	68	120	1
NMTAP	68	144	4
NMTAP	68	168	1
NMTAP	68	192	5
NMTAP	68	216	0
NMTAP	68	240	5
NMTAP	68	264	0
NMSTR	68	288	6
NMSI_	68	288	6	96	48	2
NMSTR	69	0	7
NMSI_	69	0	7	96	48	3
NMSTR	69	96	6
NMSI_	69	96	6	96	48	2
NMSTR	69	192	7
NMSI_	69	192	7	96	48	3
BRTAP	69	288	6
NMHLD	70	0	4	96
NMTAP	70	0	5
NMTAP	70	96	3
NMTAP	70	144	3
NMHLD	70	192	3	96
NMTAP	70	288	2
NMTAP	70	336	2
NMHLD	71	0	1	48
NMHLD	71	48	2	48
NMHLD	71	96	3	48
NMHLD	71	144	4	48
NMTAP	71	192	5
NMTAP	71	288	3
NMTAP	71	288	6
NMTAP	72	0	5
NMTAP	72	24	4
NMTAP	72	48	5
NMTAP	72	72	2
NMTAP	72	96	3
NMTAP	72	120	2
NMTAP	72	144	5
NMTAP	72	168	4
NMTAP	72	192	5
NMSTR	72	288	2
NMSXR	72	288	2	96	96	0
NMSTR	72	288	3
NMSCR	72	288	3	96	96	0
NMHLD	73	192	3	96
NMHLD	73	192	4	96
NMTHO	74	0	0	384	C	0	M1
NMSTR	74	0	7
NMSCL	74	0	7	96	192	3
NMSTR	75	0	7
NMSCL	75	0	7	96	192	3
NMTAP	75	192	0
NMTAP	75	288	0
NMSTR	76	0	0
NMSCR	76	0	0	96	192	4
NMTHO	76	0	0	384	C	0	M1
NMSTR	77	0	0
NMSSR	77	0	0	96	192	4
NMHLD	78	0	3	96
NMHLD	78	0	5	96
NMHLD	78	192	2	96
NMHLD	78	192	4	96
NMHLD	79	0	3	96
NMHLD	79	0	5	96
NMTAP	79	192	3
NMTAP	79	192	4
NMTAP	79	288	2
NMTAP	79	288	5
NMSTR	80	0	3
NMSXR	80	0	3	96	96	5
NMTAP	80	0	6
BRTAP	80	96	6
BRTAP	80	192	6
NMTAP	80	288	0
NMTAP	80	288	7
NMTAP	81	0	1
NMSTR	81	0	4
NMSXL	81	0	4	96	96	2
BRTAP	81	96	1
BRTAP	81	192	1
NMTAP	81	288	0
NMTAP	81	288	7
NMSTR	82	0	2
BRSXL	82	0	2	96	96	0
NMSTR	82	0	5
NMSXR	82	0	5	96	96	7
NMTAP	82	288	1
NMTAP	82	288	6
EXTAP	83	0	2
EXTAP	83	0	4
EXTAP	83	32	2
EXTAP	83	32	4
EXTAP	83	64	2
EXTAP	83	64	4
EXTAP	83	96	2
EXTAP	83	96	4
EXTAP	83	192	1
EXSTR	83	192	5
NMSI_	83	192	5	96	48	7
EXTAP	84	0	3
EXTAP	84	0	5
EXTAP	84	32	3
EXTAP	84	32	5
EXTAP	84	64	3
EXTAP	84	64	5
EXSTR	84	96	3
NMSV_	84	96	3	96	48	0
EXSTR	84	96	5
NMSCR	84	96	5	96	48	0
EXTAP	84	192	3
EXTAP	84	192	5
BRTAP	84	288	1
BRTAP	84	288	6
NMTAP	85	0	2
NMTAP	85	0	3
NMTAP	85	48	2
NMTAP	85	48	3
NMTAP	85	192	3
NMTAP	85	192	6
NMTAP	85	240	3
NMTAP	85	240	6
EXSTR	86	0	0
BRSCR	86	0	0	96	48	3
EXSTR	86	0	7
NMSCL	86	0	7	96	48	4
EXSTR	86	96	0
BRSI_	86	96	0	96	48	4
EXSTR	86	96	7
NMSI_	86	96	7	96	48	3
EXTAP	86	192	0
EXTAP	86	192	7
BRTAP	86	288	1
BRTAP	86	288	6
NMTAP	87	0	5
NMTAP	87	48	3
NMTAP	87	96	4
NMTAP	87	144	2
NMSTR	87	192	1
BRSV_	87	192	1	96	48	4
NMSTR	87	192	6
NMSV_	87	192	6	96	48	3
NMTAP	87	288	1
NMTAP	87	288	6
NMHLD	88	0	2	96
NMHLD	88	0	5	96
BRTAP	88	192	0
BRTAP	88	192	7
BRTAP	88	288	0
BRTAP	88	288	7
NMSTR	89	0	2
BRSCL	89	0	2	96	48	0
NMTAP	89	0	3
NMSTR	89	96	4
NMSUR	89	96	4	96	48	0
NMSTR	89	192	3
BRSI_	89	192	3	96	48	0
NMHLD	89	288	5	96
NMTAP	90	0	4
NMTAP	90	48	4
NMSTR	90	96	6
NMSLL	90	96	6	96	96	2
NMTAP	90	144	3
BRTAP	90	240	7
BRTAP	90	288	7
NMHLD	91	0	1	48
NMTAP	91	48	4
NMHLD	91	96	5	48
NMTAP	91	144	3
NMSTR	91	192	3
BRSXL	91	192	3	96	96	0
NMTAP	91	288	7
NMTAP	92	0	7
NMTTP	92	96	3	B	0	M1
NMTTP	92	96	3	E	0	M1
NMTAP	92	96	6
NMTAP	92	192	1
NMTTP	92	192	4	B	0	M1
NMTTP	92	192	5	E	0	M1
NMTTP	92	288	3	B	0	M1
NMTTP	92	288	3	E	0	M1
NMTAP	92	288	6
NMSTR	93	0	0
BRSI_	93	0	0	96	48	4
NMSTR	93	0	7
NMSCL	93	0	7	96	48	5
NMTAP	93	96	0
NMTAP	93	96	7
NMSTR	93	192	0
BRSCR	93	192	0	96	48	2
NMSTR	93	192	7
NMSI_	93	192	7	96	48	3
NMTAP	93	288	0
NMTAP	93	288	7
NMTAP	94	0	5
NMTAP	94	48	5
NMSTR	94	96	1
BRSLR	94	96	1	96	96	5
NMTAP	94	144	3
EXTAP	94	240	7
EXSTR	94	288	7
NMSCL	94	288	7	96	96	3
NMSTR	95	0	3
BRSCL	95	0	3	96	96	7
NMSTR	95	96	7
NMSCL	95	96	7	96	96	3
NMSTR	95	192	3
BRSCL	95	192	3	96	96	7
NMTAP	95	288	7
NMTAP	96	0	3
NMTAP	96	48	3
NMTAP	96	144	4
NMTAP	96	144	5
NMTAP	96	192	4
NMTAP	96	192	5
BRTAP	96	288	2
BRTAP	96	288	7
NMSTR	97	0	0
BRSCR	97	0	0	96	48	2
NMSTR	97	0	7
NMSI_	97	0	7	96	48	3
NMTAP	97	96	0
NMTAP	97	96	7
NMSTR	97	192	0
BRSI_	97	192	0	96	48	4
NMSTR	97	192	7
NMSCL	97	192	7	96	48	5
NMTAP	97	288	0
NMTAP	97	288	7
NMTAP	98	0	2
NMTAP	98	48	2
NMSTR	98	96	6
NMSLL	98	96	6	96	96	2
NMTAP	98	144	4
EXTAP	98	240	0
EXSTR	98	288	0
BRSCR	98	288	0	96	96	4
NMSTR	99	0	4
NMSCR	99	0	4	96	96	0
NMSTR	99	96	0
BRSCR	99	96	0	96	96	4
NMTAP	99	192	4
NMTAP	99	288	0
NMTAP	100	0	1
NMTAP	100	0	6
NMTAP	100	96	4
NMTAP	100	96	5
NMTAP	100	192	2
NMTAP	100	192	3
NMTAP	100	288	4
NMTAP	100	288	5
NMTAP	101	0	2
NMSTR	101	0	6
NMSSR	101	0	6	96	192	2
NMSTR	102	0	1
BRSCR	102	0	1	96	96	5

T_REC_TAP	319
T_REC_BRK	28
T_REC_XTP	44
T_REC_BXX	0
T_REC_HLD	46
T_REC_XHO	1
T_REC_BHO	0
T_REC_BXH	0
T_REC_STR	129
T_REC_BST	0
T_REC_XST	13
T_REC_XBS	0
T_REC_TTP	35
T_REC_THO	2
T_REC_SLD	123
T_REC_BSL	21
T_REC_ALL	761
T_NUM_TAP	540
T_NUM_BRK	49
T_NUM_HLD	49
T_NUM_SLD	123
T_NUM_ALL	761
T_JUDGE_TAP	568
T_JUDGE_HLD	113
T_JUDGE_SLD	144
T_JUDGE_ALL	825
TTM_EACHPAIRS	159
TTM_SCR_TAP	270000
TTM_SCR_BRK	127400
TTM_SCR_HLD	49000
TTM_SCR_SLD	184500
TTM_SCR_ALL	630900
TTM_SCR_S	607250
TTM_SCR_SS	626000
TTM_RAT_ACV	10078

