VERSION	0.00.00	1.04.00
FES_MODE	1
BPM_DEF	140.000	140.000	140.000	140.000
MET_DEF	4	4
RESOLUTION	384
CLK_DEF	384
COMPATIBLE_CODE	MA2

BPM	0	0	140.000
MET	0	0	4	4

NMTHO	1	336	0	528	C	1	M1
NMHLD	3	336	0	96
NMTTP	4	48	4	E	0	M1
NMTTP	4	60	5	E	0	M1
NMTTP	4	72	6	E	0	M1
NMTTP	4	84	7	E	0	M1
NMTTP	4	96	0	E	0	M1
NMTTP	4	108	1	E	0	M1
NMTTP	4	120	2	E	0	M1
NMTTP	4	132	3	E	0	M1
NMTTP	4	144	4	E	0	M1
NMTTP	4	156	5	E	0	M1
NMTTP	4	168	6	E	0	M1
NMTTP	4	180	7	E	0	M1
NMTTP	4	192	0	E	0	M1
NMTTP	4	204	1	E	0	M1
NMTTP	4	216	2	E	0	M1
NMTTP	4	228	3	E	0	M1
NMTTP	4	240	4	E	0	M1
NMTTP	4	252	5	E	0	M1
NMTTP	4	264	6	E	0	M1
NMTTP	4	276	7	E	0	M1
NMTTP	4	288	0	E	0	M1
NMTTP	4	300	1	E	0	M1
NMTTP	4	312	2	E	0	M1
NMTTP	4	324	3	E	0	M1
NMTTP	4	336	4	E	0	M1
NMTTP	4	348	5	E	0	M1
NMTTP	4	360	6	E	0	M1
NMTTP	4	372	7	E	0	M1
BXHLD	5	0	0	192
NMHLD	5	192	1	192
NMHLD	6	0	2	192
NMHLD	6	192	3	192
NMHLD	7	0	4	192
NMHLD	7	192	5	192
NMHLD	8	0	6	192
NMHLD	8	192	7	192
NMHLD	9	0	0	96
NMHLD	9	96	1	96
NMHLD	9	192	2	96
NMHLD	9	288	3	96
NMHLD	10	0	4	96
NMHLD	10	96	5	96
NMHLD	10	192	6	96
NMHLD	10	288	7	96
NMTAP	11	0	0
NMTAP	11	48	1
NMTAP	11	96	2
NMTAP	11	144	3
NMTAP	11	192	4
NMTAP	11	240	5
NMTAP	11	288	6
NMTAP	11	336	7
NMTAP	12	0	0
NMTAP	12	48	1
NMTAP	12	96	2
NMTAP	12	144	3
NMSTR	12	192	4
NMSCR	12	192	4	96	96	7
NMSTR	12	288	7
NMSCR	12	288	7	96	96	2
NMSTR	13	0	2
NMSCR	13	0	2	96	96	5
NMSTR	13	96	5
NMSCR	13	96	5	96	96	0
NMSTR	13	192	0
NMSCR	13	192	0	96	96	3
NMSTR	13	288	3
NMSCR	13	288	3	96	96	6
NMSTR	14	0	6
NMSCR	14	0	6	96	96	1
NMSTR	14	96	1
NMSCR	14	96	1	96	96	4
NMSTR	14	192	4
NMSCR	14	192	4	96	96	7
NMTAP	14	288	7
NMSTR	15	0	0
NMSCR	15	0	0	96	96	3
NMSTR	15	96	3
NMSCR	15	96	3	96	96	6
NMSTR	15	192	6
NMSCR	15	192	6	96	96	1
NMSTR	15	288	1
NMSCR	15	288	1	96	96	4
NMSTR	16	0	4
NMSCR	16	0	4	96	96	7
NMSTR	16	96	7
NMSCR	16	96	7	96	96	2
NMSTR	16	192	2
NMSCR	16	192	2	96	96	5
NMSTR	16	288	5
NMSCR	16	288	5	96	96	0
NMSTR	17	0	0
NMSCR	17	0	0	96	96	3
NMSTR	17	96	3
NMSXR	17	96	3	96	96	4
NMSTR	17	192	4
NMSCR	17	192	4	96	96	7
NMSTR	17	288	7
NMSXR	17	288	7	96	96	0
NMSTR	18	0	0
NMSCR	18	0	0	96	96	3
BXSTR	18	96	3
NMSXR	18	96	3	96	96	4
BXSTR	18	192	4
NMSCR	18	192	4	96	96	7
BXSTR	18	288	7
NMSXR	18	288	7	96	96	0
NMSTR	19	0	0
NMSCR	19	0	0	96	96	3
NMSTR	19	96	3
NMSUR	19	96	3	96	96	0
NMSTR	19	192	0
NMSCR	19	192	0	96	96	3
NMSTR	19	288	3
NMSCR	19	288	3	96	96	6
NMSTR	20	0	6
NMSUR	20	0	6	96	96	3
BXTAP	20	96	7
BXTAP	20	144	0
BXTAP	20	192	1
NMSTR	20	288	4
NMSCR	20	288	4	96	96	7
NMSTR	21	0	7
NMSCR	21	0	7	96	96	2
NMSTR	21	96	2
NMSCR	21	96	2	96	96	5
NMSTR	21	192	5
NMSCR	21	192	5	96	96	0
NMSTR	21	288	0
NMSCR	21	288	0	96	96	3
NMSTR	22	0	3
NMSCR	22	0	3	96	96	6
NMSTR	22	96	6
NMSCR	22	96	6	96	96	1
NMSTR	22	192	1
NMSCR	22	192	1	96	96	4
NMTAP	22	288	4
NMHLD	23	0	5	48
NMHLD	23	48	6	48
NMHLD	23	96	7	48
NMHLD	23	144	0	48
NMHLD	23	192	1	48
NMHLD	23	240	2	48
NMHLD	23	288	3	48
NMHLD	23	336	4	48
NMHLD	24	0	5	48
NMHLD	24	48	6	48
NMHLD	24	96	7	48
NMHLD	24	144	0	48
NMHLD	24	192	1	48
NMHLD	24	240	2	48
NMSTR	24	288	3
NMSCR	24	288	3	96	96	6
NMSTR	25	0	6
NMSCR	25	0	6	96	96	1
NMSTR	25	96	1
NMSCR	25	96	1	96	96	4
NMSTR	25	192	4
NMSCR	25	192	4	96	96	7
NMSTR	25	288	7
NMSCR	25	288	7	96	96	2
NMSTR	26	0	2
NMSCR	26	0	2	96	96	5
NMSTR	26	96	5
NMSCR	26	96	5	96	96	0
NMSTR	26	192	0
NMSCR	26	192	0	96	96	3
NMTAP	26	288	3
NMSTR	27	0	4
NMSCR	27	0	4	96	96	7
NMSTR	27	96	7
NMSCR	27	96	7	96	96	2
NMSTR	27	192	2
NMSCR	27	192	2	96	96	5
NMSTR	27	288	5
NMSCR	27	288	5	96	96	0
NMSTR	28	0	0
NMSCR	28	0	0	96	96	3
NMSTR	28	96	3
NMSCR	28	96	3	96	96	6
NMSTR	28	192	6
NMSCR	28	192	6	96	96	1
NMSTR	28	288	1
NMSCR	28	288	1	96	96	4
NMSTR	29	0	4
NMSCR	29	0	4	96	96	7
NMSTR	29	96	7
NMSXR	29	96	7	96	96	0
NMSTR	29	192	0
NMSCR	29	192	0	96	96	3
NMSTR	29	288	3
NMSXR	29	288	3	96	96	4
NMSTR	30	0	4
NMSCR	30	0	4	96	96	7
BRSTR	30	96	7
NMSXR	30	96	7	96	96	0
BRSTR	30	192	0
NMSCR	30	192	0	96	96	3
BRSTR	30	288	3
NMSXR	30	288	3	96	96	4
NMSTR	31	0	4
NMSCR	31	0	4	96	96	7
NMSTR	31	96	7
NMSUR	31	96	7	96	96	4
NMSTR	31	192	4
NMSCR	31	192	4	96	96	7
NMSTR	31	288	7
NMSCR	31	288	7	96	96	2
NMSTR	32	0	2
NMSUR	32	0	2	96	96	7
BRTAP	32	96	3
BRTAP	32	144	4
BRTAP	32	192	5
NMSTR	32	288	0
NMSCR	32	288	0	96	96	3
NMSTR	33	0	3
NMSCR	33	0	3	96	96	6
NMSTR	33	96	6
NMSCR	33	96	6	96	96	1
NMSTR	33	192	1
NMSCR	33	192	1	96	96	4
NMSTR	33	288	4
NMSCR	33	288	4	96	96	7
NMSTR	34	0	7
NMSCR	34	0	7	96	96	2
NMSTR	34	96	2
NMSCR	34	96	2	96	96	5
NMSTR	34	192	5
NMSCR	34	192	5	96	96	0
NMTAP	34	288	0
NMHLD	35	0	1	48
NMHLD	35	48	2	48
NMHLD	35	96	3	48
NMHLD	35	144	4	48
NMHLD	35	192	5	48
NMHLD	35	240	6	48
NMHLD	35	288	7	48
NMHLD	35	336	0	48
NMHLD	36	0	1	48
NMHLD	36	48	2	48
NMHLD	36	96	3	48
NMHLD	36	144	4	48
NMHLD	36	192	5	48
NMHLD	36	240	6	48
NMHLD	36	288	7	48
NMTAP	36	336	0
NMTAP	37	0	0
NMTAP	37	96	1
NMTAP	37	192	2
NMTAP	37	288	3
NMTTP	38	0	0	B	0	M1
NMTTP	38	96	1	B	0	M1
NMTTP	38	192	2	B	0	M1
NMTTP	38	288	3	B	0	M1
NMHLD	39	0	4	48
NMHLD	39	0	5	48
NMHLD	39	96	6	48
NMHLD	39	96	7	48
NMHLD	39	192	0	48
NMHLD	39	192	1	48
NMHLD	39	288	2	48
NMHLD	39	288	3	48
NMHLD	40	0	4	48
NMHLD	40	0	5	48
NMHLD	40	96	6	48
NMHLD	40	96	7	48
NMHLD	40	192	0	48
NMHLD	40	192	1	48
NMHLD	40	288	2	48
NMHLD	40	288	3	48
NMTAP	41	0	4
NMTTP	41	0	4	E	0	M1
NMTTP	41	12	0	C	1	M1
NMTTP	41	24	0	E	0	M1
NMTAP	41	96	5
NMTAP	41	192	6
NMTAP	41	288	7
BXTAP	42	0	0
NMTAP	42	96	1
BXTAP	42	192	2
NMTAP	42	288	3
NMHLD	43	0	4	48
NMHLD	43	0	5	48
NMHLD	43	96	6	48
NMHLD	43	96	7	48
NMHLD	43	192	0	48
NMHLD	43	192	1	48
NMHLD	43	288	2	48
NMHLD	43	288	3	48
NMHLD	44	0	4	48
NMHLD	44	0	5	48
NMHLD	44	96	6	48
NMHLD	44	96	7	48
NMHLD	44	192	0	48
NMHLD	44	192	1	48
NMHLD	44	288	2	48
NMHLD	44	288	3	48
BXTAP	45	0	4
BXTAP	45	48	5
BXTAP	45	96	6
BXTAP	45	144	7
NMTAP	45	192	0
NMTAP	45	240	1
NMTAP	45	288	2
NMTAP	45	336	3
BRTAP	46	0	5
BRTAP	46	48	6
BRTAP	46	96	7
BRTAP	46	144	0
NMTAP	46	192	1
NMTAP	46	240	2
NMTAP	46	288	3
BRTAP	46	336	4
BRTAP	46	336	5
BRTAP	47	0	6
BRTAP	47	0	7
BRTAP	47	48	0
BRTAP	47	48	1
BRTAP	47	96	2
BRSTR	47	96	3
NMSCR	47	96	3	96	96	7
BRSTR	47	192	7
NMSCR	47	192	7	96	96	3
NMSTR	47	288	3
NMSCR	47	288	3	96	96	7
NMSTR	48	0	7
NMSCR	48	0	7	96	96	3
NMSTR	48	96	3
NMSCR	48	96	3	96	96	7
NMSTR	48	192	7
NMSCR	48	192	7	96	96	3
NMSTR	48	288	3
BRSCR	48	288	3	96	192	3
CNSCR	49	192	3	0	192	3
NMTAP	50	0	4
NMTAP	50	24	5
NMTAP	50	48	6
NMTAP	50	72	7
NMTAP	50	96	0
NMTAP	50	120	1
NMTAP	50	144	2
NMTAP	50	168	3
NMTAP	50	192	4
NMTAP	50	216	5
NMTAP	50	240	6
NMTAP	50	264	7
NMTAP	50	288	0
NMTAP	50	312	1
NMTAP	50	336	2
NMTAP	50	360	3
BXTAP	51	0	4
NMTAP	51	24	5
NMTAP	51	48	6
NMTAP	51	72	7
NMTAP	51	96	0
NMTAP	51	120	1
NMTAP	51	144	2
NMTAP	51	168	3
NMTAP	51	192	4
NMTAP	51	216	5
NMTAP	51	240	6
NMTAP	51	264	7
NMTAP	51	288	0
NMTAP	51	312	1
NMTAP	51	336	2
NMTAP	51	360	3
NMTAP	52	0	5
NMTAP	52	24	6
NMTAP	52	48	7
NMTAP	52	72	0
NMTAP	52	96	1
NMTAP	52	120	2
NMTAP	52	144	3
NMTAP	52	168	4
NMTAP	52	192	5
NMTAP	52	216	6
NMTAP	52	240	7
NMTAP	52	264	0
NMTAP	52	288	1
NMTAP	52	312	2
NMTAP	52	336	3
NMTAP	52	360	4
BXTAP	53	0	5
NMTAP	53	24	6
NMTAP	53	48	7
NMTAP	53	72	0
NMTAP	53	96	1
NMTAP	53	120	2
NMTAP	53	144	3
NMTAP	53	168	4
NMTAP	53	192	5
NMTAP	53	216	6
NMTAP	53	240	7
NMTAP	53	264	0
NMTAP	53	288	1
NMTAP	53	312	2
NMTAP	53	336	3
NMTAP	53	360	4
EXTAP	54	0	6
NMTAP	54	24	7
NMTAP	54	48	0
NMTAP	54	72	1
EXTAP	54	96	3
NMTAP	54	120	4
NMTAP	54	144	5
NMTAP	54	168	6
EXTAP	54	192	0
NMTAP	54	216	1
NMTAP	54	240	2
NMTAP	54	264	3
EXTAP	54	288	5
NMTAP	54	312	6
NMTAP	54	336	7
NMTAP	54	360	0
EXTAP	55	0	2
NMTAP	55	24	3
NMTAP	55	48	4
NMTAP	55	72	5
BRTAP	55	96	7
NMTAP	55	120	0
NMTAP	55	144	1
NMTAP	55	168	2
BRTAP	55	192	4
NMTAP	55	216	5
NMTAP	55	240	6
NMTAP	55	264	7
BRTAP	55	288	1
NMTAP	55	312	2
NMTAP	55	336	3
NMTAP	55	360	4
EXTAP	56	0	6
NMTAP	56	24	7
NMTAP	56	48	0
NMTAP	56	72	1
EXTAP	56	96	3
NMTAP	56	120	4
NMTAP	56	144	5
NMTAP	56	168	6
EXTAP	56	192	0
NMTAP	56	216	1
NMTAP	56	240	2
NMTAP	56	264	3
EXTAP	56	288	5
NMTAP	56	312	6
NMTAP	56	336	7
NMTAP	56	360	0
EXTAP	57	0	2
NMTAP	57	24	3
NMTAP	57	48	4
NMTAP	57	72	5
BRTAP	57	96	7
NMTAP	57	120	0
BRTAP	57	144	1
NMTAP	57	168	2
BRTAP	57	192	4
NMTAP	57	216	5
NMTAP	57	240	6
NMTAP	57	264	7
EXTAP	57	288	1
NMTAP	57	312	2
NMTAP	57	336	3
NMTAP	57	360	4
EXTAP	58	0	6
NMTAP	58	16	7
NMTAP	58	32	0
NMTAP	58	48	1
NMTAP	58	64	2
NMTAP	58	80	3
NMTAP	58	96	4
NMTAP	58	112	5
NMTAP	58	128	6
NMTAP	58	144	7
NMTAP	58	160	0
NMTAP	58	176	1
NMTAP	58	192	2
NMTAP	58	208	3
NMTAP	58	224	4
NMTAP	58	240	5
NMTAP	58	256	6
NMTAP	58	272	7
NMTAP	58	288	0
NMTAP	58	304	1
NMTAP	58	320	2
NMTAP	58	336	3
NMTAP	58	352	4
NMTAP	58	368	5
BRTAP	59	0	7
NMTAP	59	16	0
NMTAP	59	32	1
NMTAP	59	48	2
NMTAP	59	64	3
NMTAP	59	80	4
NMTAP	59	96	5
NMTAP	59	112	6
NMTAP	59	128	7
NMTAP	59	144	0
NMTAP	59	160	1
NMTAP	59	176	2
NMTAP	59	192	3
NMTAP	59	208	4
NMTAP	59	224	5
NMTAP	59	240	6
NMTAP	59	256	7
NMTAP	59	272	0
NMTAP	59	288	1
NMTAP	59	304	2
NMTAP	59	320	3
NMTAP	59	336	4
NMTAP	59	352	5
NMTAP	59	368	6
BRTAP	60	0	0
NMTAP	60	16	1
NMTAP	60	32	2
NMTAP	60	48	3
NMTAP	60	64	4
NMTAP	60	80	5
BRTAP	60	96	7
NMTAP	60	112	0
NMTAP	60	128	1
NMTAP	60	144	2
NMTAP	60	160	3
NMTAP	60	176	4
BRTAP	60	192	6
NMTAP	60	208	7
NMTAP	60	224	0
NMTAP	60	240	1
NMTAP	60	256	2
NMTAP	60	272	3
BRTAP	60	288	5
NMTAP	60	304	6
NMTAP	60	320	7
NMTAP	60	336	0
NMTAP	60	352	1
NMTAP	60	368	2
BRTAP	61	0	4
NMTAP	61	16	5
NMTAP	61	32	6
NMTAP	61	48	7
NMTAP	61	64	0
NMTAP	61	80	1
BRTAP	61	96	3
NMTAP	61	112	4
NMTAP	61	128	5
NMTTP	61	144	1	E	1	M1
NMTAP	61	144	6
NMTAP	61	160	7
NMTAP	61	176	0
BRTAP	61	192	2
NMTAP	61	208	3
NMTAP	61	224	4
NMTAP	61	240	5
NMTAP	61	256	6
NMTAP	61	272	7
BRTAP	61	288	1
NMTAP	61	304	2
NMTAP	61	320	3
NMTAP	61	336	4
NMTAP	61	352	5
NMTAP	61	368	6
BRTAP	62	0	0
NMTAP	62	12	1
NMTAP	62	24	2
NMTAP	62	36	3
NMTAP	62	48	4
NMTAP	62	60	5
NMTAP	62	72	6
NMTAP	62	84	7
NMTAP	62	96	0
NMTAP	62	108	1
NMTAP	62	120	2
NMTAP	62	132	3
NMTAP	62	144	4
NMTAP	62	156	5
NMTAP	62	168	6
NMTAP	62	180	7
BRTAP	62	192	2
NMTAP	62	204	3
NMTAP	62	216	4
NMTAP	62	228	5
NMTAP	62	240	6
NMTAP	62	252	7
NMTAP	62	264	0
NMTAP	62	276	1
NMTAP	62	288	2
NMTAP	62	300	3
NMTAP	62	312	4
NMTAP	62	324	5
NMTAP	62	336	6
NMTAP	62	348	7
NMTAP	62	360	0
NMTAP	62	372	1
BRTAP	63	0	3
NMTAP	63	12	4
NMTAP	63	24	5
NMTAP	63	36	6
NMTAP	63	48	7
NMTAP	63	60	0
NMTAP	63	72	1
NMTAP	63	84	2
NMTAP	63	96	3
NMTAP	63	108	4
NMTAP	63	120	5
NMTAP	63	132	6
NMTAP	63	144	7
NMTAP	63	156	0
NMTAP	63	168	1
NMTAP	63	180	2
BRTAP	63	192	4
NMTAP	63	204	5
NMTAP	63	216	6
NMTAP	63	228	7
NMTAP	63	240	0
NMTAP	63	252	1
NMTAP	63	264	2
NMTAP	63	276	3
NMTAP	63	288	4
NMTAP	63	300	5
NMTAP	63	312	6
NMTAP	63	324	7
NMTAP	63	336	0
NMTAP	63	348	1
NMTAP	63	360	2
NMTAP	63	372	3
BXTAP	64	0	5
EXTAP	64	8	6
EXTAP	64	16	7
EXTAP	64	24	0
EXTAP	64	32	1
EXTAP	64	40	2
BXTAP	64	48	3
EXTAP	64	56	4
EXTAP	64	64	5
EXTAP	64	72	6
EXTAP	64	80	7
EXTAP	64	88	0
EXTAP	64	96	1
EXTAP	64	104	2
EXTAP	64	112	3
EXTAP	64	120	4
EXTAP	64	128	5
EXTAP	64	136	6
EXTAP	64	144	7
EXTAP	64	152	0
EXTAP	64	160	1
EXTAP	64	168	2
EXTAP	64	176	3
EXTAP	64	184	4
EXTAP	64	192	5
EXTAP	64	200	6
EXTAP	64	208	7
EXTAP	64	216	0
EXTAP	64	224	1
EXTAP	64	232	2
EXTAP	64	240	3
EXTAP	64	248	4
EXTAP	64	256	5
EXTAP	64	264	6
EXTAP	64	272	7
EXTAP	64	280	0
EXTAP	64	288	1
EXTAP	64	296	2
EXTAP	64	304	3
EXTAP	64	312	4
EXTAP	64	320	5
EXTAP	64	328	6
EXTAP	64	336	7
EXTAP	64	344	0
EXTAP	64	352	1
EXTAP	64	360	2
EXTAP	64	368	3
EXTAP	64	376	4
BXHLD	65	0	1	480
BXHLD	65	0	5	408

T_REC_TAP	289
T_REC_BRK	33
T_REC_XTP	58
T_REC_BXX	13
T_REC_HLD	77
T_REC_XHO	0
T_REC_BHO	0
T_REC_BXH	3
T_REC_STR	74
T_REC_BST	5
T_REC_XST	0
T_REC_XBS	3
T_REC_TTP	36
T_REC_THO	1
T_REC_SLD	81
T_REC_BSL	1
T_REC_ALL	674
T_NUM_TAP	457
T_NUM_BRK	58
T_NUM_HLD	78
T_NUM_SLD	81
T_NUM_ALL	674
T_JUDGE_TAP	511
T_JUDGE_HLD	141
T_JUDGE_SLD	82
T_JUDGE_ALL	734
TTM_EACHPAIRS	21
TTM_SCR_TAP	228500
TTM_SCR_BRK	150800
TTM_SCR_HLD	78000
TTM_SCR_SLD	121500
TTM_SCR_ALL	578800
TTM_SCR_S	555850
TTM_SCR_SS	573000
TTM_RAT_ACV	10101

