VERSION	0.00.00	1.04.00
FES_MODE	1
BPM_DEF	150.000	150.000	150.000	150.000
MET_DEF	4	4
RESOLUTION	384
CLK_DEF	384
COMPATIBLE_CODE	MA2

BPM	0	0	150.000
MET	0	0	4	4

BRHLD	2	0	0	1440
NMTAP	6	0	1
NMTAP	6	96	1
NMTAP	6	192	1
NMTAP	6	192	3
NMTAP	6	288	1
NMTAP	6	288	3
NMTAP	7	0	1
NMTAP	7	0	3
NMSTR	7	0	6
NMTAP	7	96	1
NMTAP	7	96	3
NMSTR	7	96	6
NMTAP	7	192	1
NMTAP	7	192	3
NMSTR	7	192	4
NMSTR	7	192	6
NMTAP	7	288	1
NMTAP	7	288	3
NMSTR	7	288	4
NMSTR	7	288	6
NMHLD	8	0	1	384
NMTAP	8	0	3
NMSTR	8	0	4
NMSTR	8	0	6
NMTAP	8	96	3
NMSTR	8	96	4
NMSTR	8	96	6
NMHLD	8	192	3	8256
NMSTR	8	192	4
NMSTR	8	192	6
NMSTR	8	288	4
NMSTR	8	288	6
NMHLD	9	0	4	8448
NMSTR	9	0	6
BRTAP	9	96	1
BRSTR	9	96	6
BRTAP	9	192	1
BRSTR	9	192	6
BRTAP	9	288	0
BRSTR	9	288	7
NMTAP	10	0	0
NMSI_	10	0	0	96	144	2
NMSTR	10	0	7
NMSI_	10	0	7	96	144	5
NMTAP	11	0	1
NMSTR	11	0	6
NMTAP	11	96	1
NMSTR	11	96	6
NMTAP	11	192	2
NMSTR	11	192	5
NMTAP	11	288	2
NMSTR	11	288	5
NMTAP	12	0	2
NMSI_	12	0	2	96	144	0
NMSTR	12	0	5
NMSI_	12	0	5	96	144	7
NMTAP	13	0	0
NMSTR	13	0	7
NMTAP	13	96	0
NMSTR	13	96	7
NMTAP	13	192	1
BXHLD	13	192	6	1536
NMTAP	13	288	1
NMTAP	14	0	2
NMSI_	14	0	2	96	144	7
NMTAP	15	0	7
NMSCR	15	0	7	96	144	2
NMTAP	16	0	2
NMSI_	16	0	2	96	96	5
CNSI_	16	192	5	0	96	7
CNSI_	16	288	7	0	96	1
BXHLD	17	192	1	1536
NMSTR	18	0	5
NMSI_	18	0	5	96	144	0
NMSTR	19	0	0
NMSCL	19	0	0	96	144	5
NMSTR	20	0	5
NMSI_	20	0	5	96	96	2
CNSI_	20	192	2	0	96	0
CNSI_	20	288	0	0	96	6
NMHLD	21	192	6	768
NMTAP	22	0	2
NMSCR	22	0	2	96	192	5
NMTTP	23	0	4	B	0	M1
NMTTP	23	96	3	B	0	M1
NMHLD	23	192	1	768
NMSTR	24	0	5
NMSCL	24	0	5	96	192	2
NMTTP	25	0	3	B	0	M1
NMTTP	25	96	4	B	0	M1
NMHLD	25	192	6	768
NMTTP	26	0	3	E	0	M1
NMTTP	26	96	4	E	0	M1
NMTTP	26	192	5	E	0	M1
NMTTP	26	288	6	E	0	M1
NMTTP	27	0	7	E	0	M1
NMTTP	27	96	0	E	0	M1
NMHLD	27	192	1	768
NMTTP	28	0	5	E	0	M1
NMTTP	28	96	4	E	0	M1
NMTTP	28	192	3	E	0	M1
NMTTP	28	288	2	E	0	M1
NMTTP	29	0	1	E	0	M1
NMTTP	29	96	0	E	0	M1
NMHLD	29	192	6	384
BRHLD	30	0	0	576
NMTTP	30	192	1	B	0	M1
NMTTP	30	192	2	B	0	M1
BRHLD	31	0	3	192
BRHLD	31	0	7	384
NMTTP	31	192	5	B	0	M1
NMTTP	31	192	6	B	0	M1
NMHLD	32	0	1	9600
NMHLD	32	192	3	384
BXHLD	33	0	6	12480
BRTAP	33	192	4
NMTAP	34	0	3
NMSI_	34	0	3	96	96	0
NMSTR	34	192	4
NMSI_	34	192	4	96	96	7
NMTAP	35	0	3
NMSI_	35	0	3	96	96	0
NMSTR	35	192	4
NMSI_	35	192	4	96	96	7
NMTAP	36	0	0
NMTAP	36	96	0
NMTAP	36	192	2
NMSTR	36	192	7
NMTAP	36	288	2
NMSTR	36	288	7
NMTAP	37	0	0
NMSTR	37	0	5
NMTAP	37	96	0
NMSTR	37	96	5
BRTAP	37	192	2
BRSTR	37	192	7
NMSTR	38	0	7
NMSI_	38	0	7	96	96	4
NMSTR	38	192	3
NMSI_	38	192	3	96	96	0
NMSTR	39	0	7
NMSI_	39	0	7	96	96	4
NMSTR	39	192	3
NMSI_	39	192	3	96	96	0
NMSTR	40	0	4
NMSTR	40	96	4
NMTAP	40	192	0
NMSTR	40	192	5
NMTAP	40	288	0
NMSTR	40	288	5
NMTAP	41	0	2
NMSTR	41	0	7
NMTAP	41	96	0
NMSTR	41	96	5
NMTAP	41	192	2
NMSTR	41	192	7
BRTAP	41	288	0
BRSTR	41	288	5
NMTAP	42	0	0
NMSI_	42	0	0	96	96	3
NMSTR	42	192	7
NMSI_	42	192	7	96	96	4
NMTAP	43	0	3
NMTAP	43	96	3
NMTAP	43	192	2
NMSTR	43	192	4
NMTAP	43	288	2
NMSTR	43	288	4
NMSTR	44	0	4
NMSI_	44	0	4	96	96	7
NMTAP	44	192	3
NMSI_	44	192	3	96	96	0
NMSTR	45	0	7
NMSTR	45	96	7
NMTAP	45	192	0
NMSTR	45	192	5
NMTAP	45	288	0
NMSTR	45	288	5
NMTAP	46	0	0
NMSI_	46	0	0	96	96	3
NMSTR	46	0	4
NMSTR	46	192	4
NMSI_	46	192	4	96	96	7
NMTAP	47	0	3
NMTAP	47	96	3
NMTAP	47	192	2
NMSTR	47	192	7
NMTAP	47	288	0
NMSTR	47	288	5
NMSTR	48	0	4
NMSI_	48	0	4	96	96	7
NMTAP	48	192	0
NMSI_	48	192	0	96	96	3
NMSTR	49	0	7
NMSTR	49	96	7
NMTAP	49	192	3
NMSTR	49	192	5
NMTAP	49	288	2
NMSTR	49	288	5
BRHLD	50	0	0	1344
BRHLD	50	0	5	1344
NMTAP	54	0	2
NMSCR	54	0	2	96	96	5
NMSTR	54	192	7
NMSI_	54	192	7	96	96	3
NMTAP	55	0	2
NMSCR	55	0	2	96	96	5
NMSTR	55	192	7
NMSI_	55	192	7	96	96	3
NMTAP	56	0	2
NMTAP	56	96	2
NMTAP	56	192	2
NMSTR	56	192	7
NMTAP	56	288	2
NMSTR	56	288	7
BXHLD	57	0	2	3264
NMSTR	57	0	5
NMSTR	57	96	5
BRSTR	57	192	4
NMTAP	58	0	1
BRSI_	58	0	1	96	96	4
NMSTR	58	192	5
BRSI_	58	192	5	96	96	0
NMTAP	59	0	1
BRSI_	59	0	1	96	96	4
NMSTR	59	192	5
BRSI_	59	192	5	96	96	0
NMTAP	60	0	1
NMTAP	60	96	1
NMTAP	60	192	3
NMSTR	60	192	7
NMTAP	60	288	3
NMSTR	60	288	7
NMTAP	61	0	1
NMSTR	61	0	5
NMTAP	61	96	3
NMSTR	61	96	7
NMTAP	61	192	1
NMSTR	61	192	5
BRTAP	61	288	3
BRSTR	61	288	7
NMTAP	62	0	1
NMSTR	62	0	5
BRSI_	62	0	5	96	96	0
NMTAP	62	192	1
BRSI_	62	192	1	96	96	4
NMSTR	63	0	5
BRSI_	63	0	5	96	96	0
NMTAP	63	192	1
BRSI_	63	192	1	96	96	4
NMSTR	64	0	5
NMSTR	64	96	5
NMTAP	64	192	3
NMSTR	64	192	7
NMTAP	64	288	3
NMSTR	64	288	7
NMTAP	65	0	1
NMSTR	65	0	5
NMTAP	65	96	3
NMSTR	65	96	7
BXHLD	65	192	1	8160
BXHLD	65	192	5	8160
BRTAP	66	0	0
BRSCR	66	0	0	96	96	3
NMSTR	66	0	4
BRSCR	66	0	4	96	96	7
NMTAP	66	288	3
NMSTR	66	288	7
NMTAP	67	0	3
BRSCL	67	0	3	96	96	0
NMSTR	67	0	7
BRSCL	67	0	7	96	96	4
NMTAP	67	288	0
NMSTR	67	288	4
NMTAP	68	0	0
BRSV_	68	0	0	96	96	2
NMSTR	68	0	4
BRSV_	68	0	4	96	96	6
NMTAP	68	288	2
NMSTR	68	288	6
NMTAP	69	0	2
BRSV_	69	0	2	96	96	0
NMSTR	69	0	6
BRSV_	69	0	6	96	96	4
NMTAP	69	288	0
NMSTR	69	288	4
NMHLD	70	0	0	96
NMHLD	70	0	4	96
NMTAP	70	192	0
NMSTR	70	192	4
NMTAP	70	288	2
NMSTR	70	288	6
NMHLD	71	0	0	96
NMHLD	71	0	4	96
NMTAP	71	192	0
NMSTR	71	192	4
NMTAP	71	288	2
NMSTR	71	288	6
NMTAP	72	0	0
NMSCR	72	0	0	96	96	3
NMSTR	72	0	7
NMSTR	72	192	7
NMSCL	72	192	7	96	96	4
NMHLD	73	0	3	288
BRTAP	73	288	7
NMTAP	74	0	2
NMSI_	74	0	2	96	96	7
NMSTR	74	0	6
NMSI_	74	0	6	96	96	3
NMSTR	74	288	3
NMTAP	74	288	7
NMSTR	75	0	3
NMSI_	75	0	3	96	96	6
NMTAP	75	0	7
NMSI_	75	0	7	96	96	2
NMTAP	75	288	2
NMSTR	75	288	6
NMTAP	76	0	2
NMSI_	76	0	2	96	96	7
NMSTR	76	0	6
NMSI_	76	0	6	96	96	3
NMSTR	76	288	3
NMTAP	76	288	7
NMSTR	77	0	3
NMSI_	77	0	3	96	96	6
NMTAP	77	0	7
NMSI_	77	0	7	96	96	2
NMTAP	77	288	2
NMSTR	77	288	6
NMSTR	78	0	6
NMSI_	78	0	6	96	96	3
NMTAP	78	192	2
NMSI_	78	192	2	96	96	7
NMSTR	79	0	6
NMSI_	79	0	6	96	96	3
NMTAP	79	192	2
NMSI_	79	192	2	96	96	7
NMSTR	80	0	6
NMSCL	80	0	6	96	96	3
NMTAP	80	192	2
NMSCL	80	192	2	96	96	7
NMSTR	81	0	4
NMSTR	81	96	4
NMTAP	81	192	0
NMSTR	81	192	4
NMTAP	81	288	0
NMSXL	81	288	0	96	192	0
NMSTR	81	288	4
NMSXL	81	288	4	96	192	4
EXTAP	82	288	0
EXSTR	82	288	4
BRTAP	83	0	0
BRSTR	83	0	4
NMTAP	83	96	2
NMSTR	83	96	6
NMTAP	83	192	0
NMSTR	83	192	4
NMTAP	83	288	2
NMSTR	83	288	6
NMTAP	84	0	0
NMSTR	84	0	4
NMTAP	84	96	2
NMSTR	84	96	6
NMTAP	84	192	0
NMSTR	84	192	4
NMTAP	84	288	2
NMSTR	84	288	6
BRTAP	85	0	0
BRSTR	85	0	4
BRTAP	85	96	2
BRSTR	85	96	6
BRTAP	85	192	0
BRSTR	85	192	4
BRTAP	85	288	3
BRSTR	85	288	7
NMTAP	86	0	2
NMSTR	86	0	4
NMTAP	86	48	2
NMSTR	86	48	4
NMTAP	86	96	2
NMSTR	86	96	4
NMTAP	86	144	2
NMSTR	86	144	4
NMTAP	86	192	2
NMSTR	86	192	4
BRTAP	86	288	0
NMSF_	86	288	0	96	288	4
BRSTR	86	288	6
NMSF_	86	288	6	96	288	2

T_REC_TAP	118
T_REC_BRK	15
T_REC_XTP	1
T_REC_BXX	0
T_REC_HLD	15
T_REC_XHO	0
T_REC_BHO	6
T_REC_BXH	6
T_REC_STR	123
T_REC_BST	13
T_REC_XST	1
T_REC_XBS	0
T_REC_TTP	20
T_REC_THO	0
T_REC_SLD	52
T_REC_BSL	16
T_REC_ALL	386
T_NUM_TAP	263
T_NUM_BRK	56
T_NUM_HLD	15
T_NUM_SLD	52
T_NUM_ALL	386
T_JUDGE_TAP	291
T_JUDGE_HLD	1492
T_JUDGE_SLD	68
T_JUDGE_ALL	1851
TTM_EACHPAIRS	104
TTM_SCR_TAP	131500
TTM_SCR_BRK	145600
TTM_SCR_HLD	15000
TTM_SCR_SLD	78000
TTM_SCR_ALL	370100
TTM_SCR_S	353600
TTM_SCR_SS	364500
TTM_RAT_ACV	10153

