VERSION	0.00.00	1.05.00
FES_MODE	0
BPM_DEF	205.000	205.000	205.000	205.000
MET_DEF	4	4
RESOLUTION	384
CLK_DEF	384
COMPATIBLE_CODE	MA2

BPM	0	0	205.000
MET	0	0	4	4
MET	118	0	8	3
MET	118	144	4	4

NMTAP	1	240	3
NMTAP	1	264	4
NMTAP	1	288	3
NMTAP	1	336	2
NMTAP	2	0	1
NMHLD	2	48	0	144
NMTAP	2	96	3
NMTAP	2	120	4
NMTAP	2	144	5
NMTAP	2	168	6
NMSTR	2	192	7
NMSSR	2	192	7	96	192	3
EXTAP	3	0	2
EXTAP	3	64	2
EXTAP	3	128	2
NMTAP	3	192	1
NMTAP	3	192	3
NMTAP	3	256	0
NMTAP	3	256	2
NMTAP	3	320	1
NMTAP	3	320	7
BRTAP	4	0	0
BRTAP	4	0	6
BRTAP	4	96	4
BRTAP	4	96	5
BRTAP	4	192	1
BRTAP	4	192	7
BRTAP	4	288	2
BRTAP	4	288	3
NMSTR	5	0	1
NMSI_	5	0	1	96	48	4
NMTAP	5	96	1
NMSTR	5	96	5
NMSI_	5	96	5	96	48	7
NMHLD	5	192	3	96
NMTAP	5	192	5
NMTAP	5	336	2
NMSTR	5	336	7
NMSCL	5	336	7	96	96	3
NMSTR	6	48	3
NMSCL	6	48	3	96	96	7
NMTAP	6	144	7
NMTAP	6	240	3
EXTAP	6	288	1
EXTAP	6	288	5
NMSTR	7	0	6
NMSI_	7	0	6	96	48	3
NMSTR	7	96	2
NMSI_	7	96	2	96	48	0
NMTAP	7	96	6
NMTAP	7	192	2
NMHLD	7	192	4	96
NMSTR	7	336	0
NMSCR	7	336	0	96	96	4
NMTAP	7	336	5
NMSTR	8	48	4
NMSCR	8	48	4	96	96	0
NMTAP	8	144	0
NMTAP	8	240	4
EXTAP	8	288	2
EXTAP	8	288	6
NMSTR	9	0	1
NMSI_	9	0	1	96	48	4
NMTAP	9	96	1
NMSTR	9	96	5
NMSI_	9	96	5	96	48	7
NMHLD	9	192	3	96
NMTAP	9	192	5
NMTAP	9	336	2
NMSTR	9	336	7
NMSCL	9	336	7	96	96	3
NMSTR	10	48	3
NMSCL	10	48	3	96	96	7
NMTAP	10	144	7
NMTAP	10	240	3
EXTAP	10	288	1
EXTAP	10	288	5
NMSTR	11	0	6
NMSI_	11	0	6	96	48	3
NMSTR	11	96	2
NMSI_	11	96	2	96	48	0
NMTAP	11	96	6
NMTAP	11	192	2
NMHLD	11	192	4	96
NMSTR	11	336	0
NMSLR	11	336	0	96	96	4
NMTAP	11	336	5
NMTAP	12	48	4
NMTAP	12	144	5
NMTAP	12	240	2
NMTAP	12	240	6
EXTAP	12	288	2
EXSTR	12	288	6
NMSCR	12	288	6	96	48	7
NMTTP	13	0	1	E	1	M1
NMTTP	13	0	1	A	0	M1
BRTAP	13	0	6
CNSI_	13	48	7	0	48	2
EXTAP	13	144	0
EXHLD	13	192	0	96
EXTAP	13	288	3
EXTAP	13	336	3
NMTAP	14	144	6
NMTAP	14	192	4
NMTAP	14	240	5
NMTAP	14	288	2
NMTAP	14	336	3
NMHLD	15	0	1	96
NMTAP	15	96	3
NMTAP	15	144	2
NMTAP	15	192	5
NMTAP	15	240	4
NMTAP	15	288	6
NMHLD	15	336	7	96
NMTTP	16	48	4	B	0	M1
NMTTP	16	48	4	A	0	M1
NMTTP	16	48	5	B	0	M1
NMTTP	16	48	5	E	0	M1
NMTTP	16	48	5	A	0	M1
NMTTP	16	48	5	D	1	M1
NMTTP	16	144	2	B	0	M1
NMTTP	16	144	2	A	0	M1
NMTTP	16	144	3	B	0	M1
NMTTP	16	144	3	E	0	M1
NMTTP	16	144	3	A	0	M1
NMTTP	16	144	3	D	1	M1
EXSTR	16	288	6
NMSCR	16	288	6	96	48	7
NMTTP	17	0	1	E	1	M1
NMTTP	17	0	1	A	0	M1
BRTAP	17	0	6
CNSI_	17	48	7	0	48	2
EXTAP	17	144	0
EXSTR	17	192	0
NMSI_	17	192	0	96	48	4
EXTAP	17	288	7
EXSTR	17	336	7
NMSI_	17	336	7	96	48	3
NMTAP	18	144	1
NMTAP	18	192	0
NMTAP	18	240	5
NMTAP	18	288	3
NMTAP	18	336	7
NMTAP	19	0	5
NMTAP	19	96	1
NMTAP	19	144	1
NMTAP	19	192	6
NMTAP	19	240	4
NMTAP	19	288	2
NMSTR	19	336	5
NMSI_	19	336	5	96	48	2
NMSTR	20	48	1
NMSI_	20	48	1	96	48	6
EXTAP	20	288	7
NMTAP	21	0	6
NMTAP	21	48	6
NMTAP	21	72	4
NMTAP	21	96	5
NMTAP	21	144	5
NMTAP	21	192	6
NMTAP	21	240	6
NMTAP	21	288	7
NMTAP	21	336	0
NMTAP	22	0	1
NMTAP	22	48	1
NMTAP	22	72	3
NMTAP	22	96	2
NMTAP	22	144	2
NMTAP	22	192	4
NMTAP	22	240	5
NMTAP	22	288	4
NMTAP	22	336	3
NMHLD	23	0	2	96
NMHLD	23	96	0	96
NMTAP	23	192	7
NMTAP	23	240	7
NMTAP	23	288	5
NMTAP	23	336	5
BRTAP	24	48	6
BRTAP	24	48	7
BRTAP	24	144	0
BRTAP	24	144	1
NMTTP	24	288	6	B	0	M1
NMTTP	24	288	7	B	0	M1
NMTTP	24	288	7	E	1	M1
NMTAP	25	0	1
NMTAP	25	48	1
NMTAP	25	72	3
NMTAP	25	96	2
NMTAP	25	144	2
NMTAP	25	192	1
NMTAP	25	240	1
NMTAP	25	288	0
NMTAP	25	336	7
NMTAP	26	0	6
NMTAP	26	48	6
NMTAP	26	72	4
NMTAP	26	96	5
NMTAP	26	144	5
NMTAP	26	192	3
NMTAP	26	240	2
NMTAP	26	288	4
NMTAP	26	336	5
NMHLD	27	0	5	96
NMHLD	27	96	7	96
NMTAP	27	192	0
NMTAP	27	240	0
NMTAP	27	288	2
NMTAP	27	336	2
BRTAP	28	48	0
BRTAP	28	48	1
BRTAP	28	144	6
BRTAP	28	144	7
NMTAP	28	192	5
NMTAP	28	240	4
NMTAP	28	288	3
NMTAP	28	336	2
NMSTR	29	0	2
NMSCL	29	0	2	96	48	0
NMTAP	29	48	3
NMTAP	29	96	3
NMSTR	29	192	5
NMSCR	29	192	5	96	48	7
NMTAP	29	288	3
NMSTR	30	0	2
NMSCL	30	0	2	96	48	0
NMTAP	30	96	4
NMSTR	30	192	5
NMSLR	30	192	5	96	96	1
NMTAP	30	240	4
NMTAP	30	288	4
NMTAP	31	96	3
NMTAP	31	192	3
NMTAP	31	192	4
NMSTR	31	288	2
NMSI_	31	288	2	96	48	0
NMSTR	31	288	5
NMSI_	31	288	5	96	48	7
NMTAP	32	0	2
NMTAP	32	0	5
NMTAP	32	240	1
NMSTR	32	288	3
NMSI_	32	288	3	96	48	7
NMTAP	32	336	2
NMTAP	33	0	1
NMTAP	33	0	3
NMTAP	33	96	0
NMTAP	33	144	0
NMTAP	33	192	6
NMTAP	33	240	6
NMTAP	33	288	7
NMSTR	33	336	7
NMSCL	33	336	7	96	48	4
NMSTR	34	48	7
NMSCR	34	48	7	96	48	2
NMTAP	34	144	7
NMTAP	34	240	4
NMTAP	34	288	4
NMTAP	34	336	3
NMTAP	34	336	5
NMTAP	35	0	3
NMTAP	35	0	5
NMTAP	35	96	2
NMTAP	35	144	1
NMTAP	35	192	0
NMTAP	35	240	7
NMTAP	35	288	6
BRTAP	35	336	4
BRTAP	35	336	5
BRTAP	36	48	1
BRTAP	36	48	3
BRTAP	36	144	4
BRTAP	36	144	6
NMTAP	36	192	3
NMTAP	36	204	2
NMTAP	36	216	1
NMTAP	36	228	0
NMTAP	36	240	7
NMTAP	36	252	6
NMTAP	36	264	5
NMTAP	36	276	4
NMTAP	36	288	3
NMSTR	37	0	0
NMSI_	37	0	0	96	48	4
NMSTR	37	0	1
NMSI_	37	0	1	96	48	5
NMTAP	37	96	0
NMTAP	37	96	1
NMSTR	37	192	6
NMSI_	37	192	6	96	48	2
NMTAP	37	192	7
NMTAP	37	288	0
NMSTR	37	336	0
NMSI_	37	336	0	96	48	4
NMTAP	38	0	0
NMSTR	38	48	0
NMSCR	38	48	0	96	96	5
EXTAP	38	144	6
NMTAP	38	336	7
NMTAP	39	0	7
NMTAP	39	48	4
NMTAP	39	96	4
NMTAP	39	144	6
NMTAP	39	192	6
NMTAP	39	240	0
NMSTR	39	288	0
NMSI_	39	288	0	96	48	4
NMTAP	39	336	4
NMTAP	40	0	0
NMSTR	40	0	6
NMSI_	40	0	6	96	48	2
NMSTR	40	96	3
NMSI_	40	96	3	96	48	0
NMTAP	40	96	6
NMTAP	40	192	3
NMTAP	40	192	5
BRTAP	40	288	6
NMSTR	41	0	6
NMSI_	41	0	6	96	48	2
NMSTR	41	0	7
NMSI_	41	0	7	96	48	3
NMTAP	41	96	6
NMTAP	41	96	7
NMSTR	41	192	0
NMSCL	41	192	0	96	48	5
NMTAP	41	192	1
NMTAP	41	288	4
NMSTR	41	336	4
NMSXR	41	336	4	96	96	4
NMTAP	42	0	4
NMSTR	42	48	4
NMSXL	42	48	4	96	96	4
EXTAP	42	144	0
NMTAP	42	336	0
NMTAP	43	0	0
NMTAP	43	48	3
NMTAP	43	96	3
NMTAP	43	144	1
NMTAP	43	192	1
NMTAP	43	240	7
NMSTR	43	288	7
NMSI_	43	288	7	96	48	3
NMTAP	43	336	3
NMSTR	44	0	1
NMSI_	44	0	1	96	48	5
NMTAP	44	0	7
NMTAP	44	96	1
NMSTR	44	96	4
NMSI_	44	96	4	96	48	7
NMSTR	44	192	3
NMSI_	44	192	3	96	48	1
NMTAP	44	192	4
NMTAP	44	288	0
NMTAP	44	288	3
NMSTR	45	0	0
NMSF_	45	0	0	96	48	4
BRTAP	45	96	0
NMSTR	45	192	6
NMSI_	45	192	6	96	48	2
NMTAP	45	192	7
NMTAP	45	288	0
NMSTR	45	336	0
NMSI_	45	336	0	96	48	4
NMTAP	46	0	0
NMSTR	46	48	0
NMSCR	46	48	0	96	96	5
EXTAP	46	144	6
NMTAP	46	336	7
NMTAP	47	0	7
NMTAP	47	48	4
NMTAP	47	96	4
NMTAP	47	144	6
NMTAP	47	192	6
NMTAP	47	240	0
NMSTR	47	288	0
NMSCR	47	288	0	96	48	3
NMTAP	47	336	5
NMTAP	48	0	0
NMSTR	48	0	7
NMSCL	48	0	7	96	48	4
NMSTR	48	96	1
NMSI_	48	96	1	96	48	3
NMTAP	48	96	7
NMTAP	48	192	1
NMTAP	48	192	7
BRTAP	48	288	6
NMSTR	49	0	6
NMSI_	49	0	6	96	48	2
NMSTR	49	0	7
NMSI_	49	0	7	96	48	3
NMTAP	49	96	6
NMTAP	49	96	7
NMSTR	49	192	0
NMSCL	49	192	0	96	48	5
NMTAP	49	192	1
NMTAP	49	288	4
NMSTR	49	336	4
NMSI_	49	336	4	96	48	0
NMTAP	50	0	4
NMSTR	50	48	4
NMSXL	50	48	4	96	96	5
NMSXR	50	48	4	96	96	3
NMTAP	50	336	0
NMTAP	51	0	0
NMTAP	51	48	3
NMTAP	51	96	3
NMTAP	51	144	1
NMTAP	51	192	1
NMTAP	51	240	7
NMSTR	51	288	7
NMSI_	51	288	7	96	48	3
NMTAP	51	336	3
NMSTR	52	0	1
NMSI_	52	0	1	96	48	6
NMTAP	52	0	7
NMTAP	52	96	1
NMSTR	52	96	5
NMSI_	52	96	5	96	48	7
NMSTR	52	192	2
NMSI_	52	192	2	96	48	0
NMTAP	52	192	5
NMTAP	52	288	2
NMSTR	52	288	4
NMSI_	52	288	4	96	48	7
NMTAP	53	0	3
NMTAP	53	0	4
NMTAP	53	96	2
NMHLD	53	192	1	96
NMTAP	53	192	3
NMTAP	53	288	3
NMTAP	53	336	2
NMTAP	53	336	4
NMTAP	54	48	3
NMTAP	54	48	5
NMTAP	54	144	4
NMHLD	54	144	6	96
NMTAP	54	240	4
BRTAP	54	288	5
NMTAP	55	0	4
NMTAP	55	96	5
NMTAP	55	192	4
NMHLD	55	192	6	96
NMTAP	55	288	4
NMTAP	55	336	3
NMTAP	55	336	5
NMTAP	56	48	2
NMTAP	56	48	4
NMHLD	56	144	1	96
NMTAP	56	144	3
NMTAP	56	240	3
BRTAP	56	288	2
NMTAP	57	0	0
NMTAP	57	96	1
NMTAP	57	192	0
NMHLD	57	192	2	96
NMTAP	57	288	0
NMTAP	57	336	1
NMTAP	57	336	7
NMTAP	58	48	0
NMTAP	58	48	6
NMHLD	58	144	5	96
NMTAP	58	144	7
NMTAP	58	240	7
BRTAP	58	288	6
NMTAP	59	0	7
NMTAP	59	96	6
NMHLD	59	192	5	96
NMTAP	59	192	7
NMTAP	59	288	7
NMTAP	59	336	0
NMTAP	59	336	6
NMTAP	60	48	1
NMTAP	60	48	7
NMTAP	60	144	0
NMHLD	60	144	2	96
NMTAP	60	240	0
NMTAP	60	288	1
NMHLD	61	0	2	96
NMHLD	61	0	4	96
NMTAP	61	160	6
NMTAP	61	192	6
NMTAP	61	288	4
NMTAP	61	352	3
NMTAP	61	352	5
NMTAP	62	160	2
NMTAP	62	192	3
NMTAP	62	256	3
NMTAP	62	288	2
NMTAP	62	352	2
NMSTR	63	0	3
NMSCR	63	0	3	96	48	6
NMSTR	63	96	0
NMSCR	63	96	0	96	48	3
NMHLD	63	192	7	96
NMSTR	63	288	5
NMSUL	63	288	5	96	192	3
NMTAP	63	352	5
BRSTR	65	0	6
NMSCL	65	0	6	96	48	3
NMTAP	65	160	1
NMTAP	65	192	1
NMTAP	65	288	3
NMTAP	65	352	2
NMTAP	65	352	4
NMTAP	66	160	5
NMTAP	66	192	4
NMTAP	66	256	4
NMTAP	66	288	6
NMTAP	66	352	6
NMTAP	67	0	4
NMTAP	67	96	1
NMTAP	67	160	1
NMTAP	67	192	3
NMTAP	67	256	3
NMTAP	67	288	2
NMTAP	67	352	2
NMTAP	68	0	6
NMTAP	68	32	6
NMTAP	68	64	6
NMTAP	68	96	4
NMTAP	68	128	4
NMTAP	68	160	4
NMTAP	68	192	3
NMTAP	68	192	5
BRTAP	68	288	2
BRTAP	68	288	6
NMTAP	69	0	1
NMTAP	69	0	3
NMTAP	69	48	2
NMTAP	69	72	2
NMTAP	69	96	2
NMTAP	69	144	1
NMTAP	69	144	3
NMTAP	69	192	0
NMTAP	69	240	0
NMTAP	69	288	7
NMTAP	69	336	7
NMTAP	70	0	4
NMTAP	70	0	6
NMTAP	70	48	5
NMTAP	70	72	5
NMTAP	70	96	5
NMTAP	70	144	4
NMTAP	70	144	6
NMTAP	70	192	3
NMTAP	70	240	2
NMTAP	70	288	4
NMTAP	70	336	5
NMHLD	71	0	5	96
NMHLD	71	96	7	96
NMTAP	71	192	0
NMTAP	71	240	0
NMTAP	71	288	2
NMTAP	71	336	2
BRTAP	72	48	0
BRTAP	72	48	1
BRTAP	72	144	6
BRTAP	72	144	7
NMTTP	72	288	2	B	0	M1
NMTTP	72	288	3	B	0	M1
NMTTP	72	288	3	E	0	M1
NMTAP	73	0	4
NMTAP	73	0	6
NMTAP	73	48	5
NMTAP	73	72	5
NMTAP	73	96	5
NMTAP	73	144	4
NMTAP	73	144	6
NMTAP	73	192	7
NMTAP	73	240	7
NMTAP	73	288	0
NMTAP	73	336	0
NMTAP	74	0	1
NMTAP	74	0	3
NMTAP	74	48	2
NMTAP	74	72	2
NMTAP	74	96	2
NMTAP	74	144	1
NMTAP	74	144	3
NMTAP	74	192	4
NMTAP	74	240	5
NMTAP	74	288	3
NMTAP	74	336	2
NMHLD	75	0	2	96
NMHLD	75	96	0	96
NMTAP	75	192	7
NMTAP	75	240	7
NMTAP	75	288	5
NMSTR	75	336	5
NMSI_	75	336	5	96	48	7
NMSTR	76	48	5
NMSCL	76	48	5	96	96	0
BRTAP	77	0	0
BRTAP	77	0	1
BRTAP	77	48	2
BRTAP	77	48	3
BRTAP	77	96	4
BRTAP	77	96	5
BRTAP	77	144	6
BRTAP	77	144	7
BRTAP	77	192	0
BRTAP	77	216	1
BRTAP	77	240	2
BRTAP	77	264	3
BRTAP	77	288	7
BRTAP	77	300	6
BRTAP	77	312	5
BRTAP	77	324	4
BRTAP	77	336	3
BRTAP	77	348	2
BRTAP	77	360	1
BRTAP	77	372	0
BRTAP	78	0	7
NMTTP	79	0	0	B	0	M1
NMTTP	79	0	0	A	0	M1
NMTTP	79	0	1	B	0	M1
NMTTP	79	0	1	E	0	M1
NMTTP	79	0	1	A	0	M1
NMTTP	79	0	2	B	0	M1
NMTTP	79	0	2	A	0	M1
NMTTP	79	0	3	B	0	M1
NMTTP	79	0	3	E	0	M1
NMTTP	79	0	3	A	0	M1
NMTTP	79	0	4	B	0	M1
NMTTP	79	0	4	E	0	M1
NMTTP	79	0	5	A	0	M1
NMTTP	79	0	5	D	0	M1
NMTTP	79	0	6	A	0	M1
NMTTP	79	0	6	D	0	M1
NMTTP	79	0	7	B	0	M1
NMTTP	79	0	7	D	0	M1
NMTAP	79	240	6
NMSTR	79	288	4
NMSI_	79	288	4	96	48	0
NMTAP	79	336	5
NMTAP	80	0	4
NMTAP	80	0	6
NMTAP	80	96	7
NMTAP	80	144	7
NMTAP	80	192	1
NMTAP	80	240	1
NMTAP	80	288	0
NMSTR	80	336	0
NMSCR	80	336	0	96	48	3
NMSTR	81	48	0
NMSCL	81	48	0	96	48	5
NMTAP	81	144	0
NMTAP	81	240	3
NMTAP	81	288	3
NMTAP	81	336	2
NMTAP	81	336	4
NMTAP	82	0	2
NMTAP	82	0	4
NMTAP	82	96	5
NMTAP	82	144	6
NMTAP	82	192	7
NMTAP	82	240	0
NMTAP	82	288	1
BRTAP	82	336	2
BRTAP	82	336	3
BRTAP	83	48	4
BRTAP	83	48	6
BRHLD	83	144	1	96
BRHLD	83	144	3	96
BRTAP	83	288	2
BRTAP	83	288	3
BRTAP	83	336	2
BRTAP	83	336	3
BRTAP	84	48	4
BRTAP	84	48	6
BRTAP	84	144	1
BRTAP	84	144	3
NMTAP	84	192	4
NMTAP	84	204	5
NMTAP	84	216	6
NMTAP	84	228	7
NMTAP	84	240	0
NMTAP	84	252	1
NMTAP	84	264	2
NMTAP	84	276	3
NMTAP	84	288	4
NMTAP	85	0	6
NMTAP	85	0	7
NMTAP	85	96	0
NMTAP	85	96	7
NMTAP	85	192	0
NMTAP	85	192	1
NMTAP	85	288	0
NMTAP	85	336	0
NMTAP	86	0	7
NMTAP	86	48	7
BRHLD	86	144	2	144
BRHLD	86	144	6	144
NMTAP	86	336	0
NMTAP	87	0	0
NMTAP	87	48	3
BRTAP	87	96	3
NMTAP	87	144	1
NMTAP	87	192	1
NMTAP	87	240	7
NMSTR	87	288	7
NMSI_	87	288	7	96	48	3
NMTAP	87	336	3
NMSTR	88	0	1
NMSI_	88	0	1	96	48	5
NMTAP	88	0	7
NMTAP	88	96	1
NMSTR	88	96	4
NMSI_	88	96	4	96	48	7
NMTAP	88	192	2
NMTAP	88	192	4
BRTAP	88	288	1
NMSTR	89	0	0
NMSI_	89	0	0	96	48	4
NMSTR	89	0	1
NMSI_	89	0	1	96	48	5
NMTAP	89	96	0
NMTAP	89	96	1
NMTAP	89	192	6
NMSTR	89	192	7
NMSCR	89	192	7	96	48	2
NMTAP	89	288	3
NMSTR	89	336	3
NMSI_	89	336	3	96	48	7
NMTAP	90	0	3
NMSTR	90	48	3
NMSF_	90	48	3	96	96	7
NMTAP	90	336	7
NMTAP	91	0	7
NMTAP	91	48	4
NMTAP	91	96	4
NMTAP	91	144	6
NMTAP	91	192	6
NMTAP	91	240	0
NMSTR	91	288	0
NMSI_	91	288	0	96	48	4
NMTAP	91	336	4
NMTAP	92	0	0
NMSTR	92	0	6
NMSI_	92	0	6	96	48	2
NMSTR	92	96	3
NMSI_	92	96	3	96	48	0
NMTAP	92	96	6
NMTAP	92	192	3
NMSTR	92	192	4
NMSI_	92	192	4	96	48	6
NMTAP	92	288	4
NMTAP	92	288	7
NMSTR	93	0	7
NMSI_	93	0	7	96	48	3
NMTAP	93	48	0
BRTAP	93	96	7
NMTAP	93	168	1
NMTAP	93	192	1
NMTAP	93	240	3
NMTAP	93	288	5
NMSTR	93	336	7
NMSI_	93	336	7	96	48	3
NMTAP	94	0	7
NMSTR	94	48	7
NMSCL	94	48	7	96	96	2
EXTAP	94	144	1
NMTAP	94	336	0
NMTAP	95	0	0
NMTAP	95	48	3
NMTAP	95	96	3
NMTAP	95	144	1
NMTAP	95	192	1
NMTAP	95	240	7
NMSTR	95	288	7
NMSI_	95	288	7	96	48	3
NMTAP	95	336	2
NMSTR	96	0	0
NMSI_	96	0	0	96	48	4
NMTAP	96	0	7
NMTAP	96	96	0
NMSTR	96	96	6
NMSI_	96	96	6	96	48	3
NMTAP	96	192	0
NMTAP	96	192	6
BRTAP	96	288	1
NMSTR	97	0	0
NMSI_	97	0	0	96	48	4
NMSTR	97	0	1
NMSI_	97	0	1	96	48	5
NMTAP	97	96	0
NMTAP	97	96	1
NMTAP	97	192	6
NMSTR	97	192	7
NMSCR	97	192	7	96	48	2
NMTAP	97	288	3
NMSTR	97	336	3
NMSI_	97	336	3	96	48	7
NMTAP	98	0	3
NMSTR	98	48	3
NMSXL	98	48	3	96	96	4
NMSXR	98	48	3	96	96	2
NMTAP	98	336	7
NMTAP	99	0	7
NMTAP	99	48	4
NMTAP	99	96	4
NMTAP	99	144	6
NMTAP	99	192	6
NMTAP	99	240	0
NMSTR	99	288	0
NMSI_	99	288	0	96	48	4
NMTAP	99	336	4
NMTAP	100	0	0
NMSTR	100	0	6
NMSI_	100	0	6	96	48	1
NMSTR	100	96	2
NMSI_	100	96	2	96	48	0
NMTAP	100	96	6
NMTAP	100	192	2
NMSTR	100	192	5
NMSI_	100	192	5	96	48	7
NMSTR	100	288	3
NMSI_	100	288	3	96	48	0
NMTAP	100	288	5
NMTAP	101	0	3
NMTAP	101	0	4
NMTAP	101	144	7
NMHLD	101	192	0	96
NMHLD	101	192	6	96
NMTAP	101	336	3
NMTAP	101	336	5
NMTAP	102	48	2
NMTAP	102	48	4
NMTAP	102	144	0
NMHLD	102	192	1	96
NMHLD	102	192	3	96
NMHLD	103	0	3	96
NMHLD	103	0	5	96
NMTAP	103	144	2
NMTAP	103	144	6
NMHLD	103	192	2	96
NMHLD	103	192	6	96
NMTAP	103	336	1
NMTAP	103	336	7
NMTAP	104	48	0
NMTAP	104	48	6
NMTAP	104	144	4
NMTAP	104	144	7
NMHLD	104	192	4	96
NMHLD	104	192	7	96
NMHLD	105	0	3	96
NMHLD	105	0	5	96
NMTAP	105	144	0
NMHLD	105	192	1	96
NMHLD	105	192	7	96
NMTAP	105	336	2
NMTAP	105	336	4
NMTAP	106	48	3
NMTAP	106	48	5
NMTAP	106	144	7
NMHLD	106	192	4	96
NMHLD	106	192	6	96
NMHLD	107	0	2	96
NMHLD	107	0	4	96
NMTAP	107	144	1
NMTAP	107	144	5
NMHLD	107	192	1	96
NMHLD	107	192	5	96
NMTAP	107	336	0
NMTAP	107	336	6
NMTAP	108	48	1
NMTAP	108	48	7
NMTAP	108	144	0
NMTAP	108	144	6
NMTAP	108	192	0
NMTAP	108	192	6
BRTAP	108	288	2
BRTAP	108	288	4
NMTAP	109	0	1
NMTAP	109	16	2
NMTAP	109	32	3
NMTAP	109	48	6
NMTAP	109	64	5
NMTAP	109	80	4
NMTAP	109	96	1
NMTAP	109	112	2
NMTAP	109	128	3
NMTAP	109	144	6
NMTAP	109	160	5
NMTAP	109	176	4
NMTAP	109	192	1
NMTAP	109	208	2
NMTAP	109	224	3
NMTAP	109	240	6
NMTAP	109	256	5
NMTAP	109	272	4
NMTAP	109	288	0
NMTAP	109	300	1
NMTAP	109	312	2
NMTAP	109	324	3
NMTAP	109	336	7
NMTAP	109	348	6
NMTAP	109	360	5
NMTAP	109	372	4
NMTAP	110	0	0
NMTAP	110	12	1
NMTAP	110	24	2
NMTAP	110	36	3
NMTAP	110	48	7
NMTAP	110	60	6
NMTAP	110	72	5
NMTAP	110	84	4
NMTAP	110	96	0
NMTAP	110	108	1
NMTAP	110	120	2
NMTAP	110	132	3
NMTAP	110	144	7
NMTAP	110	156	6
NMTAP	110	168	5
NMTAP	110	180	4
NMTTP	110	192	2	B	0	M1
NMTTP	110	192	3	B	0	M1
NMTTP	110	192	3	E	1	M1
NMTAP	110	288	1
NMTAP	110	312	0
NMTAP	110	336	7
NMTAP	110	360	6
NMTAP	111	0	5
NMTAP	111	24	4
NMTAP	111	48	3
NMTAP	111	72	2
NMTAP	111	96	1
NMTAP	111	120	0
NMTAP	111	144	7
NMTAP	111	168	6
EXHLD	111	192	5	16
EXHLD	111	208	4	16
EXHLD	111	224	5	16
EXHLD	111	240	4	16
EXHLD	111	256	5	16
EXHLD	111	272	4	16
EXSTR	111	288	5
NMSI_	111	288	5	96	480	0
EXSTR	111	304	4
NMSI_	111	304	4	96	464	1
NMTTP	112	48	6	E	1	M1
NMTTP	112	96	3	B	1	M1
NMTTP	112	144	6	B	1	M1
NMTTP	112	192	2	B	1	M1
NMTTP	112	240	7	B	1	M1
NMTTP	112	288	2	E	1	M1
NMTTP	112	336	0	E	1	M1
NMTTP	113	288	4	E	1	M1
NMTAP	114	0	1
NMTAP	114	24	0
NMTAP	114	48	2
NMTAP	114	72	7
NMTAP	114	96	3
NMTAP	114	120	6
NMTAP	114	144	4
NMTAP	114	168	5
NMTAP	114	192	4
NMTAP	114	216	5
NMTAP	114	240	3
NMTAP	114	264	6
NMTAP	114	288	2
NMTAP	114	312	7
NMTAP	114	336	1
NMTAP	114	360	0
NMSTR	115	0	0
BRSF_	115	0	0	96	48	4
NMTTP	115	120	4	B	1	M1
NMTTP	115	120	4	E	0	M1
NMTTP	115	120	4	A	0	M1
NMTTP	115	120	4	D	0	M1
NMTTP	115	120	5	E	0	M1
NMTTP	115	120	5	D	0	M1
NMSTR	115	192	0
BRSF_	115	192	0	96	48	4
NMTTP	115	312	4	B	1	M1
NMTTP	115	312	4	E	0	M1
NMTTP	115	312	4	A	0	M1
NMTTP	115	312	4	D	0	M1
NMTTP	115	312	5	E	0	M1
NMTTP	115	312	5	D	0	M1
NMSTR	116	0	0
BRSF_	116	0	0	96	48	4
NMTTP	116	120	4	B	1	M1
NMTTP	116	120	4	E	0	M1
NMTTP	116	120	4	A	0	M1
NMTTP	116	120	4	D	0	M1
NMTTP	116	120	5	E	0	M1
NMTTP	116	120	5	D	0	M1
NMTAP	116	192	0
NMTAP	116	216	7
NMTAP	116	240	1
NMTAP	116	264	6
NMSTR	116	288	0
NMSI_	116	288	0	96	64	3
NMSTR	116	312	7
NMSI_	116	312	7	96	40	4
NMTAP	116	336	1
NMTAP	116	360	6
NMTTP	117	16	0	E	0	M1
NMTTP	117	32	0	C	1	M1
NMTTP	117	48	4	E	0	M1
NMSTR	118	144	0
NMSI_	118	144	0	96	48	3
NMTAP	118	240	0
NMTAP	118	336	2
NMTAP	119	48	3
NMTAP	119	48	7
NMTAP	119	96	3
NMTAP	119	96	6
NMTAP	119	144	2
NMTAP	119	144	5
NMTAP	119	192	1
NMTAP	119	192	4
NMTAP	119	240	0
NMTAP	119	240	4
NMHLD	119	288	0	144
NMTAP	119	288	5
NMHLD	119	336	6	336
NMTAP	120	96	1
NMTAP	120	192	2
NMTAP	120	240	2
NMTAP	120	288	3
NMTAP	120	336	3
NMTAP	121	0	2
NMTAP	121	0	7
NMTAP	121	48	1
NMTAP	121	48	6
NMTAP	121	96	0
NMTAP	121	96	5
NMTTP	121	144	1	E	0	M1
NMTAP	121	144	4
NMTAP	121	192	4
NMTTP	121	240	2	E	0	M1
NMTAP	121	240	5
NMTAP	121	288	6
NMTTP	121	336	3	E	0	M1
NMTAP	121	336	7
NMTAP	122	0	7
NMSTR	122	48	3
NMSI_	122	48	3	96	48	0
NMTTP	122	48	7	E	0	M1
NMTAP	122	144	3
NMTTP	122	144	6	E	0	M1
NMTTP	122	216	4	B	0	M1
NMTTP	122	216	5	E	0	M1
NMTAP	122	240	1
NMTAP	122	336	0
NMTAP	123	0	0
NMTAP	123	48	1
NMTAP	123	96	2
NMTAP	123	144	3
NMTAP	123	144	4
NMTAP	123	192	3
NMTAP	123	192	5
NMTAP	123	240	2
NMTAP	123	240	4
NMHLD	123	288	1	144
NMTAP	123	288	5
NMSTR	123	336	4
NMSI_	123	336	4	96	48	7
NMTAP	124	0	5
NMTAP	124	48	4
BRTAP	124	96	2
BRTAP	124	144	3
BRTAP	124	192	2
BRTAP	124	240	1
BRTAP	124	288	0

T_REC_TAP	600
T_REC_BRK	80
T_REC_XTP	20
T_REC_BXX	0
T_REC_HLD	49
T_REC_XHO	7
T_REC_BHO	4
T_REC_BXH	0
T_REC_STR	105
T_REC_BST	1
T_REC_XST	6
T_REC_XBS	0
T_REC_TTP	79
T_REC_THO	0
T_REC_SLD	111
T_REC_BSL	3
T_REC_ALL	1065
T_NUM_TAP	810
T_NUM_BRK	88
T_NUM_HLD	56
T_NUM_SLD	111
T_NUM_ALL	1065
T_JUDGE_TAP	891
T_JUDGE_HLD	124
T_JUDGE_SLD	114
T_JUDGE_ALL	1129
TTM_EACHPAIRS	169
TTM_SCR_TAP	405000
TTM_SCR_BRK	228800
TTM_SCR_HLD	56000
TTM_SCR_SLD	166500
TTM_SCR_ALL	856300
TTM_SCR_S	822100
TTM_SCR_SS	847500
TTM_RAT_ACV	10103

