VERSION	0.00.00	1.05.00
FES_MODE	0
BPM_DEF	172.000	172.000	172.000	172.000
MET_DEF	4	4
RESOLUTION	384
CLK_DEF	384
COMPATIBLE_CODE	MA2

BPM	0	0	172.000

NMHLD	2	0	3	144
NMHLD	2	0	7	144
NMHLD	2	192	1	144
NMHLD	2	192	4	144
NMHLD	3	0	3	144
NMHLD	3	0	6	144
NMHLD	3	192	2	144
NMHLD	3	192	4	144
NMTAP	4	0	4
NMTAP	4	0	5
NMTAP	4	96	5
NMTAP	4	96	6
NMTAP	4	192	6
NMTAP	4	192	7
NMTAP	4	288	0
NMTAP	4	288	7
NMTAP	5	0	0
NMTAP	5	0	1
NMTAP	5	96	1
NMTAP	5	96	2
NMTAP	5	192	2
NMTAP	5	192	3
NMTAP	5	288	4
NMTAP	5	312	3
NMTAP	5	336	4
NMTAP	5	360	3
NMSTR	6	0	5
NMSI_	6	0	5	96	48	0
NMTAP	6	48	3
NMTAP	6	96	2
NMTAP	6	144	3
NMSTR	6	192	2
NMSI_	6	192	2	96	48	7
NMTAP	6	240	4
NMTAP	6	288	5
NMTAP	6	336	4
NMSTR	7	0	5
NMSCR	7	0	5	96	48	0
NMTAP	7	48	3
NMTAP	7	96	2
NMTAP	7	144	3
NMSTR	7	192	2
NMSCL	7	192	2	96	48	7
NMTAP	7	240	4
NMTAP	7	288	5
NMTAP	7	336	4
NMTAP	8	0	1
NMTAP	8	0	5
NMTAP	8	48	6
NMTAP	8	96	7
NMTAP	8	144	0
NMTAP	8	144	4
NMTAP	8	192	1
NMTAP	8	240	2
NMTAP	8	288	3
NMTAP	8	288	7
NMTAP	8	336	4
BRSTR	9	0	2
NMSLR	9	0	2	96	144	0
BRSTR	9	0	5
NMSLL	9	0	5	96	144	7
NMHLD	10	0	0	672
NMSTR	10	0	7
NMSCR	10	0	7	96	1248	7
BRTAP	12	0	0
BRTAP	12	192	1
BRTAP	13	0	0
BRTAP	13	96	1
BRTAP	13	192	2
BRTAP	13	288	3
BRTAP	13	288	7
NMTAP	14	0	4
NMTAP	14	48	5
NMTAP	14	96	3
NMTAP	14	96	6
NMTAP	14	144	5
NMTAP	14	192	4
NMTAP	14	240	5
NMTAP	14	288	3
NMTAP	14	288	6
NMTAP	14	336	5
NMTAP	15	0	4
NMTAP	15	48	3
NMSTR	15	96	2
NMSI_	15	96	2	96	48	5
NMTAP	15	96	5
NMSTR	15	192	6
NMSI_	15	192	6	96	48	1
NMTAP	15	288	2
NMTAP	16	0	3
NMTAP	16	48	2
NMTAP	16	96	1
NMTAP	16	96	4
NMTAP	16	144	2
NMTAP	16	192	3
NMTAP	16	240	2
NMTAP	16	288	1
NMTAP	16	288	4
NMTAP	16	336	2
NMTAP	17	0	3
NMTAP	17	0	5
NMTAP	17	48	4
NMTAP	17	96	1
NMTAP	17	96	3
NMTAP	17	144	2
NMTAP	17	192	3
BRTAP	17	192	7
BRTAP	17	240	7
BRTAP	17	288	7
NMHLD	18	0	3	48
NMHLD	18	0	6	48
NMTAP	18	96	4
NMTAP	18	96	5
NMTAP	18	144	2
NMHLD	18	192	1	48
NMHLD	18	192	4	48
NMTAP	18	288	2
NMTAP	18	288	3
NMTAP	18	336	5
NMHLD	19	0	3	48
NMHLD	19	0	6	48
NMTAP	19	96	4
NMTAP	19	96	5
NMTAP	19	144	2
NMSTR	19	192	1
NMSI_	19	192	1	96	48	4
NMTAP	19	240	1
NMTAP	19	288	7
NMHLD	20	0	3	48
NMHLD	20	0	6	48
NMTAP	20	96	4
NMTAP	20	96	5
NMTAP	20	144	2
NMHLD	20	192	1	48
NMHLD	20	192	4	48
NMTAP	20	288	2
NMTAP	20	288	3
NMTAP	20	336	5
NMHLD	21	0	3	48
NMHLD	21	0	6	48
NMTAP	21	96	4
NMTAP	21	96	5
NMTAP	21	144	2
NMSTR	21	192	1
NMSI_	21	192	1	96	48	6
NMTAP	21	288	7
NMTAP	22	0	3
NMTAP	22	48	2
NMTAP	22	96	1
NMTAP	22	144	0
NMTAP	22	192	4
NMTAP	22	240	5
NMTAP	22	288	6
NMTAP	22	336	7
NMHLD	23	0	1	96
NMTAP	23	96	0
BRTAP	23	192	0
NMTTP	23	192	2	B	0	M1
NMTTP	23	192	2	E	0	M1
BRTAP	23	240	0
NMTTP	23	240	2	B	0	M1
NMTTP	23	240	2	E	0	M1
BRTAP	23	288	0
NMTTP	23	288	2	B	0	M1
NMTTP	23	288	2	E	1	M1
NMTAP	24	0	3
NMTAP	24	48	4
NMTAP	24	96	1
NMTAP	24	96	5
NMTAP	24	144	6
NMTAP	24	192	2
NMTAP	24	240	1
NMTAP	24	288	0
NMTAP	24	288	5
NMTAP	24	336	7
NMHLD	25	0	6	96
NMTAP	25	96	7
NMTTP	25	192	6	B	0	M1
NMTTP	25	192	6	E	0	M1
BRTAP	25	192	7
NMTTP	25	240	6	B	0	M1
NMTTP	25	240	6	E	0	M1
BRTAP	25	240	7
NMTTP	25	288	6	B	0	M1
NMTTP	25	288	6	E	1	M1
BRTAP	25	288	7
NMTAP	26	0	2
NMTAP	26	48	3
NMTAP	26	96	2
NMTAP	26	96	4
NMTAP	26	144	5
NMTAP	26	192	1
NMTAP	26	240	0
NMTAP	26	288	1
NMTAP	26	288	7
NMTAP	26	336	6
NMHLD	27	0	1	96
NMSTR	27	96	0
NMSSL	27	96	0	96	96	4
NMTAP	28	0	5
NMTAP	28	48	4
NMTAP	28	96	3
NMTAP	28	96	5
NMTAP	28	144	2
NMTAP	28	192	6
NMTAP	28	240	7
NMTAP	28	288	0
NMTAP	28	288	6
NMTAP	28	336	1
BRTAP	29	0	2
BRTAP	29	0	6
BRTAP	29	96	0
BRTAP	29	96	4
BRTAP	29	192	3
BRTAP	29	192	7
BRTAP	29	240	2
BRTAP	29	240	6
BRTAP	29	288	1
BRTAP	29	288	5
BRTAP	30	0	0
NMTTP	30	0	1	B	0	M1
NMTTP	30	0	1	A	1	M1
BRTAP	30	48	0
NMTTP	30	48	2	B	0	M1
NMTTP	30	48	2	A	1	M1
BRTAP	30	96	0
NMTTP	30	96	3	B	0	M1
NMTTP	30	96	3	A	1	M1
NMTTP	30	192	6	B	0	M1
NMTTP	30	192	6	A	1	M1
BRTAP	30	192	7
NMTTP	30	240	5	B	0	M1
NMTTP	30	240	5	A	1	M1
BRTAP	30	240	7
NMTTP	30	288	4	B	0	M1
NMTTP	30	288	4	A	1	M1
BRTAP	30	288	7
NMTTP	31	0	1	B	0	M1
NMTTP	31	0	1	A	1	M1
BRTAP	31	0	5
NMTTP	31	48	2	B	0	M1
NMTTP	31	48	2	A	1	M1
BRTAP	31	48	6
NMTTP	31	96	3	B	0	M1
NMTTP	31	96	3	A	1	M1
BRTAP	31	96	7
NMTTP	31	192	0	B	0	M1
NMTTP	31	192	0	A	1	M1
NMTTP	31	192	6	B	0	M1
NMTTP	31	192	6	A	0	M1
BRTAP	32	0	2
BRTAP	32	0	5
NMTTP	32	96	0	A	0	M1
NMTTP	32	96	1	E	0	M1
NMTTP	32	96	1	A	0	M1
NMTTP	32	96	1	D	1	M1
NMTTP	32	144	3	A	0	M1
NMTTP	32	144	4	E	0	M1
NMTTP	32	144	4	A	0	M1
NMTTP	32	144	4	D	1	M1
NMTTP	32	192	6	A	0	M1
NMTTP	32	192	7	E	0	M1
NMTTP	32	192	7	A	0	M1
NMTTP	32	192	7	D	1	M1
BRSTR	32	288	1
NMSI_	32	288	1	96	48	4
BRSTR	32	288	6
NMSI_	32	288	6	96	48	3
BRTAP	33	96	0
BRTAP	33	96	7
NMTTP	33	192	2	B	0	M1
NMTTP	33	192	2	E	0	M1
NMTTP	33	192	2	A	0	M1
NMTTP	33	192	2	D	0	M1
NMTTP	33	192	3	E	0	M1
NMTTP	33	192	3	D	1	M1
NMTTP	33	192	5	B	0	M1
NMTTP	33	192	5	E	0	M1
NMTTP	33	192	5	A	0	M1
NMTTP	33	192	5	D	0	M1
NMTTP	33	192	6	E	0	M1
NMTTP	33	192	6	D	0	M1
NMTAP	34	0	0
NMSTR	34	0	1
NMSI_	34	0	1	96	48	4
NMTAP	34	48	2
NMTAP	34	48	7
NMTAP	34	96	0
BRTAP	34	96	1
NMSTR	34	192	6
NMSI_	34	192	6	96	48	3
NMTAP	34	192	7
NMTAP	34	240	0
NMTAP	34	240	5
BRTAP	34	288	6
NMTAP	34	288	7
NMSTR	35	0	1
NMSI_	35	0	1	96	48	4
NMTAP	35	0	7
NMTAP	35	48	1
NMSTR	35	96	5
NMSI_	35	96	5	96	48	0
NMTAP	35	144	5
NMTAP	35	192	2
NMTAP	35	240	2
BRTAP	35	288	3
BRTAP	35	288	7
BRTAP	35	336	1
BRTAP	35	336	5
NMTAP	36	48	2
NMTAP	36	48	3
NMHLD	36	96	1	96
NMTAP	36	96	4
NMTAP	36	192	0
NMTAP	36	240	2
NMSTR	36	240	7
NMSI_	36	240	7	96	48	3
NMSTR	36	336	0
NMSI_	36	336	0	96	48	4
NMTAP	37	48	5
NMTAP	37	96	6
NMTAP	37	144	7
BRTAP	37	192	0
BRTAP	37	192	1
BRTAP	37	240	3
BRTAP	37	240	4
BRTAP	37	288	6
BRTAP	37	288	7
NMTAP	38	0	0
NMTAP	38	0	5
NMTAP	38	48	2
NMTAP	38	72	3
NMTAP	38	96	2
NMTAP	38	144	0
NMTAP	38	192	2
NMTAP	38	192	4
NMTAP	38	240	6
NMTAP	38	288	3
NMTAP	38	288	5
NMTAP	38	336	1
NMTAP	39	0	2
NMTAP	39	0	7
NMTAP	39	48	5
NMTAP	39	72	4
NMTAP	39	96	5
NMTAP	39	144	7
NMTAP	39	192	3
NMTAP	39	192	5
NMTAP	39	240	1
NMTAP	39	288	2
NMTAP	39	288	4
NMTAP	39	336	6
NMTAP	40	0	1
NMTAP	40	0	5
NMTAP	40	72	2
NMTAP	40	72	6
NMTAP	40	144	3
NMTAP	40	144	7
NMSTR	40	192	0
NMSI_	40	192	0	96	48	5
NMSTR	40	192	4
NMSI_	40	192	4	96	48	1
BRTAP	40	288	0
BRTAP	40	288	4
NMTAP	41	0	2
NMTAP	41	0	6
NMTAP	41	72	1
NMTAP	41	72	5
NMTAP	41	144	0
NMTAP	41	144	4
NMSTR	41	192	3
NMSI_	41	192	3	96	48	6
NMSTR	41	192	7
NMSI_	41	192	7	96	48	2
BRTAP	41	288	3
BRTAP	41	288	7
NMSTR	42	0	6
NMSI_	42	0	6	96	48	3
NMTAP	42	0	7
NMTAP	42	48	0
NMTAP	42	48	5
BRTAP	42	96	6
NMTAP	42	96	7
NMTAP	42	192	0
NMSTR	42	192	1
NMSI_	42	192	1	96	48	4
NMTAP	42	240	2
NMTAP	42	240	7
NMTAP	42	288	0
BRTAP	42	288	1
NMTAP	43	0	0
NMSTR	43	0	6
NMSI_	43	0	6	96	48	3
NMTAP	43	48	6
NMSTR	43	96	2
NMSI_	43	96	2	96	48	7
NMTAP	43	144	2
NMTAP	43	192	5
NMTAP	43	240	5
BRTAP	43	288	0
BRTAP	43	288	4
BRTAP	43	336	2
BRTAP	43	336	6
NMTAP	44	48	4
NMTAP	44	48	5
NMTAP	44	96	3
NMHLD	44	96	6	96
NMTAP	44	192	7
NMSTR	44	240	0
NMSI_	44	240	0	96	48	4
NMTAP	44	240	5
NMSTR	44	336	7
NMSI_	44	336	7	96	48	3
NMTAP	45	48	2
NMTAP	45	96	1
NMTAP	45	144	0
BRTAP	45	192	6
BRTAP	45	192	7
BRTAP	45	240	3
BRTAP	45	240	4
BRTAP	45	288	0
BRTAP	45	288	1
NMTAP	46	0	2
NMTAP	46	0	7
NMTAP	46	48	5
NMTAP	46	72	4
NMTAP	46	96	5
NMTAP	46	144	7
NMTAP	46	192	3
NMTAP	46	192	5
NMTAP	46	240	1
NMTAP	46	288	2
NMTAP	46	288	4
NMTAP	46	336	6
NMTAP	47	0	0
NMTAP	47	0	5
NMTAP	47	48	2
NMTAP	47	72	3
NMTAP	47	96	2
NMTAP	47	144	0
NMTAP	47	192	2
NMTAP	47	192	4
NMTAP	47	240	6
NMTAP	47	288	3
NMTAP	47	288	5
NMTAP	47	336	1
NMTAP	48	0	2
NMTAP	48	0	6
NMTAP	48	72	1
NMTAP	48	72	5
NMTAP	48	144	0
NMTAP	48	144	4
NMSTR	48	192	3
NMSI_	48	192	3	96	48	6
NMSTR	48	192	7
NMSI_	48	192	7	96	48	2
BRTAP	48	288	3
BRTAP	48	288	7
NMTAP	49	0	1
NMTAP	49	0	5
NMTAP	49	72	2
NMTAP	49	72	6
NMTAP	49	144	3
NMTAP	49	144	7
NMSTR	49	192	0
NMSI_	49	192	0	96	48	5
NMSTR	49	192	4
NMSI_	49	192	4	96	48	1
BRSTR	49	288	0
NMSCR	49	288	0	96	384	7
BRTAP	49	288	4
NMHLD	50	0	4	384
NMTAP	51	96	0
NMSTR	51	96	7
NMSSR	51	96	7	96	96	3
NMSTR	52	0	3
NMSCL	52	0	3	96	288	0
NMTAP	52	192	4
NMSTR	53	0	4
NMSCR	53	0	4	96	288	7
NMTAP	53	192	0
NMHLD	54	0	0	384
NMTAP	54	192	7
NMSTR	55	0	7
NMSCL	55	0	7	96	288	4
NMTAP	55	192	0
NMSTR	56	0	1
NMSCR	56	0	1	96	192	4
NMTAP	56	192	5
NMSTR	57	0	1
NMSCR	57	0	1	96	48	4
BRTAP	57	96	1
NMSTR	57	192	1
NMSCR	57	192	1	96	48	4
BRTAP	57	288	1
NMSTR	58	0	3
NMSI_	58	0	3	96	192	7
NMSTR	58	0	5
NMSI_	58	0	5	96	192	1
NMSTR	59	0	1
NMSCR	59	0	1	96	48	4
NMHLD	59	0	7	192
BRSTR	59	96	1
NMSI_	59	96	1	96	48	5
BRTAP	59	192	1
NMSTR	60	0	1
NMSCL	60	0	1	96	96	6
NMSTR	60	0	5
NMSCL	60	0	5	96	96	2
CNSV_	60	192	2	0	96	5
CNSV_	60	192	6	0	96	1
NMTAP	61	0	3
NMTAP	61	24	3
NMTAP	61	48	3
NMTAP	61	96	2
NMTAP	61	120	2
NMTAP	61	144	2
NMTAP	61	192	1
NMTAP	61	216	1
NMTAP	61	240	1
NMTAP	61	288	0
NMTAP	61	312	0
NMTAP	61	336	0
NMTAP	62	0	7
NMTAP	62	48	7
NMSTR	62	96	7
NMSCR	62	96	7	96	96	1
NMSSL	62	96	7	96	72	3
NMTAP	62	144	7
CNSCR	62	264	3	0	24	4
NMSTR	63	0	3
NMSCL	63	0	3	96	48	0
NMSTR	63	0	4
NMSCR	63	0	4	96	48	7
NMSTR	63	96	3
NMSI_	63	96	3	96	48	7
NMSTR	63	96	4
NMSI_	63	96	4	96	48	0
BRTAP	63	192	3
BRTAP	63	192	4
BRSTR	64	0	1
NMSCR	64	0	1	96	48	4
BRSTR	64	0	5
NMSCR	64	0	5	96	48	0
BRSTR	64	192	6
NMSI_	64	192	6	96	48	0
BRSTR	64	192	7
NMSI_	64	192	7	96	48	3
BRSTR	65	0	2
NMSI_	65	0	2	96	48	4
BRSTR	65	0	6
NMSLR	65	0	6	96	48	4
BRSTR	65	192	1
NMSV_	65	192	1	96	48	4
BRSTR	65	192	7
NMSV_	65	192	7	96	48	4
BRTAP	66	0	0
BRTAP	66	0	7
BRTAP	66	96	1
BRTAP	66	96	2
BRTAP	66	192	3
BRTAP	66	192	4
BRTAP	66	288	5
BRSTR	66	288	6
NMSI_	66	288	6	96	48	0
BRSTR	67	0	0
NMSI_	67	0	0	96	48	4
BRTAP	67	0	6
BRTAP	67	96	0
BRSTR	67	96	4
NMSI_	67	96	4	96	48	2
BRTAP	67	192	2
BRTAP	67	192	4
NMSTR	67	288	0
NMSCR	67	288	0	96	48	3
NMSTR	67	288	6
NMSCL	67	288	6	96	48	3
BRSTR	68	0	0
NMSI_	68	0	0	96	48	6
BRSTR	68	0	6
NMSI_	68	0	6	96	48	0
CNSCL	68	144	0	0	48	7
CNSCR	68	144	6	0	48	7
CNSI_	68	192	7	0	96	3
CNSI_	68	192	7	0	96	3
NMTAP	69	0	3
NMTAP	69	0	4
NMTAP	69	96	3
NMTAP	69	96	4
NMTAP	69	192	4
NMTAP	69	216	3
NMTAP	69	240	4
BRTAP	69	288	1
BRTAP	69	288	6
NMSTR	70	0	6
NMSI_	70	0	6	96	48	2
NMSTR	70	0	7
NMSI_	70	0	7	96	48	3
NMTAP	70	48	0
NMTAP	70	48	5
BRTAP	70	96	6
BRTAP	70	96	7
NMSTR	70	192	0
NMSI_	70	192	0	96	48	4
NMSTR	70	192	1
NMSI_	70	192	1	96	48	5
NMTAP	70	240	2
NMTAP	70	240	7
BRTAP	70	288	0
BRTAP	70	288	1
NMTAP	71	0	0
NMSTR	71	0	6
NMSI_	71	0	6	96	48	2
NMTAP	71	48	6
NMSTR	71	96	0
NMSI_	71	96	0	96	48	4
NMTAP	71	96	6
NMTAP	71	144	0
NMTAP	71	192	0
NMTAP	71	192	5
NMTAP	71	240	5
BRTAP	71	288	3
BRTAP	71	288	7
BRTAP	71	336	1
BRTAP	71	336	5
NMTAP	72	48	0
NMTAP	72	48	1
NMTAP	72	96	3
NMHLD	72	96	6	96
NMTAP	72	192	7
NMSTR	72	240	1
NMSCR	72	240	1	96	48	4
NMTAP	72	240	4
NMSTR	72	336	7
NMSI_	72	336	7	96	48	3
NMTAP	73	48	2
NMTAP	73	96	1
NMTAP	73	144	0
BRTAP	73	192	5
BRTAP	73	192	7
BRTAP	73	240	3
BRTAP	73	240	4
BRTAP	73	288	0
BRTAP	73	288	2
NMTAP	74	0	2
NMTAP	74	0	7
NMTAP	74	48	1
NMTAP	74	72	0
NMTAP	74	96	1
NMTAP	74	144	3
NMTAP	74	192	0
NMTAP	74	192	5
NMTAP	74	240	4
NMTAP	74	288	2
NMTAP	74	288	7
NMTAP	74	336	3
NMTAP	75	0	0
NMTAP	75	0	5
NMTAP	75	48	6
NMTAP	75	72	7
NMTAP	75	96	6
NMTAP	75	144	4
NMTAP	75	192	2
NMTAP	75	192	7
NMTAP	75	240	3
NMTAP	75	288	0
NMTAP	75	288	5
NMTAP	75	336	4
NMHLD	76	0	2	48
NMHLD	76	0	6	48
NMHLD	76	72	1	48
NMHLD	76	72	5	48
NMTAP	76	144	0
NMTAP	76	144	4
NMSTR	76	192	3
NMSI_	76	192	3	96	48	6
NMSTR	76	192	7
NMSI_	76	192	7	96	48	3
BRTAP	76	288	3
BRTAP	76	288	7
NMHLD	77	0	1	48
NMHLD	77	0	5	48
NMHLD	77	72	2	48
NMHLD	77	72	6	48
NMTAP	77	144	3
NMTAP	77	144	7
NMSTR	77	192	0
NMSI_	77	192	0	96	48	4
NMSTR	77	192	4
NMSI_	77	192	4	96	48	1
BRTAP	77	288	0
BRTAP	77	288	4
NMSTR	78	0	0
NMSI_	78	0	0	96	48	4
NMSTR	78	0	1
NMSI_	78	0	1	96	48	5
NMTAP	78	48	2
NMTAP	78	48	7
BRTAP	78	96	0
BRTAP	78	96	1
NMSTR	78	192	6
NMSI_	78	192	6	96	48	2
NMSTR	78	192	7
NMSI_	78	192	7	96	48	3
NMTAP	78	240	0
NMTAP	78	240	5
BRTAP	78	288	6
BRTAP	78	288	7
NMSTR	79	0	1
NMSI_	79	0	1	96	48	5
NMTAP	79	0	7
NMTAP	79	48	1
NMTAP	79	96	1
NMSTR	79	96	7
NMSI_	79	96	7	96	48	3
NMTAP	79	144	7
NMTAP	79	192	2
NMTAP	79	192	7
NMTAP	79	240	2
BRTAP	79	288	0
BRTAP	79	288	4
BRTAP	79	336	2
BRTAP	79	336	6
NMTAP	80	48	6
NMTAP	80	48	7
NMHLD	80	96	1	96
NMTAP	80	96	4
NMTAP	80	192	0
NMTAP	80	240	3
NMSTR	80	240	6
NMSCL	80	240	6	96	48	3
NMSTR	80	336	0
NMSI_	80	336	0	96	48	4
NMTAP	81	48	5
NMTAP	81	96	6
NMTAP	81	144	7
BRTAP	81	192	0
BRTAP	81	192	2
BRTAP	81	240	3
BRTAP	81	240	4
BRTAP	81	288	5
BRTAP	81	288	7
BRSTR	82	0	0
NMSI_	82	0	0	96	48	5
BRTAP	82	0	4
NMTAP	82	96	0
NMSTR	82	96	6
NMSI_	82	96	6	96	48	3
NMSTR	82	192	1
NMSI_	82	192	1	96	48	4
NMTAP	82	192	6
NMTAP	82	288	1
NMSTR	82	288	7
NMSI_	82	288	7	96	48	2
NMSTR	83	0	3
NMSI_	83	0	3	96	48	0
NMTAP	83	0	7
NMTAP	83	96	3
NMSTR	83	96	4
NMSI_	83	96	4	96	48	7
NMSTR	83	192	0
NMSF_	83	192	0	96	48	4
NMTAP	83	192	4
NMTAP	83	288	0
NMSTR	84	0	0
NMSCL	84	0	0	96	48	5
NMSTR	84	0	7
NMSI_	84	0	7	96	48	4
BRTAP	84	96	0
BRTAP	84	96	7
NMSTR	84	192	0
NMSI_	84	192	0	96	48	3
NMSTR	84	192	7
NMSCR	84	192	7	96	48	2
BRTAP	84	288	0
BRTAP	84	288	7
BRSTR	85	0	0
NMSCL	85	0	0	96	48	5
BRSTR	85	0	7
NMSCR	85	0	7	96	48	2
BRSTR	85	96	0
NMSSL	85	96	0	96	48	4
BRSTR	85	96	7
NMSSR	85	96	7	96	48	3
BRTAP	85	192	0
BRTAP	85	192	7
NMSTR	86	0	4
NMSCL	86	0	4	96	480	0
NMTAP	86	0	5
NMTAP	86	96	5
NMTAP	86	192	5
NMTAP	86	288	5
NMTAP	87	0	4
NMTAP	87	96	3
NMTAP	87	192	2
NMTAP	87	240	2
NMTAP	87	288	2
NMTAP	88	0	2
NMSTR	88	0	3
NMSCR	88	0	3	96	480	7
NMTAP	88	96	2
NMTAP	88	192	2
NMTAP	88	288	2
NMTAP	89	0	3
NMTAP	89	96	4
NMTAP	89	192	5
NMTAP	89	240	5
NMTAP	89	288	5
NMHLD	90	0	1	96
NMHLD	90	0	3	96
NMHLD	90	192	4	96
NMHLD	90	192	6	96
NMHLD	91	0	2	96
NMHLD	91	0	3	96
NMHLD	91	192	4	96
NMHLD	91	192	5	96
NMSTR	92	0	3
NMSCL	92	0	3	96	48	0
NMTAP	92	96	5
NMSTR	92	192	4
NMSCR	92	192	4	96	48	7
NMTAP	92	288	2
BRSTR	93	0	1
NMSI_	93	0	1	96	48	4
BRSTR	93	0	5
NMSI_	93	0	5	96	48	0
BRTAP	93	96	1
BRTAP	93	96	5
BRTAP	93	192	3
BRTAP	93	192	7
BRTAP	93	200	2
BRTAP	93	200	6
BRTAP	93	208	1
BRTAP	93	208	5
BRTAP	93	216	0
BRTAP	93	216	4
NMTTP	93	224	0	C	1	M1
NMTTP	93	224	3	B	0	M1
NMTTP	93	224	3	A	0	M1
NMTTP	93	224	7	B	0	M1
NMTTP	93	224	7	A	0	M1

T_REC_TAP	368
T_REC_BRK	137
T_REC_XTP	0
T_REC_BXX	0
T_REC_HLD	47
T_REC_XHO	0
T_REC_BHO	0
T_REC_BXH	0
T_REC_STR	83
T_REC_BST	26
T_REC_XST	0
T_REC_XBS	0
T_REC_TTP	63
T_REC_THO	0
T_REC_SLD	110
T_REC_BSL	0
T_REC_ALL	834
T_NUM_TAP	514
T_NUM_BRK	163
T_NUM_HLD	47
T_NUM_SLD	110
T_NUM_ALL	834
T_JUDGE_TAP	677
T_JUDGE_HLD	108
T_JUDGE_SLD	110
T_JUDGE_ALL	895
TTM_EACHPAIRS	212
TTM_SCR_TAP	257000
TTM_SCR_BRK	423800
TTM_SCR_HLD	47000
TTM_SCR_SLD	165000
TTM_SCR_ALL	892800
TTM_SCR_S	850250
TTM_SCR_SS	876500
TTM_RAT_ACV	10185

