VERSION	0.00.00	1.05.00
FES_MODE	0
BPM_DEF	172.000	172.000	172.000	172.000
MET_DEF	4	4
RESOLUTION	384
CLK_DEF	384
COMPATIBLE_CODE	MA2

BPM	0	0	172.000

NMHLD	2	0	0	144
NMHLD	2	0	4	144
NMHLD	2	192	3	144
NMHLD	2	192	6	144
NMHLD	3	0	1	144
NMHLD	3	0	4	144
NMHLD	3	192	3	144
NMHLD	3	192	5	144
NMTAP	4	0	2
NMTAP	4	0	3
NMTAP	4	96	1
NMTAP	4	96	2
NMTAP	4	192	0
NMTAP	4	192	1
NMTAP	4	288	0
NMTAP	4	288	7
NMTAP	5	0	6
NMTAP	5	0	7
NMTAP	5	96	5
NMTAP	5	96	6
NMTAP	5	192	4
NMTAP	5	192	5
NMTAP	5	288	3
NMTAP	5	312	4
NMTAP	5	336	3
NMTAP	5	360	4
NMSTR	6	0	2
NMSI_	6	0	2	96	48	7
NMTAP	6	48	4
NMTAP	6	96	5
NMTAP	6	144	4
NMSTR	6	192	5
NMSI_	6	192	5	96	48	0
NMTAP	6	240	3
NMTAP	6	288	2
NMTAP	6	336	3
NMSTR	7	0	2
NMSCL	7	0	2	96	48	7
NMTAP	7	48	4
NMTAP	7	96	5
NMTAP	7	144	4
NMSTR	7	192	5
NMSCR	7	192	5	96	48	0
NMTAP	7	240	3
NMTAP	7	288	2
NMTAP	7	336	3
NMTAP	8	0	2
NMTAP	8	0	6
NMTAP	8	48	1
NMTAP	8	96	0
NMTAP	8	144	3
NMTAP	8	144	7
NMTAP	8	192	6
NMTAP	8	240	5
NMTAP	8	288	0
NMTAP	8	288	4
NMTAP	8	336	3
BRSTR	9	0	2
NMSLR	9	0	2	96	144	0
BRSTR	9	0	5
NMSLL	9	0	5	96	144	7
NMHLD	10	0	0	672
NMSTR	10	0	7
NMSCR	10	0	7	96	1248	7
BRTAP	12	0	0
BRTAP	12	192	1
BRTAP	13	0	0
BRTAP	13	96	1
BRTAP	13	192	2
BRTAP	13	288	3
BRTAP	13	288	7
NMHLD	14	0	1	48
NMHLD	14	0	4	48
NMTAP	14	96	2
NMTAP	14	96	3
NMTAP	14	144	5
NMHLD	14	192	3	48
NMHLD	14	192	6	48
NMTAP	14	288	4
NMTAP	14	288	5
NMTAP	14	336	2
NMHLD	15	0	1	48
NMHLD	15	0	4	48
NMTAP	15	96	2
NMTAP	15	96	3
NMTAP	15	144	5
NMSTR	15	192	6
NMSI_	15	192	6	96	48	3
NMTAP	15	240	6
NMTAP	15	288	0
NMHLD	16	0	1	48
NMHLD	16	0	4	48
NMTAP	16	96	2
NMTAP	16	96	3
NMTAP	16	144	5
NMHLD	16	192	3	48
NMHLD	16	192	6	48
NMTAP	16	288	4
NMTAP	16	288	5
NMTAP	16	336	2
NMHLD	17	0	1	48
NMHLD	17	0	4	48
NMTAP	17	96	2
NMTAP	17	96	3
NMTAP	17	144	5
NMSTR	17	192	6
NMSCL	17	192	6	96	48	3
NMTAP	17	240	6
NMTAP	17	288	0
NMTAP	18	0	1
NMTAP	18	48	0
NMTAP	18	96	2
NMTAP	18	96	7
NMTAP	18	144	0
NMTAP	18	192	1
NMTAP	18	240	0
NMTAP	18	288	2
NMTAP	18	288	7
NMTAP	18	336	0
NMSTR	19	0	1
NMSI_	19	0	1	96	48	6
NMTAP	19	48	1
NMSTR	19	96	5
NMSI_	19	96	5	96	48	2
NMTAP	19	144	5
NMSTR	19	192	0
NMSI_	19	192	0	96	48	4
NMTAP	19	240	0
NMTAP	19	288	5
NMTAP	20	0	6
NMTAP	20	48	7
NMTAP	20	96	0
NMTAP	20	96	5
NMTAP	20	144	7
NMTAP	20	192	6
NMTAP	20	240	7
NMTAP	20	288	0
NMTAP	20	288	5
NMTAP	20	336	7
NMTAP	21	0	3
NMTAP	21	0	6
NMTAP	21	48	5
NMTAP	21	96	1
NMTAP	21	96	4
NMTAP	21	144	2
NMTAP	21	192	3
BRTAP	21	192	7
BRTAP	21	240	7
BRTAP	21	288	7
NMTAP	22	0	3
NMTAP	22	48	2
NMTAP	22	96	1
NMTAP	22	144	0
NMTAP	22	192	4
NMTAP	22	240	5
NMTAP	22	288	6
NMTAP	22	336	7
NMHLD	23	0	1	96
NMTAP	23	96	0
BRTAP	23	192	0
NMTTP	23	192	2	B	0	M1
NMTTP	23	192	2	E	0	M1
BRTAP	23	240	0
NMTTP	23	240	2	B	0	M1
NMTTP	23	240	2	E	0	M1
BRTAP	23	288	0
NMTTP	23	288	2	B	0	M1
NMTTP	23	288	2	E	1	M1
NMTAP	24	0	3
NMTAP	24	48	4
NMTAP	24	96	1
NMTAP	24	96	5
NMTAP	24	144	6
NMTAP	24	192	2
NMTAP	24	240	1
NMTAP	24	288	0
NMTAP	24	288	5
NMTAP	24	336	7
NMHLD	25	0	6	96
NMTAP	25	96	7
NMTTP	25	192	5	B	0	M1
NMTTP	25	192	6	E	0	M1
BRTAP	25	192	7
NMTTP	25	240	5	B	0	M1
NMTTP	25	240	6	E	0	M1
BRTAP	25	240	7
NMTTP	25	288	5	B	0	M1
NMTTP	25	288	6	E	1	M1
BRTAP	25	288	7
NMTAP	26	0	2
NMTAP	26	48	3
NMTAP	26	96	2
NMTAP	26	96	4
NMTAP	26	144	5
NMTAP	26	192	1
NMTAP	26	240	0
NMTAP	26	288	1
NMTAP	26	288	7
NMTAP	26	336	6
NMHLD	27	0	1	96
NMSTR	27	96	0
NMSSL	27	96	0	96	96	4
NMTAP	28	0	5
NMTAP	28	48	4
NMTAP	28	96	3
NMTAP	28	96	5
NMTAP	28	144	2
NMTAP	28	192	6
NMTAP	28	240	7
NMTAP	28	288	0
NMTAP	28	288	6
NMTAP	28	336	1
BRTAP	29	0	2
BRTAP	29	0	6
BRTAP	29	96	0
BRTAP	29	96	4
BRTAP	29	192	3
BRTAP	29	192	7
BRTAP	29	240	2
BRTAP	29	240	6
BRTAP	29	288	1
BRTAP	29	288	5
BRTAP	30	0	0
NMTTP	30	0	1	B	0	M1
NMTTP	30	0	1	A	1	M1
BRTAP	30	48	0
NMTTP	30	48	2	B	0	M1
NMTTP	30	48	2	A	1	M1
BRTAP	30	96	0
NMTTP	30	96	3	B	0	M1
NMTTP	30	96	3	A	1	M1
NMTTP	30	192	6	B	0	M1
NMTTP	30	192	6	A	1	M1
BRTAP	30	192	7
NMTTP	30	240	5	B	0	M1
NMTTP	30	240	5	A	1	M1
BRTAP	30	240	7
NMTTP	30	288	4	B	0	M1
NMTTP	30	288	4	A	1	M1
BRTAP	30	288	7
NMTTP	31	0	1	B	0	M1
NMTTP	31	0	1	A	1	M1
BRTAP	31	0	5
NMTTP	31	48	2	B	0	M1
NMTTP	31	48	2	A	1	M1
BRTAP	31	48	6
NMTTP	31	96	3	B	0	M1
NMTTP	31	96	3	A	1	M1
BRTAP	31	96	7
NMTTP	31	192	0	B	0	M1
NMTTP	31	192	0	A	1	M1
NMTTP	31	192	6	B	0	M1
NMTTP	31	192	6	A	0	M1
BRTAP	32	0	2
BRTAP	32	0	5
NMTTP	32	96	0	A	0	M1
NMTTP	32	96	1	E	0	M1
NMTTP	32	96	1	A	0	M1
NMTTP	32	96	1	D	1	M1
NMTTP	32	144	3	A	0	M1
NMTTP	32	144	4	E	0	M1
NMTTP	32	144	4	A	0	M1
NMTTP	32	144	4	D	1	M1
NMTTP	32	192	6	A	0	M1
NMTTP	32	192	7	E	0	M1
NMTTP	32	192	7	A	0	M1
NMTTP	32	192	7	D	1	M1
BRSTR	32	288	1
NMSI_	32	288	1	96	48	4
BRSTR	32	288	6
NMSI_	32	288	6	96	48	3
BRTAP	33	96	0
BRTAP	33	96	7
NMTTP	33	192	2	B	0	M1
NMTTP	33	192	2	E	0	M1
NMTTP	33	192	2	A	0	M1
NMTTP	33	192	2	D	0	M1
NMTTP	33	192	3	E	0	M1
NMTTP	33	192	3	D	1	M1
NMTTP	33	192	5	B	0	M1
NMTTP	33	192	5	E	0	M1
NMTTP	33	192	5	A	0	M1
NMTTP	33	192	5	D	0	M1
NMTTP	33	192	6	E	0	M1
NMTTP	33	192	6	D	0	M1
NMSTR	34	0	6
NMSI_	34	0	6	96	48	3
NMTAP	34	0	7
NMTAP	34	48	0
NMTAP	34	48	5
BRTAP	34	96	6
NMTAP	34	96	7
NMTAP	34	192	0
NMSTR	34	192	1
NMSI_	34	192	1	96	48	4
NMTAP	34	240	2
NMTAP	34	240	7
NMTAP	34	288	0
BRTAP	34	288	1
NMTAP	35	0	0
NMSTR	35	0	6
NMSI_	35	0	6	96	48	3
NMTAP	35	48	6
NMSTR	35	96	2
NMSI_	35	96	2	96	48	7
NMTAP	35	144	2
NMTAP	35	192	5
NMTAP	35	240	5
BRTAP	35	288	0
BRTAP	35	288	4
BRTAP	35	336	2
BRTAP	35	336	6
NMTAP	36	48	4
NMTAP	36	48	5
NMTAP	36	96	3
NMHLD	36	96	6	96
NMTAP	36	192	7
NMSTR	36	240	0
NMSI_	36	240	0	96	48	4
NMTAP	36	240	5
NMSTR	36	336	7
NMSI_	36	336	7	96	48	3
NMTAP	37	48	2
NMTAP	37	96	1
NMTAP	37	144	0
BRTAP	37	192	6
BRTAP	37	192	7
BRTAP	37	240	3
BRTAP	37	240	4
BRTAP	37	288	0
BRTAP	37	288	1
NMTAP	38	0	2
NMTAP	38	0	7
NMTAP	38	48	5
NMTAP	38	72	4
NMTAP	38	96	5
NMTAP	38	144	7
NMTAP	38	192	3
NMTAP	38	192	5
NMTAP	38	240	1
NMTAP	38	288	2
NMTAP	38	288	4
NMTAP	38	336	6
NMTAP	39	0	0
NMTAP	39	0	5
NMTAP	39	48	2
NMTAP	39	72	3
NMTAP	39	96	2
NMTAP	39	144	0
NMTAP	39	192	2
NMTAP	39	192	4
NMTAP	39	240	6
NMTAP	39	288	3
NMTAP	39	288	5
NMTAP	39	336	1
NMTAP	40	0	2
NMTAP	40	0	6
NMTAP	40	72	1
NMTAP	40	72	5
NMTAP	40	144	0
NMTAP	40	144	4
NMSTR	40	192	3
NMSI_	40	192	3	96	48	6
NMSTR	40	192	7
NMSI_	40	192	7	96	48	2
BRTAP	40	288	3
BRTAP	40	288	7
NMTAP	41	0	1
NMTAP	41	0	5
NMTAP	41	72	2
NMTAP	41	72	6
NMTAP	41	144	3
NMTAP	41	144	7
NMSTR	41	192	0
NMSI_	41	192	0	96	48	5
NMSTR	41	192	4
NMSI_	41	192	4	96	48	1
BRTAP	41	288	0
BRTAP	41	288	4
NMTAP	42	0	0
NMSTR	42	0	1
NMSI_	42	0	1	96	48	4
NMTAP	42	48	2
NMTAP	42	48	7
NMTAP	42	96	0
BRTAP	42	96	1
NMSTR	42	192	6
NMSI_	42	192	6	96	48	3
NMTAP	42	192	7
NMTAP	42	240	0
NMTAP	42	240	5
BRTAP	42	288	6
NMTAP	42	288	7
NMSTR	43	0	1
NMSI_	43	0	1	96	48	4
NMTAP	43	0	7
NMTAP	43	48	1
NMSTR	43	96	5
NMSI_	43	96	5	96	48	0
NMTAP	43	144	5
NMTAP	43	192	2
NMTAP	43	240	2
BRTAP	43	288	3
BRTAP	43	288	7
BRTAP	43	336	1
BRTAP	43	336	5
NMTAP	44	48	2
NMTAP	44	48	3
NMHLD	44	96	1	96
NMTAP	44	96	4
NMTAP	44	192	0
NMTAP	44	240	2
NMSTR	44	240	7
NMSI_	44	240	7	96	48	3
NMSTR	44	336	0
NMSI_	44	336	0	96	48	4
NMTAP	45	48	5
NMTAP	45	96	6
NMTAP	45	144	7
BRTAP	45	192	0
BRTAP	45	192	1
BRTAP	45	240	3
BRTAP	45	240	4
BRTAP	45	288	6
BRTAP	45	288	7
NMTAP	46	0	0
NMTAP	46	0	5
NMTAP	46	48	2
NMTAP	46	72	3
NMTAP	46	96	2
NMTAP	46	144	0
NMTAP	46	192	2
NMTAP	46	192	4
NMTAP	46	240	6
NMTAP	46	288	3
NMTAP	46	288	5
NMTAP	46	336	1
NMTAP	47	0	2
NMTAP	47	0	7
NMTAP	47	48	5
NMTAP	47	72	4
NMTAP	47	96	5
NMTAP	47	144	7
NMTAP	47	192	3
NMTAP	47	192	5
NMTAP	47	240	1
NMTAP	47	288	2
NMTAP	47	288	4
NMTAP	47	336	6
NMTAP	48	0	1
NMTAP	48	0	5
NMTAP	48	72	2
NMTAP	48	72	6
NMTAP	48	144	3
NMTAP	48	144	7
NMSTR	48	192	0
NMSI_	48	192	0	96	48	5
NMSTR	48	192	4
NMSI_	48	192	4	96	48	1
BRTAP	48	288	0
BRTAP	48	288	4
NMTAP	49	0	2
NMTAP	49	0	6
NMTAP	49	72	1
NMTAP	49	72	5
NMTAP	49	144	0
NMTAP	49	144	4
NMSTR	49	192	3
NMSI_	49	192	3	96	48	6
NMSTR	49	192	7
NMSI_	49	192	7	96	48	2
BRTAP	49	288	3
BRSTR	49	288	7
NMSCL	49	288	7	96	384	0
NMHLD	50	0	3	384
NMSTR	51	96	0
NMSSL	51	96	0	96	96	4
NMTAP	51	96	7
NMSTR	52	0	3
NMSCL	52	0	3	96	288	0
NMTAP	52	192	4
NMSTR	53	0	4
NMSCR	53	0	4	96	288	7
NMTAP	53	192	0
NMHLD	54	0	0	384
NMTAP	54	192	7
NMSTR	55	0	7
NMSCL	55	0	7	96	288	4
NMTAP	55	192	0
NMSTR	56	0	1
NMSCR	56	0	1	96	192	4
NMTAP	56	192	5
NMSTR	57	0	1
NMSCR	57	0	1	96	48	4
BRTAP	57	96	1
NMSTR	57	192	1
NMSCR	57	192	1	96	48	4
BRTAP	57	288	1
NMSTR	58	0	3
NMSI_	58	0	3	96	192	7
NMSTR	58	0	5
NMSI_	58	0	5	96	192	1
NMSTR	59	0	1
NMSCR	59	0	1	96	48	4
NMHLD	59	0	7	192
BRSTR	59	96	1
NMSI_	59	96	1	96	48	5
BRTAP	59	192	1
NMSTR	60	0	1
NMSCL	60	0	1	96	96	6
NMSTR	60	0	5
NMSCL	60	0	5	96	96	2
CNSV_	60	192	2	0	96	5
CNSV_	60	192	6	0	96	1
NMTAP	61	0	3
NMTAP	61	24	3
NMTAP	61	48	3
NMTAP	61	96	2
NMTAP	61	120	2
NMTAP	61	144	2
NMTAP	61	192	1
NMTAP	61	216	1
NMTAP	61	240	1
NMTAP	61	288	0
NMTAP	61	312	0
NMTAP	61	336	0
NMTAP	62	0	7
NMTAP	62	48	7
NMSTR	62	96	7
NMSCR	62	96	7	96	96	1
NMSSL	62	96	7	96	72	3
NMTAP	62	144	7
CNSCR	62	264	3	0	24	4
NMSTR	63	0	3
NMSCL	63	0	3	96	48	0
NMSTR	63	0	4
NMSCR	63	0	4	96	48	7
NMSTR	63	96	3
NMSI_	63	96	3	96	48	7
NMSTR	63	96	4
NMSI_	63	96	4	96	48	0
BRTAP	63	192	3
BRTAP	63	192	4
BRSTR	64	0	1
NMSCR	64	0	1	96	48	4
BRSTR	64	0	5
NMSCR	64	0	5	96	48	0
BRSTR	64	192	6
NMSI_	64	192	6	96	48	0
BRSTR	64	192	7
NMSI_	64	192	7	96	48	3
BRSTR	65	0	2
NMSI_	65	0	2	96	48	4
BRSTR	65	0	6
NMSLR	65	0	6	96	48	4
BRSTR	65	192	1
NMSV_	65	192	1	96	48	4
BRSTR	65	192	7
NMSV_	65	192	7	96	48	4
BRTAP	66	0	0
BRTAP	66	0	7
BRTAP	66	96	1
BRTAP	66	96	2
BRTAP	66	192	3
BRTAP	66	192	4
BRTAP	66	288	5
BRSTR	66	288	6
NMSI_	66	288	6	96	48	0
BRSTR	67	0	0
NMSI_	67	0	0	96	48	4
BRTAP	67	0	6
BRTAP	67	96	0
BRSTR	67	96	4
NMSI_	67	96	4	96	48	2
BRTAP	67	192	2
BRTAP	67	192	4
NMSTR	67	288	0
NMSCR	67	288	0	96	48	3
NMSTR	67	288	6
NMSCL	67	288	6	96	48	3
BRSTR	68	0	0
NMSI_	68	0	0	96	48	6
BRSTR	68	0	6
NMSI_	68	0	6	96	48	0
CNSCL	68	144	0	0	48	7
CNSCR	68	144	6	0	48	7
CNSI_	68	192	7	0	96	3
CNSI_	68	192	7	0	96	3
NMTAP	69	0	3
NMTAP	69	0	4
NMTAP	69	96	3
NMTAP	69	96	4
NMTAP	69	192	3
NMTAP	69	216	4
NMTAP	69	240	3
BRTAP	69	288	1
BRTAP	69	288	6
NMSTR	70	0	0
NMSI_	70	0	0	96	48	4
NMSTR	70	0	1
NMSI_	70	0	1	96	48	5
NMTAP	70	48	2
NMTAP	70	48	7
BRTAP	70	96	0
BRTAP	70	96	1
NMSTR	70	192	6
NMSI_	70	192	6	96	48	2
NMSTR	70	192	7
NMSI_	70	192	7	96	48	3
NMTAP	70	240	0
NMTAP	70	240	5
BRTAP	70	288	6
BRTAP	70	288	7
NMSTR	71	0	1
NMSI_	71	0	1	96	48	5
NMTAP	71	0	7
NMTAP	71	48	1
NMTAP	71	96	1
NMSTR	71	96	7
NMSI_	71	96	7	96	48	3
NMTAP	71	144	7
NMTAP	71	192	2
NMTAP	71	192	7
NMTAP	71	240	2
BRTAP	71	288	0
BRTAP	71	288	4
BRTAP	71	336	2
BRTAP	71	336	6
NMTAP	72	48	6
NMTAP	72	48	7
NMHLD	72	96	1	96
NMTAP	72	96	4
NMTAP	72	192	0
NMTAP	72	240	3
NMSTR	72	240	6
NMSCL	72	240	6	96	48	3
NMSTR	72	336	0
NMSI_	72	336	0	96	48	4
NMTAP	73	48	5
NMTAP	73	96	6
NMTAP	73	144	7
BRTAP	73	192	0
BRTAP	73	192	2
BRTAP	73	240	3
BRTAP	73	240	4
BRTAP	73	288	5
BRTAP	73	288	7
NMTAP	74	0	0
NMTAP	74	0	5
NMTAP	74	48	6
NMTAP	74	72	7
NMTAP	74	96	6
NMTAP	74	144	4
NMTAP	74	192	2
NMTAP	74	192	7
NMTAP	74	240	3
NMTAP	74	288	0
NMTAP	74	288	5
NMTAP	74	336	4
NMTAP	75	0	2
NMTAP	75	0	7
NMTAP	75	48	1
NMTAP	75	72	0
NMTAP	75	96	1
NMTAP	75	144	3
NMTAP	75	192	0
NMTAP	75	192	5
NMTAP	75	240	4
NMTAP	75	288	2
NMTAP	75	288	7
NMTAP	75	336	3
NMHLD	76	0	1	48
NMHLD	76	0	5	48
NMHLD	76	72	2	48
NMHLD	76	72	6	48
NMTAP	76	144	3
NMTAP	76	144	7
NMSTR	76	192	0
NMSI_	76	192	0	96	48	4
NMSTR	76	192	4
NMSI_	76	192	4	96	48	1
BRTAP	76	288	0
BRTAP	76	288	4
NMHLD	77	0	2	48
NMHLD	77	0	6	48
NMHLD	77	72	1	48
NMHLD	77	72	5	48
NMTAP	77	144	0
NMTAP	77	144	4
NMSTR	77	192	3
NMSI_	77	192	3	96	48	6
NMSTR	77	192	7
NMSI_	77	192	7	96	48	3
BRTAP	77	288	3
BRTAP	77	288	7
NMSTR	78	0	6
NMSI_	78	0	6	96	48	2
NMSTR	78	0	7
NMSI_	78	0	7	96	48	3
NMTAP	78	48	0
NMTAP	78	48	5
BRTAP	78	96	6
BRTAP	78	96	7
NMSTR	78	192	0
NMSI_	78	192	0	96	48	4
NMSTR	78	192	1
NMSI_	78	192	1	96	48	5
NMTAP	78	240	2
NMTAP	78	240	7
BRTAP	78	288	0
BRTAP	78	288	1
NMTAP	79	0	0
NMSTR	79	0	6
NMSI_	79	0	6	96	48	2
NMTAP	79	48	6
NMSTR	79	96	0
NMSI_	79	96	0	96	48	4
NMTAP	79	96	6
NMTAP	79	144	0
NMTAP	79	192	0
NMTAP	79	192	5
NMTAP	79	240	5
BRTAP	79	288	3
BRTAP	79	288	7
BRTAP	79	336	1
BRTAP	79	336	5
NMTAP	80	48	0
NMTAP	80	48	1
NMTAP	80	96	3
NMHLD	80	96	6	96
NMTAP	80	192	7
NMSTR	80	240	1
NMSCR	80	240	1	96	48	4
NMTAP	80	240	4
NMSTR	80	336	7
NMSI_	80	336	7	96	48	3
NMTAP	81	48	2
NMTAP	81	96	1
NMTAP	81	144	0
BRTAP	81	192	5
BRTAP	81	192	7
BRTAP	81	240	3
BRTAP	81	240	4
BRTAP	81	288	0
BRTAP	81	288	2
BRTAP	82	0	3
BRSTR	82	0	7
NMSI_	82	0	7	96	48	2
NMSTR	82	96	1
NMSI_	82	96	1	96	48	4
NMTAP	82	96	7
NMTAP	82	192	1
NMSTR	82	192	6
NMSI_	82	192	6	96	48	3
NMSTR	82	288	0
NMSI_	82	288	0	96	48	5
NMTAP	82	288	6
NMTAP	83	0	0
NMSTR	83	0	4
NMSI_	83	0	4	96	48	7
NMSTR	83	96	3
NMSI_	83	96	3	96	48	0
NMTAP	83	96	4
NMTAP	83	192	3
NMSTR	83	192	7
NMSF_	83	192	7	96	48	3
NMTAP	83	288	7
NMSTR	84	0	0
NMSI_	84	0	0	96	48	3
NMSTR	84	0	7
NMSCR	84	0	7	96	48	2
BRTAP	84	96	0
BRTAP	84	96	7
NMSTR	84	192	0
NMSCL	84	192	0	96	48	5
NMSTR	84	192	7
NMSI_	84	192	7	96	48	4
BRTAP	84	288	0
BRTAP	84	288	7
BRSTR	85	0	0
NMSCL	85	0	0	96	48	5
BRSTR	85	0	7
NMSCR	85	0	7	96	48	2
BRSTR	85	96	0
NMSSL	85	96	0	96	48	4
BRSTR	85	96	7
NMSSR	85	96	7	96	48	3
BRTAP	85	192	0
BRTAP	85	192	7
NMHLD	86	0	2	384
NMHLD	86	0	4	576
NMTTP	87	192	2	B	0	M1
NMTTP	87	192	3	E	0	M1
NMHLD	88	0	3	576
NMHLD	88	0	5	384
NMTTP	89	192	6	B	0	M1
NMTTP	89	192	6	E	0	M1
NMSTR	90	0	4
NMSUL	90	0	4	96	288	7
NMTAP	90	96	0
NMTAP	90	192	1
NMTAP	90	288	2
NMSTR	91	0	3
NMSUR	91	0	3	96	288	0
NMTAP	91	96	7
NMTAP	91	192	6
NMTAP	91	288	5
NMSTR	92	0	4
NMSCR	92	0	4	96	48	7
NMTAP	92	96	2
NMSTR	92	192	3
NMSCL	92	192	3	96	48	0
NMTAP	92	288	5
BRSTR	93	0	2
NMSI_	93	0	2	96	48	7
BRSTR	93	0	6
NMSI_	93	0	6	96	48	3
BRTAP	93	96	2
BRTAP	93	96	6
BRTAP	93	192	0
BRTAP	93	192	4
BRTAP	93	200	1
BRTAP	93	200	5
BRTAP	93	208	2
BRTAP	93	208	6
BRTAP	93	216	3
BRTAP	93	216	7
NMTTP	93	224	0	B	0	M1
NMTTP	93	224	0	C	1	M1
NMTTP	93	224	0	A	0	M1
NMTTP	93	224	4	B	0	M1
NMTTP	93	224	4	A	0	M1

T_REC_TAP	357
T_REC_BRK	137
T_REC_XTP	0
T_REC_BXX	0
T_REC_HLD	43
T_REC_XHO	0
T_REC_BHO	0
T_REC_BXH	0
T_REC_STR	84
T_REC_BST	26
T_REC_XST	0
T_REC_XBS	0
T_REC_TTP	67
T_REC_THO	0
T_REC_SLD	111
T_REC_BSL	0
T_REC_ALL	825
T_NUM_TAP	508
T_NUM_BRK	163
T_NUM_HLD	43
T_NUM_SLD	111
T_NUM_ALL	825
T_JUDGE_TAP	671
T_JUDGE_HLD	132
T_JUDGE_SLD	111
T_JUDGE_ALL	914
TTM_EACHPAIRS	207
TTM_SCR_TAP	254000
TTM_SCR_BRK	423800
TTM_SCR_HLD	43000
TTM_SCR_SLD	166500
TTM_SCR_ALL	887300
TTM_SCR_S	844900
TTM_SCR_SS	871000
TTM_RAT_ACV	10187

