VERSION	0.00.00	1.04.00
FES_MODE	1
BPM_DEF	150.000	150.000	150.000	150.000
MET_DEF	4	4
RESOLUTION	384
CLK_DEF	384
COMPATIBLE_CODE	MA2

BPM	0	0	150.000
MET	0	0	4	4
MET	42	0	4	2
MET	42	192	4	4
MET	58	192	4	2
MET	59	0	4	4
MET	67	0	4	2
MET	67	192	4	4
MET	85	192	4	2
MET	86	0	4	4

NMTAP	1	288	0
NMTAP	1	288	7
NMSTR	2	0	0
NMSI_	2	0	0	384	48	3
NMTAP	2	0	1
NMTAP	2	96	2
NMTAP	2	96	3
NMSTR	2	192	4
NMSI_	2	192	4	288	48	7
NMTAP	2	192	5
NMTAP	2	288	6
NMTAP	2	288	7
NMTAP	3	0	0
NMTAP	3	96	4
NMTAP	3	192	0
NMTAP	3	240	0
NMTAP	3	288	0
NMTAP	4	0	0
NMSTR	4	0	1
NMSI_	4	0	1	288	48	4
NMTAP	4	96	2
NMTAP	4	96	3
NMTAP	4	192	2
NMTAP	4	192	3
NMTAP	4	288	1
NMSTR	5	0	6
NMSI_	5	0	6	288	48	3
NMTAP	5	0	7
NMTAP	5	96	4
NMTAP	5	96	5
NMTAP	5	192	4
NMTAP	5	192	5
NMTAP	5	288	6
NMSTR	6	0	0
NMSI_	6	0	0	384	48	3
NMTAP	6	0	1
NMTAP	6	96	2
NMTAP	6	96	3
NMTAP	6	192	4
NMTAP	6	192	5
NMTAP	6	288	6
NMSTR	6	288	7
NMSI_	6	288	7	96	48	4
NMTAP	7	0	0
NMTAP	7	0	7
NMTAP	7	192	6
NMSTR	7	192	7
NMSI_	7	192	7	768	48	4
NMTAP	7	288	4
NMSTR	7	288	5
NMSI_	7	288	5	480	48	2
NMTAP	8	0	2
NMTAP	8	0	3
NMSTR	8	96	0
NMSI_	8	96	0	384	48	3
NMTAP	8	96	1
NMTAP	8	192	2
NMTAP	8	192	3
NMTAP	8	288	1
NMTAP	8	288	6
NMTAP	9	0	5
NMTAP	9	96	0
NMTAP	9	192	7
NMSTR	10	0	2
NMSI_	10	0	2	576	48	7
NMSTR	10	0	3
NMSI_	10	0	3	576	48	6
NMTAP	10	96	4
NMTAP	10	96	5
NMTAP	10	192	6
NMTAP	10	192	7
NMTAP	10	288	0
NMTAP	10	288	1
NMTAP	11	0	6
NMTAP	11	0	7
NMTAP	11	96	4
NMTAP	11	96	5
NMTAP	11	192	2
NMTAP	11	192	3
NMTAP	12	0	0
NMSTR	12	0	7
NMSI_	12	0	7	288	48	3
NMTAP	12	96	4
NMTAP	12	96	5
NMTAP	12	192	5
NMTAP	12	192	6
NMSTR	12	288	0
NMSI_	12	288	0	288	48	4
NMTAP	12	288	7
NMTAP	13	0	2
NMTAP	13	0	3
NMTAP	13	96	1
NMTAP	13	96	2
NMTAP	13	192	0
NMSTR	14	0	1
NMSI_	14	0	1	384	48	3
NMSTR	14	96	7
NMSI_	14	96	7	384	48	5
NMSTR	14	192	0
NMSI_	14	192	0	384	48	4
NMTAP	14	288	2
NMTAP	14	288	6
NMTAP	15	0	1
NMTAP	15	96	7
NMTAP	15	192	0
NMSTR	16	0	3
NMSI_	16	0	3	576	48	0
NMSTR	16	0	4
NMSI_	16	0	4	576	48	7
NMTAP	16	96	2
NMTAP	16	96	5
NMTAP	16	192	1
NMTAP	16	192	6
NMTAP	16	288	0
NMTAP	16	288	7
NMTAP	17	0	1
NMTAP	17	0	2
NMTAP	17	96	5
NMTAP	17	96	6
NMTAP	17	192	3
NMTAP	17	192	4
NMSTR	18	0	1
NMSI_	18	0	1	672	48	5
NMSTR	18	96	0
NMSI_	18	96	0	480	48	4
NMSTR	18	192	7
NMSI_	18	192	7	288	48	3
NMSTR	18	288	6
NMSI_	18	288	6	96	48	2
NMTAP	19	0	6
NMTAP	19	96	7
NMTAP	19	192	0
NMTAP	19	288	1
NMSTR	20	0	6
NMSI_	20	0	6	480	48	2
NMSTR	20	96	7
NMSI_	20	96	7	480	48	4
NMSTR	20	192	0
NMSI_	20	192	0	384	48	3
NMSTR	20	288	1
NMSI_	20	288	1	96	48	5
NMTAP	21	0	1
NMTAP	21	96	6
NMTAP	21	192	0
NMTAP	21	192	7
NMSTR	22	0	2
NMSI_	22	0	2	576	48	5
NMTAP	22	0	5
NMTAP	22	96	1
NMSTR	22	96	6
NMSI_	22	96	6	480	48	1
NMTAP	22	192	0
NMTAP	22	240	0
NMTAP	22	288	7
NMTAP	23	0	4
NMTAP	23	48	4
NMTAP	23	96	3
NMTAP	23	192	2
NMTAP	23	192	6
NMTAP	24	0	0
NMSTR	24	0	1
NMSI_	24	0	1	672	48	4
NMSTR	24	96	2
NMSI_	24	96	2	384	48	7
NMTAP	24	96	3
NMTAP	24	192	4
NMSTR	24	192	5
NMSI_	24	192	5	384	48	0
NMSTR	24	288	6
NMSI_	24	288	6	96	48	3
NMTAP	24	288	7
NMTAP	25	0	6
NMTAP	25	96	2
NMTAP	25	192	5
NMTAP	25	288	1
BRSTR	26	0	7
NMSCL	26	0	7	0	384	4
BRSTR	28	0	3
NMSCL	28	0	3	0	384	0
BRSTR	30	0	7
NMSI_	30	0	7	0	192	3
BRSTR	31	0	0
NMSI_	31	0	0	0	192	4
BRSTR	32	0	7
NMSCL	32	0	7	0	288	0
BRSTR	33	0	7
NMSI_	33	0	7	0	48	5
BRSTR	33	96	1
NMSI_	33	96	1	0	48	3
BRSTR	33	192	0
NMSI_	33	192	0	0	48	4
NMSTR	34	0	2
NMSI_	34	0	2	384	48	6
NMSTR	34	0	3
NMSI_	34	0	3	384	48	7
NMSTR	34	96	4
NMSI_	34	96	4	384	48	0
NMSTR	34	96	5
NMSI_	34	96	5	384	48	1
NMTAP	34	192	6
NMTAP	34	192	7
NMTAP	34	288	0
NMTAP	34	288	1
NMTAP	35	0	2
NMTAP	35	0	3
NMTAP	35	96	4
NMTAP	35	96	5
NMTAP	35	192	2
NMTAP	35	192	7
NMTAP	35	288	4
NMTAP	35	288	5
NMSTR	36	0	6
NMSI_	36	0	6	384	48	2
NMSTR	36	0	7
NMSI_	36	0	7	480	48	3
NMSTR	36	96	0
NMSI_	36	96	0	480	48	4
NMSTR	36	96	1
NMSI_	36	96	1	576	48	5
NMTAP	36	192	2
NMTAP	36	192	3
NMTAP	36	288	4
NMTAP	36	288	5
NMTAP	37	0	6
NMTAP	37	96	7
NMTAP	37	192	0
NMTAP	37	288	1
BRSTR	38	0	6
NMSI_	38	0	6	0	48	2
BRSTR	38	0	7
NMSI_	38	0	7	0	48	3
NMTAP	38	96	1
NMTAP	38	96	4
NMTAP	38	192	6
NMTAP	38	192	7
NMTAP	38	288	2
NMTAP	38	288	3
BRSTR	39	0	0
NMSI_	39	0	0	0	48	4
BRSTR	39	0	1
NMSI_	39	0	1	0	48	5
NMTAP	39	96	3
NMTAP	39	96	6
NMTAP	39	192	0
NMTAP	39	192	1
NMTAP	39	288	4
NMTAP	39	288	5
NMSTR	40	0	6
NMSI_	40	0	6	384	48	2
NMSTR	40	0	7
NMSI_	40	0	7	480	48	3
NMSTR	40	96	0
NMSI_	40	96	0	384	48	4
NMSTR	40	96	1
NMSI_	40	96	1	288	48	5
NMTAP	40	192	2
NMTAP	40	192	3
NMTAP	40	288	4
NMTAP	40	288	5
NMTAP	41	0	1
NMTAP	41	0	6
NMTAP	41	96	0
NMTAP	41	96	7
NMTAP	41	192	2
NMTAP	41	192	5
NMTAP	41	288	1
NMTAP	41	288	6
BRSTR	42	0	7
NMSI_	42	0	7	0	48	4
BRSTR	42	96	3
NMSI_	42	96	3	0	48	0
NMTAP	42	192	7
NMSTR	42	288	7
NMSF_	42	288	7	480	48	3
NMTAP	43	0	3
NMTAP	43	96	2
NMTAP	43	96	4
NMTAP	43	192	1
NMTAP	43	192	5
NMTAP	43	288	0
NMTAP	43	288	6
NMTAP	44	0	7
NMSTR	44	192	1
NMSI_	44	192	1	576	48	6
NMSTR	44	192	5
NMSI_	44	192	5	576	48	2
NMTAP	44	288	2
NMTAP	44	288	6
NMTAP	45	0	3
NMTAP	45	0	7
NMTAP	45	96	0
NMTAP	45	96	4
NMTAP	45	192	3
NMTAP	45	192	7
NMTAP	45	288	2
NMTAP	45	288	6
NMTAP	46	0	1
NMTAP	46	0	5
NMSTR	46	192	0
NMSI_	46	192	0	384	48	4
NMTAP	46	288	1
NMTAP	46	288	3
NMSTR	47	0	7
NMSI_	47	0	7	192	48	3
NMTAP	47	96	4
NMTAP	47	96	6
NMTAP	47	192	0
NMTAP	47	192	7
BRSTR	48	0	2
NMSI_	48	0	2	0	48	7
BRSTR	48	0	5
NMSI_	48	0	5	0	48	0
NMSTR	48	192	0
NMSI_	48	192	0	576	48	3
NMSTR	48	192	7
NMSI_	48	192	7	576	48	4
NMSTR	48	288	1
NMSI_	48	288	1	288	48	6
NMTAP	48	288	6
NMTAP	49	0	2
NMSTR	49	0	5
NMSI_	49	0	5	192	48	2
NMTAP	49	96	3
NMTAP	49	96	4
NMTAP	49	192	1
NMTAP	49	192	5
NMTAP	50	0	0
NMTAP	50	0	7
NMTAP	50	192	2
NMSTR	50	192	3
NMSI_	50	192	3	192	48	7
NMSTR	50	288	4
NMSI_	50	288	4	96	48	0
NMTAP	50	288	5
NMTAP	51	0	3
NMTAP	51	0	4
BRSTR	51	96	0
NMSI_	51	96	0	0	48	2
BRSTR	51	96	7
NMSI_	51	96	7	0	48	5
NMSTR	51	192	4
NMSI_	51	192	4	192	48	0
NMTAP	51	192	5
NMTAP	51	288	2
NMSTR	51	288	3
NMSI_	51	288	3	96	48	7
NMTAP	52	0	3
NMTAP	52	0	4
BRSTR	52	96	0
NMSI_	52	96	0	0	48	2
BRSTR	52	96	7
NMSI_	52	96	7	0	48	5
NMTAP	52	192	1
NMSTR	52	192	3
NMSI_	52	192	3	192	48	7
NMSTR	52	288	4
NMSI_	52	288	4	96	48	0
NMTAP	52	288	6
NMTAP	53	0	3
NMTAP	53	0	4
BRSTR	53	96	0
NMSI_	53	96	0	0	48	2
BRSTR	53	96	7
NMSI_	53	96	7	0	48	5
NMSTR	53	192	4
NMSI_	53	192	4	192	48	0
NMTAP	53	192	6
NMTAP	53	288	1
NMSTR	53	288	3
NMSI_	53	288	3	96	48	7
NMTAP	54	0	3
NMTAP	54	0	4
BRSTR	54	96	0
NMSI_	54	96	0	0	48	2
BRSTR	54	96	7
NMSI_	54	96	7	0	48	5
NMSTR	54	192	3
NMSCL	54	192	3	192	48	0
NMSTR	54	192	4
NMSCR	54	192	4	192	48	7
NMSTR	54	288	0
NMSI_	54	288	0	192	48	4
NMSTR	54	288	7
NMSI_	54	288	7	192	48	3
NMTAP	55	0	3
NMTAP	55	0	4
NMTAP	55	96	0
NMTAP	55	96	7
NMSTR	55	192	3
NMSCL	55	192	3	192	48	0
NMSTR	55	192	4
NMSCR	55	192	4	192	48	7
NMSTR	55	288	0
NMSI_	55	288	0	192	48	4
NMSTR	55	288	7
NMSI_	55	288	7	192	48	3
NMTAP	56	0	3
NMTAP	56	0	4
NMTAP	56	96	0
NMTAP	56	96	7
NMSTR	56	192	5
NMSI_	56	192	5	768	96	1
NMSTR	56	264	6
NMSI_	56	264	6	696	96	2
NMSTR	56	336	7
NMSI_	56	336	7	432	96	3
NMTAP	57	24	0
NMTAP	57	96	1
NMTAP	57	168	2
NMTAP	57	240	3
NMSTR	57	312	4
NMSI_	57	312	4	72	96	0
NMTAP	58	0	4
NMTAP	58	0	7
NMTAP	58	192	5
NMTAP	58	192	6
BRSTR	59	0	0
NMSCR	59	0	0	0	192	3
BRSTR	59	192	4
NMSCR	59	192	4	0	192	7
BRSTR	60	0	1
NMSCR	60	0	1	0	192	4
BRSTR	60	192	5
NMSCR	60	192	5	0	192	0
BRSTR	61	0	2
NMSCR	61	0	2	0	192	5
BRSTR	61	192	6
NMSCR	61	192	6	0	192	1
BRSTR	62	0	3
NMSCR	62	0	3	0	192	6
BRSTR	62	192	7
NMSCR	62	192	7	0	192	2
NMSTR	63	0	4
NMSXL	63	0	4	384	192	7
NMTAP	63	96	5
NMSTR	63	192	3
NMSXR	63	192	3	192	192	0
NMTAP	63	288	2
NMTAP	64	0	3
NMTAP	64	0	4
NMTAP	64	288	1
NMTAP	64	288	6
NMSTR	65	0	6
NMSI_	65	0	6	384	96	1
NMTAP	65	0	7
NMSTR	65	96	4
NMSI_	65	96	4	480	96	7
NMTAP	65	96	5
NMSTR	65	192	2
NMSI_	65	192	2	192	96	5
NMTAP	65	192	3
NMSTR	65	288	0
NMSI_	65	288	0	288	96	3
NMTAP	65	288	1
NMTAP	66	0	2
NMTAP	66	0	6
NMTAP	66	192	0
NMTAP	66	192	4
NMTAP	67	0	3
NMTAP	67	0	4
NMTAP	67	48	2
NMTAP	67	48	5
NMTAP	67	96	1
NMTAP	67	96	6
NMTAP	67	144	0
NMTAP	67	144	7
NMTAP	67	192	0
NMSTR	67	192	7
NMSI_	67	192	7	480	48	2
NMTAP	67	288	5
NMSTR	67	288	6
NMSI_	67	288	6	288	48	3
NMTAP	68	0	3
NMTAP	68	0	4
NMTAP	68	96	1
NMTAP	68	96	2
NMTAP	68	192	3
NMTAP	68	192	6
NMTAP	68	288	2
NMTAP	68	288	7
NMTAP	69	0	0
NMTAP	69	0	1
NMTAP	69	96	2
NMTAP	69	96	3
NMSTR	69	192	4
NMSI_	69	192	4	672	48	0
NMTAP	69	192	5
NMSTR	69	288	6
NMSI_	69	288	6	480	48	2
NMTAP	69	288	7
NMTAP	70	0	0
NMSTR	70	0	1
NMSI_	70	0	1	288	48	5
NMTAP	70	96	2
NMSTR	70	96	3
NMSI_	70	96	3	96	48	7
NMTAP	70	192	3
NMTAP	70	288	1
NMTAP	71	0	6
NMTAP	71	96	4
BRSTR	71	192	2
NMSI_	71	192	2	0	48	6
BRSTR	71	192	3
NMSI_	71	192	3	0	48	7
NMTAP	71	288	0
NMTAP	71	288	5
NMTAP	72	0	2
NMTAP	72	0	3
NMTAP	72	48	1
NMTAP	72	48	4
NMTAP	72	96	0
NMTAP	72	96	5
BRSTR	72	192	4
NMSI_	72	192	4	0	48	0
BRSTR	72	192	5
NMSI_	72	192	5	0	48	1
NMTAP	72	288	2
NMTAP	72	288	7
NMTAP	73	0	4
NMTAP	73	0	5
NMTAP	73	48	3
NMTAP	73	48	6
NMTAP	73	96	2
NMTAP	73	96	7
NMTAP	73	192	6
NMSTR	73	192	7
NMSI_	73	192	7	384	48	2
NMTAP	73	288	4
NMSTR	73	288	5
NMSI_	73	288	5	576	48	0
NMTAP	74	0	2
NMSTR	74	0	3
NMSI_	74	0	3	384	48	6
NMTAP	74	96	0
NMSTR	74	96	1
NMSI_	74	96	1	192	48	4
NMTAP	74	192	7
NMTAP	74	288	1
NMTAP	75	0	3
NMTAP	75	96	5
NMTAP	75	192	1
NMTAP	75	192	7
NMSTR	75	288	2
NMSI_	75	288	2	576	48	5
NMSTR	75	288	6
NMSI_	75	288	6	576	48	1
NMHLD	76	0	3	48
NMHLD	76	0	4	48
NMHLD	76	96	0	48
NMHLD	76	96	7	48
NMHLD	76	192	3	48
NMHLD	76	192	4	48
NMHLD	76	288	0	48
NMHLD	76	288	7	48
NMHLD	77	0	1	48
NMHLD	77	0	5	48
NMTAP	77	96	2
NMTAP	77	96	6
NMTAP	77	192	3
NMTAP	77	192	4
NMSTR	77	288	1
NMSI_	77	288	1	576	48	4
NMSTR	77	288	5
NMSI_	77	288	5	576	48	0
NMHLD	78	0	2	48
NMHLD	78	0	6	48
NMHLD	78	96	0	48
NMHLD	78	96	4	48
NMHLD	78	192	3	48
NMHLD	78	192	7	48
NMHLD	78	288	0	48
NMHLD	78	288	4	48
NMHLD	79	0	2	48
NMHLD	79	0	6	48
NMTAP	79	96	1
NMTAP	79	96	5
NMSTR	79	192	7
NMSF_	79	192	7	288	48	3
NMTAP	79	288	2
NMTAP	79	288	4
NMTAP	80	0	0
NMTAP	80	0	6
NMTAP	80	96	7
NMSTR	80	192	0
NMSF_	80	192	0	288	48	4
NMTAP	80	288	3
NMTAP	80	288	5
NMTAP	81	0	1
NMTAP	81	0	7
NMTAP	81	96	0
NMTAP	81	192	2
NMTAP	81	192	6
NMSTR	81	288	1
NMSI_	81	288	1	192	48	4
NMTAP	81	288	5
NMSTR	82	0	0
NMSI_	82	0	0	96	48	5
NMTAP	82	0	7
NMTAP	82	96	0
NMTAP	82	96	1
NMTAP	82	192	3
NMSTR	82	192	6
NMSI_	82	192	6	192	48	2
NMTAP	82	288	4
NMTAP	82	288	5
NMTAP	83	0	6
BRSTR	83	0	7
NMSI_	83	0	7	0	48	3
NMSTR	83	192	0
NMSI_	83	192	0	384	96	5
NMTAP	83	240	1
NMSTR	83	288	2
NMSI_	83	288	2	288	96	7
NMTAP	83	336	3
NMSTR	84	0	4
NMSI_	84	0	4	384	96	1
NMTAP	84	48	5
NMSTR	84	96	6
NMSI_	84	96	6	288	96	3
NMTAP	84	192	0
NMTAP	84	192	2
NMTAP	85	0	4
NMTAP	85	0	6
BRSTR	85	192	0
NMSCR	85	192	0	0	96	7
BRSTR	85	288	0
NMSI_	85	288	0	0	48	4
NMTAP	86	0	3
NMTAP	86	0	5
NMSTR	86	96	2
NMSI_	86	96	2	192	48	7
NMTAP	86	96	4
NMTAP	86	192	0
NMTAP	86	192	1
NMTAP	86	288	2
NMSTR	86	288	6
NMSI_	86	288	6	384	48	3
NMTAP	87	0	4
NMTAP	87	0	5
NMSTR	87	96	2
NMSI_	87	96	2	192	48	7
NMTAP	87	96	3
NMTAP	87	192	0
NMTAP	87	192	1
NMTAP	87	288	2
NMTAP	87	288	6
NMSTR	88	0	0
NMSSL	88	0	0	576	96	4
NMTAP	88	0	4
NMTAP	88	96	3
NMSTR	88	96	7
NMSSR	88	96	7	480	96	3
NMSTR	88	192	1
NMSCR	88	192	1	192	48	3
NMTAP	88	192	5
NMTAP	88	288	2
NMSTR	88	288	6
NMSCL	88	288	6	96	48	4
NMTAP	89	0	1
NMTAP	89	0	6
NMTAP	89	192	0
NMTAP	89	192	7
NMTAP	90	0	3
NMSTR	90	0	4
NMSCR	90	0	4	384	48	7
NMTAP	90	288	1
BRSTR	91	0	1
NMSI_	91	0	1	0	48	3
NMTAP	91	0	4

T_REC_TAP	349
T_REC_BRK	0
T_REC_XTP	0
T_REC_BXX	0
T_REC_HLD	20
T_REC_XHO	0
T_REC_BHO	0
T_REC_BXH	0
T_REC_STR	110
T_REC_BST	40
T_REC_XST	0
T_REC_XBS	0
T_REC_TTP	0
T_REC_THO	0
T_REC_SLD	150
T_REC_BSL	0
T_REC_ALL	669
T_NUM_TAP	459
T_NUM_BRK	40
T_NUM_HLD	20
T_NUM_SLD	150
T_NUM_ALL	669
T_JUDGE_TAP	499
T_JUDGE_HLD	20
T_JUDGE_SLD	150
T_JUDGE_ALL	669
TTM_EACHPAIRS	208
TTM_SCR_TAP	229500
TTM_SCR_BRK	104000
TTM_SCR_HLD	20000
TTM_SCR_SLD	225000
TTM_SCR_ALL	578500
TTM_SCR_S	557300
TTM_SCR_SS	574500
TTM_RAT_ACV	10069

