VERSION	0.00.00	1.05.00
FES_MODE	0
BPM_DEF	144.000	144.000	144.000	144.000
MET_DEF	4	4
RESOLUTION	384
CLK_DEF	384
COMPATIBLE_CODE	MA2

BPM	0	0	144.000

BXHLD	1	240	2	2448
BXHLD	2	288	3	2016
BXTAP	8	288	2
BXTAP	8	288	5
BXTAP	8	336	1
BXTAP	8	336	6
BXSTR	9	0	0
BRSUL	9	0	0	96	480	7
BXSTR	9	0	7
BRSCL	9	0	7	96	480	0
CNSCR	10	192	0	0	576	7
CNSUR	10	192	7	0	576	0
BXHLD	12	360	4	72
BXHLD	12	360	5	72
BXHLD	13	168	4	72
BXHLD	13	168	5	72
BXHLD	13	360	4	72
BXHLD	13	360	5	72
BXHLD	14	168	4	72
BXHLD	14	168	5	72
BXHLD	14	360	4	72
BXHLD	14	360	5	72
BXHLD	15	168	4	72
BXHLD	15	168	5	72
BXHLD	15	352	1	80
BXHLD	15	352	6	128
EXTAP	16	192	2
EXTAP	16	192	3
EXTAP	16	240	2
EXTAP	16	240	3
EXHLD	17	0	4	96
NMHLD	17	96	3	96
NMHLD	17	192	4	96
NMHLD	17	288	3	96
NMHLD	18	0	4	96
NMTTP	18	192	1	B	0	M1
NMTTP	18	192	1	E	0	M1
NMTTP	18	192	2	B	0	M1
NMTTP	18	192	2	A	0	M1
NMTTP	18	192	2	D	0	M1
NMTTP	18	192	3	B	0	M1
NMTTP	18	192	5	B	1	M1
NMTTP	18	192	5	E	0	M1
NMTTP	18	192	5	D	0	M1
NMTTP	18	192	6	B	0	M1
NMTTP	18	192	6	A	0	M1
NMTTP	18	192	7	A	0	M1
EXHLD	19	0	4	96
NMHLD	19	96	3	96
NMHLD	19	192	4	96
NMHLD	19	288	3	96
NMHLD	20	0	4	96
NMHLD	20	96	3	96
NMHLD	20	192	4	96
NMTTP	20	336	1	B	1	M1
NMTTP	20	336	1	E	0	M1
NMTTP	20	336	2	B	0	M1
NMTTP	20	336	2	A	0	M1
NMTTP	20	336	2	D	0	M1
NMTTP	20	336	3	B	0	M1
NMTTP	20	336	5	B	0	M1
NMTTP	20	336	5	E	0	M1
NMTTP	20	336	5	D	0	M1
NMTTP	20	336	6	B	0	M1
NMTTP	20	336	6	A	0	M1
NMTTP	20	336	7	A	0	M1
EXHLD	21	0	4	96
NMHLD	21	96	3	96
NMHLD	21	192	4	96
NMHLD	21	288	3	96
NMHLD	22	0	4	96
NMHLD	22	96	3	96
NMTAP	22	192	4
NMTTP	22	288	0	B	0	M1
NMTTP	22	288	0	E	0	M1
NMTTP	22	288	1	B	0	M1
NMTTP	22	288	1	A	0	M1
NMTTP	22	288	1	D	0	M1
NMTTP	22	288	2	B	0	M1
NMTTP	22	288	4	B	1	M1
NMTTP	22	288	4	E	0	M1
NMTTP	22	288	4	D	0	M1
NMTTP	22	288	5	B	0	M1
NMTTP	22	288	5	A	0	M1
NMTTP	22	288	6	A	0	M1
EXHLD	23	0	3	96
NMHLD	23	96	4	96
NMHLD	23	192	3	96
NMHLD	23	288	4	96
NMHLD	24	0	3	96
NMTTP	24	192	1	B	0	M1
NMTTP	24	192	1	E	0	M1
NMTTP	24	192	2	B	0	M1
NMTTP	24	192	2	A	0	M1
NMTTP	24	192	2	D	0	M1
NMTTP	24	192	3	B	0	M1
NMTTP	24	192	5	B	1	M1
NMTTP	24	192	5	E	0	M1
NMTTP	24	192	5	D	0	M1
NMTTP	24	192	6	B	0	M1
NMTTP	24	192	6	A	0	M1
NMTTP	24	192	7	A	0	M1
NMHLD	25	0	4	96
NMHLD	25	96	3	96
NMHLD	25	192	4	96
NMTTP	25	336	1	B	0	M1
NMTTP	25	336	1	E	0	M1
NMTTP	25	336	2	B	0	M1
NMTTP	25	336	2	A	0	M1
NMTTP	25	336	2	D	0	M1
NMTTP	25	336	3	B	0	M1
NMTTP	25	336	5	B	0	M1
NMTTP	25	336	5	E	1	M1
NMTTP	25	336	5	D	0	M1
NMTTP	25	336	6	B	0	M1
NMTTP	25	336	6	A	0	M1
NMTTP	25	336	7	A	0	M1
EXHLD	26	0	4	96
NMHLD	26	96	3	96
NMHLD	26	192	4	96
NMTTP	26	336	1	B	0	M1
NMTTP	26	336	1	E	0	M1
NMTTP	26	336	2	B	0	M1
NMTTP	26	336	2	A	0	M1
NMTTP	26	336	2	D	1	M1
NMTTP	26	336	3	B	0	M1
NMTTP	26	336	5	B	0	M1
NMTTP	26	336	5	E	0	M1
NMTTP	26	336	5	D	0	M1
NMTTP	26	336	6	B	0	M1
NMTTP	26	336	6	A	0	M1
NMTTP	26	336	7	A	0	M1
EXHLD	27	0	4	96
NMHLD	27	96	3	96
NMHLD	27	192	4	96
NMTTP	27	336	1	B	0	M1
NMTTP	27	336	1	E	0	M1
NMTTP	27	336	2	B	0	M1
NMTTP	27	336	2	A	0	M1
NMTTP	27	336	2	D	0	M1
NMTTP	27	336	3	B	0	M1
NMTTP	27	336	5	B	0	M1
NMTTP	27	336	5	E	0	M1
NMTTP	27	336	5	D	0	M1
NMTTP	27	336	6	B	1	M1
NMTTP	27	336	6	A	0	M1
NMTTP	27	336	7	A	0	M1
EXHLD	28	0	4	96
NMHLD	28	96	3	96
NMHLD	28	192	4	96
NMTTP	28	336	1	B	0	M1
NMTTP	28	336	1	E	0	M1
NMTTP	28	336	2	B	0	M1
NMTTP	28	336	2	A	0	M1
NMTTP	28	336	2	D	0	M1
NMTTP	28	336	3	B	1	M1
NMTTP	28	336	5	B	0	M1
NMTTP	28	336	5	E	0	M1
NMTTP	28	336	5	D	0	M1
NMTTP	28	336	6	B	0	M1
NMTTP	28	336	6	A	0	M1
NMTTP	28	336	7	A	0	M1
EXHLD	29	0	4	96
NMHLD	29	96	3	96
NMHLD	29	192	4	96
NMTTP	29	336	1	B	0	M1
NMTTP	29	336	1	E	0	M1
NMTTP	29	336	2	B	0	M1
NMTTP	29	336	2	A	0	M1
NMTTP	29	336	2	D	0	M1
NMTTP	29	336	3	B	0	M1
NMTTP	29	336	5	B	0	M1
NMTTP	29	336	5	E	0	M1
NMTTP	29	336	5	D	0	M1
NMTTP	29	336	6	B	0	M1
NMTTP	29	336	6	A	0	M1
NMTTP	29	336	7	A	1	M1
EXHLD	30	0	4	96
NMHLD	30	96	3	96
NMHLD	30	192	4	96
NMTTP	30	336	1	B	1	M1
NMTTP	30	336	1	E	0	M1
NMTTP	30	336	2	B	0	M1
NMTTP	30	336	2	A	0	M1
NMTTP	30	336	2	D	0	M1
NMTTP	30	336	3	B	0	M1
NMTTP	30	336	5	B	0	M1
NMTTP	30	336	5	E	0	M1
NMTTP	30	336	5	D	0	M1
NMTTP	30	336	6	B	0	M1
NMTTP	30	336	6	A	0	M1
NMTTP	30	336	7	A	0	M1
EXHLD	31	0	4	96
NMHLD	31	96	3	96
NMHLD	31	192	4	96
NMTTP	31	336	1	B	0	M1
NMTTP	31	336	1	E	0	M1
NMTTP	31	336	2	B	0	M1
NMTTP	31	336	2	A	0	M1
NMTTP	31	336	2	D	0	M1
NMTTP	31	336	3	B	0	M1
NMTTP	31	336	5	B	1	M1
NMTTP	31	336	5	E	0	M1
NMTTP	31	336	5	D	0	M1
NMTTP	31	336	6	B	0	M1
NMTTP	31	336	6	A	0	M1
NMTTP	31	336	7	A	0	M1
EXHLD	32	0	4	96
NMHLD	32	96	3	96
NMTAP	32	192	4
EXSTR	32	288	6
BRSI_	32	288	6	96	48	1
EXSTR	33	96	2
BRSI_	33	96	2	96	48	5
EXSTR	33	288	4
BRSI_	33	288	4	96	48	7
EXSTR	34	96	0
BRSI_	34	96	0	96	48	3
EXSTR	34	288	7
BRSCL	34	288	7	96	48	4
EXSTR	35	96	3
BRSCL	35	96	3	96	48	0
EXTAP	35	288	7
EXHLD	35	360	1	408
EXHLD	35	360	6	408
BRTAP	37	96	0
BRTAP	37	96	7
BRTAP	37	144	1
BRTAP	37	144	6
BRTAP	37	192	2
BRTAP	37	192	5
BRTAP	37	240	3
BRHLD	37	240	4	912
EXSTR	40	0	3
BRSV_	40	0	3	96	288	1
CNSCL	41	0	1	0	288	5
EXSTR	42	0	5
BRSCR	42	0	5	96	288	1
CNSV_	43	0	1	0	384	3
NMTTP	44	192	7	E	1	M1
NMTTP	44	240	6	E	1	M1
NMTTP	44	288	5	E	1	M1
NMTTP	44	336	4	E	1	M1
NMTTP	45	0	3	E	1	M1
NMTTP	45	48	2	E	1	M1
NMTTP	45	96	1	E	1	M1
NMTTP	45	144	0	E	1	M1
NMTTP	45	192	7	E	1	M1
EXTAP	45	288	7
EXTAP	45	336	7
EXTAP	46	0	0
BXSTR	46	0	1
BRSI_	46	0	1	96	48	3
EXTAP	46	96	0
EXTAP	46	192	0
BXSTR	46	192	1
BRSI_	46	192	1	96	48	4
EXTAP	46	288	7
BXSTR	47	0	1
BRSI_	47	0	1	96	48	5
EXTAP	47	0	7
EXTAP	47	96	6
EXTAP	47	192	4
EXTAP	47	192	6
EXTAP	47	288	2
EXTAP	47	336	1
EXHLD	48	0	0	192
EXSTR	48	0	7
BRSCL	48	0	7	96	96	2
EXTAP	48	240	0
EXTAP	48	288	0
NMTTP	49	0	6	B	0	M1
NMTTP	49	0	6	A	0	M1
NMTTP	49	0	7	B	0	M1
NMTTP	49	0	7	E	1	M1
NMTTP	49	0	7	A	0	M1
NMTTP	49	0	7	D	0	M1
NMTTP	49	72	3	B	0	M1
NMTTP	49	72	3	A	0	M1
NMTTP	49	72	4	B	0	M1
NMTTP	49	72	4	E	1	M1
NMTTP	49	72	4	A	0	M1
NMTTP	49	72	4	D	0	M1
NMTTP	49	144	0	B	0	M1
NMTTP	49	144	0	A	0	M1
NMTTP	49	144	1	B	0	M1
NMTTP	49	144	1	E	1	M1
NMTTP	49	144	1	A	0	M1
NMTTP	49	144	1	D	0	M1
EXTAP	49	288	7
EXTAP	49	336	7
BXSTR	50	0	6
BRSI_	50	0	6	96	48	4
EXTAP	50	0	7
EXTAP	50	96	7
BXSTR	50	192	6
BRSI_	50	192	6	96	48	3
EXTAP	50	192	7
EXTAP	50	288	0
EXTAP	51	0	0
BXSTR	51	0	6
BRSI_	51	0	6	96	48	2
EXTAP	51	96	1
EXTAP	51	192	1
EXTAP	51	192	3
EXTAP	51	288	5
EXTAP	51	336	6
EXSTR	52	0	0
BRSCR	52	0	0	96	96	5
EXHLD	52	0	7	288
EXTAP	53	0	1
EXTAP	53	0	3
EXTAP	53	72	4
EXTAP	53	72	6
EXHLD	53	144	3	96
EXHLD	53	144	4	96
EXSTR	53	288	5
BRSI_	53	288	5	96	48	3
BXTAP	54	0	2
BXTAP	54	48	2
BXTAP	54	96	2
EXSTR	54	96	5
BRSI_	54	96	5	96	48	0
BXTAP	54	144	2
BXTAP	54	192	2
BXTAP	54	240	2
BXTAP	54	288	2
EXSTR	54	288	5
BRSCL	54	288	5	96	48	3
BXTAP	54	336	2
BXTAP	55	0	2
BXTAP	55	48	2
BXTAP	55	96	2
EXSTR	55	96	5
BRSCR	55	96	5	96	48	0
BXTAP	55	144	2
BXTAP	55	192	2
BXTAP	55	240	2
BXTAP	55	288	2
EXSTR	55	288	5
BRSI_	55	288	5	96	48	3
BXTAP	55	336	2
BXTAP	56	0	2
BXTAP	56	48	2
BXTAP	56	96	2
EXSTR	56	96	5
BRSCR	56	96	5	96	96	1
BXTAP	56	144	2
BXTAP	56	192	2
BXTAP	56	240	2
BXTAP	56	288	2
BXTAP	56	336	2
NMTTP	57	0	0	B	0	M1
NMTTP	57	0	0	A	0	M1
NMTTP	57	0	1	B	0	M1
NMTTP	57	0	1	E	1	M1
NMTTP	57	0	1	A	0	M1
NMTTP	57	0	1	D	0	M1
NMTTP	57	72	3	B	0	M1
NMTTP	57	72	3	A	0	M1
NMTTP	57	72	4	B	0	M1
NMTTP	57	72	4	E	1	M1
NMTTP	57	72	4	A	0	M1
NMTTP	57	72	4	D	0	M1
NMTTP	57	144	6	B	0	M1
NMTTP	57	144	6	A	0	M1
NMTTP	57	144	7	B	0	M1
NMTTP	57	144	7	E	1	M1
NMTTP	57	144	7	A	0	M1
NMTTP	57	144	7	D	0	M1
EXSTR	57	288	5
BRSI_	57	288	5	96	48	3
BXTAP	58	0	2
BXTAP	58	48	2
BXTAP	58	96	2
EXSTR	58	96	5
BRSI_	58	96	5	96	48	0
BXTAP	58	144	2
BXTAP	58	192	2
BXTAP	58	240	2
BXTAP	58	288	2
EXSTR	58	288	5
BRSCL	58	288	5	96	48	3
BXTAP	58	336	2
BXTAP	59	0	2
BXTAP	59	48	2
BXTAP	59	96	2
EXSTR	59	96	5
BRSCR	59	96	5	96	48	0
BXTAP	59	144	2
BXTAP	59	192	2
BXTAP	59	240	2
BXTAP	59	288	2
EXSTR	59	288	5
BRSI_	59	288	5	96	48	3
BXTAP	59	336	2
BXTAP	60	0	2
BXTAP	60	48	2
BXTAP	60	96	2
EXSTR	60	96	5
BRSCR	60	96	5	96	96	1
BXTAP	60	144	2
BXTAP	60	192	2
BXTAP	60	240	2
BXTAP	60	288	2
BXTAP	60	336	2
EXTAP	61	0	1
EXTAP	61	0	3
EXTAP	61	72	4
EXTAP	61	72	6
EXTAP	61	144	1
EXTAP	61	144	4
EXHLD	61	216	3	96
EXHLD	61	216	6	96
EXTAP	62	24	4
EXTAP	62	24	6
EXTAP	62	96	1
EXTAP	62	96	3
EXTAP	62	168	3
EXTAP	62	168	6
EXHLD	62	240	1	96
EXHLD	62	240	4	96
BXTAP	63	0	0
BXTAP	63	0	7
BXTAP	63	144	0
BXTAP	63	144	7
BXTAP	63	192	1
BXTAP	63	192	6
BXTAP	63	240	2
BXTAP	63	240	5
BXSTR	63	288	3
BRSCL	63	288	3	96	288	7
BXTAP	63	288	4
EXTAP	64	0	4
EXTAP	64	96	4
EXTAP	64	192	4
EXTAP	64	288	4
EXTAP	65	0	4
EXTAP	65	96	4
BXTAP	65	144	0
BXTAP	65	144	7
BXTAP	65	192	1
BXTAP	65	192	6
BXTAP	65	240	2
BXTAP	65	240	5
BXTAP	65	288	3
BXSTR	65	288	4
BRSCR	65	288	4	96	288	0
EXTAP	66	0	3
EXTAP	66	96	3
EXTAP	66	192	3
EXTAP	66	288	3
EXTAP	67	0	3
EXTAP	67	96	3
EXTAP	67	192	2
EXTAP	67	192	4
EXTAP	67	288	0
EXSTR	67	352	1
BRSI_	67	352	1	96	32	3
EXTAP	67	352	7
EXSTR	68	160	0
BRSI_	68	160	0	96	48	4
EXTAP	68	160	2
EXSTR	68	352	1
BRSI_	68	352	1	96	32	3
EXTAP	68	352	7
EXSTR	69	160	0
BRSI_	69	160	0	96	48	4
EXTAP	69	160	2
EXSTR	69	352	1
BRSI_	69	352	1	96	48	3
EXTAP	69	352	7
EXSTR	70	160	0
BRSI_	70	160	0	96	48	4
EXTAP	70	160	2
BXTAP	70	352	1
BXTAP	70	352	6
NMTAP	71	48	1
EXTAP	71	96	0
EXTAP	71	96	2
EXTAP	71	192	6
EXTAP	71	240	5
EXTAP	71	240	7
EXTAP	71	336	2
EXTAP	71	336	5
EXTAP	72	0	3
EXTAP	72	0	4
EXTAP	72	96	1
EXTAP	72	96	6
EXTAP	72	144	0
EXTAP	72	144	7
EXHLD	72	192	0	120
EXHLD	72	192	7	120
NMTTP	72	360	5	B	0	M1
NMTTP	72	360	5	E	0	M1
NMTTP	72	360	5	A	0	M1
NMTTP	72	360	6	B	0	M1
NMTTP	72	360	6	E	1	M1
NMTTP	72	360	6	A	0	M1
NMTTP	72	360	6	D	0	M1

T_REC_TAP	3
T_REC_BRK	7
T_REC_XTP	81
T_REC_BXX	70
T_REC_HLD	35
T_REC_XHO	23
T_REC_BHO	1
T_REC_BXH	16
T_REC_STR	0
T_REC_BST	0
T_REC_XST	28
T_REC_XBS	10
T_REC_TTP	184
T_REC_THO	0
T_REC_SLD	0
T_REC_BSL	38
T_REC_ALL	496
T_NUM_TAP	296
T_NUM_BRK	142
T_NUM_HLD	58
T_NUM_SLD	0
T_NUM_ALL	496
T_JUDGE_TAP	383
T_JUDGE_HLD	279
T_JUDGE_SLD	38
T_JUDGE_ALL	700
TTM_EACHPAIRS	72
TTM_SCR_TAP	148000
TTM_SCR_BRK	369200
TTM_SCR_HLD	58000
TTM_SCR_SLD	0
TTM_SCR_ALL	575200
TTM_SCR_S	544200
TTM_SCR_SS	561000
TTM_RAT_ACV	10253

