VERSION	0.00.00	1.05.00
FES_MODE	0
BPM_DEF	144.000	144.000	144.000	144.000
MET_DEF	4	4
RESOLUTION	384
CLK_DEF	384
COMPATIBLE_CODE	MA2

BPM	0	0	144.000

BRTAP	1	0	5
NMTAP	1	48	3
NMTAP	1	72	3
NMTAP	1	96	5
NMTAP	1	120	4
NMTAP	1	144	5
NMHLD	1	168	4	216
BRTAP	2	0	5
NMTAP	2	48	3
NMTAP	2	72	3
NMTAP	2	96	5
NMTAP	2	120	4
NMTAP	2	144	5
NMTAP	2	168	4
NMTAP	2	192	6
NMTAP	2	216	3
NMHLD	2	240	6	144
BRTAP	3	0	5
NMTAP	3	32	5
NMTAP	3	64	5
NMHLD	3	192	4	48
NMHLD	3	240	2	48
NMHLD	3	288	5	48
NMTAP	3	336	3
NMTAP	4	0	5
NMTAP	4	24	4
NMTAP	4	48	5
NMTAP	4	72	4
NMTAP	4	96	6
NMTAP	4	120	3
BRTAP	4	240	5
BRTAP	4	288	5
NMTAP	5	0	0
NMTAP	5	0	7
NMTAP	5	96	3
NMTAP	5	120	4
NMHLD	5	168	1	72
NMHLD	5	168	6	72
NMTAP	5	288	3
NMTAP	5	312	4
NMHLD	5	360	2	72
NMHLD	5	360	5	72
NMTAP	6	96	3
NMTAP	6	120	4
NMHLD	6	168	1	72
NMHLD	6	168	6	72
NMTAP	6	288	3
NMTAP	6	312	4
NMSTR	6	360	0
NMSI_	6	360	0	96	216	4
NMTAP	6	360	7
NMHLD	7	96	5	48
NMHLD	7	192	5	48
NMHLD	7	288	5	48
BRTAP	8	0	4
BRTAP	8	0	6
NMTAP	8	48	3
NMTAP	8	48	5
NMTAP	8	96	2
NMTAP	8	120	3
NMTAP	8	168	1
NMTAP	8	168	4
NMTAP	8	216	5
NMTAP	8	240	4
NMTAP	8	288	3
NMTAP	8	288	4
NMTAP	8	336	2
NMTAP	8	360	3
BRTAP	9	0	0
NMTAP	9	48	0
NMTAP	9	96	0
NMTAP	9	120	7
NMTAP	9	168	7
NMTAP	9	216	7
NMTAP	9	264	7
NMTAP	9	288	0
NMTAP	9	336	0
NMTAP	10	0	7
NMTAP	10	48	7
NMTAP	10	96	7
NMTAP	10	120	0
NMTAP	10	168	0
NMTAP	10	216	0
NMTAP	10	264	0
NMTAP	10	288	7
NMTAP	10	336	7
NMTAP	11	0	0
NMTAP	11	48	0
NMTAP	11	96	0
NMTAP	11	120	7
NMTAP	11	168	7
NMTAP	11	216	7
NMTAP	11	264	7
NMTAP	11	288	0
NMTAP	11	336	0
NMTAP	11	360	7
NMTAP	12	0	0
NMTAP	12	48	0
NMTAP	12	96	0
NMTAP	12	120	7
NMTAP	12	168	7
NMTAP	12	216	7
NMTAP	12	240	0
NMTAP	12	264	7
NMTAP	12	288	0
NMTAP	12	312	7
NMTAP	12	336	0
BRTAP	12	360	7
NMTAP	13	24	6
NMTAP	13	48	0
NMTAP	13	96	0
NMTAP	13	120	6
NMTAP	13	168	6
NMTAP	13	216	0
NMTAP	13	240	6
NMTAP	13	264	1
NMTAP	13	288	7
NMTAP	13	336	7
NMTAP	13	360	1
NMTAP	14	24	1
BRTAP	14	48	7
NMTAP	14	96	7
NMTAP	14	120	1
NMTAP	14	168	1
NMTAP	14	216	1
NMTAP	14	240	7
NMTAP	14	264	0
NMTAP	14	288	6
NMTAP	14	336	6
NMTAP	14	360	0
NMTAP	15	24	0
BRTAP	15	48	6
NMTAP	15	96	6
NMTAP	15	120	0
NMTAP	15	168	0
NMTAP	15	216	0
NMTAP	15	240	6
NMTAP	15	264	1
NMTAP	15	288	7
NMTAP	15	336	0
NMTAP	15	336	7
NMTAP	15	360	1
NMTAP	15	360	6
NMTAP	16	48	2
NMTAP	16	48	5
NMTAP	16	96	6
NMTAP	16	120	7
NMTAP	16	192	2
NMTAP	16	192	7
NMTAP	16	240	1
NMTAP	16	264	0
NMTAP	16	336	4
NMTAP	17	0	0
NMTAP	17	0	6
NMTAP	17	48	1
NMTAP	17	48	5
NMTAP	17	96	2
NMTAP	17	120	3
NMTAP	17	144	4
NMTAP	17	168	5
NMHLD	17	192	2	96
NMTAP	17	240	3
NMHLD	17	288	5	96
NMTAP	17	336	4
NMTAP	18	0	7
NMTAP	18	24	6
NMTAP	18	48	7
NMTAP	18	96	0
NMTAP	18	96	5
NMTAP	18	192	5
NMTAP	18	240	6
NMTAP	18	240	7
NMTAP	18	288	2
NMTAP	18	336	0
NMTAP	18	336	1
NMTAP	19	0	2
NMTAP	19	24	3
NMTAP	19	48	2
NMTAP	19	96	5
NMTAP	19	120	4
NMTAP	19	144	5
NMTAP	19	192	3
NMTAP	19	192	6
NMTAP	19	288	5
NMTAP	19	312	3
NMTAP	19	336	5
NMTAP	19	360	3
NMTAP	20	0	6
NMTAP	20	24	4
NMTAP	20	48	5
NMTAP	20	72	3
NMTAP	20	96	4
NMTAP	20	120	2
NMTAP	20	144	3
NMTAP	20	192	1
NMTAP	20	192	4
NMTAP	20	240	6
NMTAP	20	240	7
NMTAP	20	288	1
NMTAP	20	288	4
NMTAP	21	0	3
NMTAP	21	0	5
NMTAP	21	48	2
NMTAP	21	96	0
NMTAP	21	96	1
NMTAP	21	144	7
NMSTR	21	192	0
NMSI_	21	192	0	96	48	4
NMSTR	21	192	6
NMSI_	21	192	6	96	48	2
NMTAP	21	288	0
NMTAP	21	288	6
NMSTR	22	0	0
NMSI_	22	0	0	96	48	3
NMSTR	22	0	6
NMSI_	22	0	6	96	48	1
NMSTR	22	96	0
NMSV_	22	96	0	96	48	5
NMTAP	22	96	6
NMTAP	22	192	0
NMTAP	22	288	4
NMTAP	22	288	6
NMTAP	23	0	6
NMTAP	23	24	7
NMTAP	23	48	6
NMSTR	23	96	0
NMSI_	23	96	0	96	48	6
NMSTR	23	96	1
NMSI_	23	96	1	96	48	5
NMSTR	23	192	0
NMSI_	23	192	0	96	48	4
NMSTR	23	192	1
NMSI_	23	192	1	96	48	3
NMTAP	23	288	0
NMTAP	23	288	1
NMTAP	24	0	4
NMTAP	24	0	5
NMTAP	24	48	2
NMTAP	24	48	3
NMTAP	24	96	3
NMTAP	24	120	4
NMTAP	24	144	3
BRTAP	24	192	1
BRTAP	24	192	6
NMTAP	24	288	1
NMTAP	24	312	0
NMTAP	24	336	1
NMTAP	25	0	2
NMTAP	25	0	3
NMTAP	25	48	1
NMTAP	25	48	4
NMTAP	25	96	2
NMTAP	25	96	3
NMTAP	25	144	2
NMTAP	25	168	3
NMTAP	25	192	2
NMTAP	25	216	4
NMTAP	25	240	1
NMTAP	25	264	4
NMTAP	25	336	6
NMTAP	25	336	7
NMTAP	26	0	4
NMTAP	26	0	5
NMTAP	26	48	2
NMTAP	26	48	7
NMTAP	26	96	4
NMTAP	26	96	5
NMTAP	26	144	5
NMTAP	26	168	4
NMTAP	26	192	5
NMTAP	26	216	3
NMTAP	26	240	6
NMTAP	26	264	3
NMTAP	26	336	0
NMTAP	26	336	1
NMTAP	27	0	2
NMTAP	27	0	3
NMTAP	27	48	1
NMTAP	27	72	0
NMTAP	27	120	0
NMTAP	27	120	1
NMTAP	27	168	7
NMTAP	27	192	2
NMTAP	27	216	6
NMTAP	27	240	3
NMTAP	27	264	5
NMTAP	27	288	4
EXTAP	27	336	6
EXTAP	27	352	4
EXTAP	27	368	5
EXTAP	28	0	3
NMTAP	28	48	6
NMTAP	28	96	6
NMTAP	28	120	7
NMTAP	28	144	6
NMTAP	28	168	7
NMTAP	28	192	5
NMTAP	28	216	0
NMTAP	28	240	4
NMTAP	28	264	1
NMTAP	28	288	3
NMTAP	28	312	2
NMTAP	29	0	5
NMTAP	29	24	4
NMTAP	29	48	5
NMTAP	29	72	4
NMSTR	29	96	5
NMSCR	29	96	5	96	48	0
EXTAP	29	144	3
EXTAP	29	160	3
EXTAP	29	176	3
NMSTR	29	288	2
NMSCL	29	288	2	96	48	7
EXTAP	29	336	4
EXTAP	29	352	4
NMSTR	30	96	0
NMSSL	30	96	0	96	96	4
NMSTR	30	96	7
NMSSL	30	96	7	96	96	3
NMTAP	31	0	0
NMTAP	31	0	7
NMTAP	31	24	0
NMTAP	31	24	7
NMTAP	31	64	3
NMTAP	31	80	4
NMTAP	31	96	2
NMTAP	31	112	5
NMTAP	31	128	1
NMTAP	31	144	6
NMTAP	31	160	0
NMTAP	31	176	7
NMSTR	31	192	1
NMSI_	31	192	1	96	48	4
BRTAP	31	336	6
NMTAP	32	0	6
NMTAP	32	0	7
NMTAP	32	48	5
NMTAP	32	72	0
NMTAP	32	96	4
NMTAP	32	120	1
NMTAP	32	144	3
NMTAP	32	168	2
NMTAP	32	216	5
NMTAP	32	240	4
NMTAP	32	264	5
BRTAP	32	288	1
NMTAP	33	0	1
NMTAP	33	0	4
NMTAP	33	48	1
NMTAP	33	48	4
NMTAP	33	96	5
NMTAP	33	120	4
NMHLD	33	168	3	48
NMHLD	33	168	6	48
NMTAP	33	240	3
NMTAP	33	240	6
NMTAP	33	288	2
NMTAP	33	312	3
NMHLD	33	360	1	48
NMHLD	33	360	4	48
NMTAP	34	48	1
NMTAP	34	48	4
NMTAP	34	96	6
NMTAP	34	120	7
NMHLD	34	168	0	48
NMHLD	34	168	5	48
NMTAP	34	240	0
NMTAP	34	240	5
NMTAP	34	288	1
NMTAP	34	312	0
NMHLD	34	360	2	48
NMHLD	34	360	7	48
NMTAP	35	48	2
NMTAP	35	48	7
NMTAP	35	96	7
NMTAP	35	120	0
NMHLD	35	168	1	48
NMHLD	35	168	6	48
NMTAP	35	240	1
NMTAP	35	240	6
NMTAP	35	288	4
NMTAP	35	312	3
BRSTR	35	360	1
NMSXR	35	360	1	96	216	4
BRSTR	35	360	6
NMSXL	35	360	6	96	216	3
BRTAP	37	0	1
BRTAP	37	0	6
NMTAP	38	0	0
NMSTR	38	0	7
NMSCL	38	0	7	96	864	0
NMSTR	40	0	7
NMSCL	40	0	7	96	576	0
NMTAP	42	0	0
NMTAP	42	24	7
NMTAP	42	48	6
NMTAP	42	72	5
NMTAP	42	96	4
NMTAP	42	120	3
NMTAP	42	144	2
NMTAP	42	168	1
NMTAP	42	192	0
NMTAP	42	216	7
NMTAP	42	240	6
NMTAP	42	264	5
NMTAP	42	288	4
NMTAP	42	312	3
NMTAP	42	336	2
NMTAP	42	360	1
NMTAP	43	0	0
NMTAP	43	16	7
NMTAP	43	32	6
NMTAP	43	48	5
NMTAP	43	64	4
NMTAP	43	80	3
NMTAP	43	96	2
NMTAP	43	112	1
NMTAP	43	128	0
NMTAP	43	144	7
NMTAP	43	160	6
NMTAP	43	176	5
NMTAP	43	192	4
NMTAP	43	208	3
NMTAP	43	224	2
NMTAP	43	240	1
NMTAP	43	256	0
NMTAP	43	272	7
NMTAP	43	288	6
NMTAP	43	304	5
NMTAP	43	320	4
NMTAP	43	336	3
NMTAP	43	352	2
NMTAP	43	368	1
NMTAP	44	0	0
NMTAP	44	12	7
NMTAP	44	24	6
NMTAP	44	36	5
NMTAP	44	48	4
NMTAP	44	60	3
NMTAP	44	72	2
NMTAP	44	84	1
NMTAP	44	96	0
NMTAP	44	108	7
NMTAP	44	120	6
NMTAP	44	132	5
NMTAP	44	144	4
NMTAP	44	156	3
NMTAP	44	168	2
NMTAP	44	180	1
NMTAP	44	192	0
NMTAP	44	204	7
NMTAP	44	216	6
NMTAP	44	228	5
NMTAP	44	240	4
NMTAP	44	252	3
NMTAP	44	264	2
NMTAP	44	276	1
NMTAP	44	288	0
NMTAP	44	300	7
NMTAP	44	312	6
NMTAP	44	324	5
NMTAP	44	336	4
NMTAP	44	348	3
NMTAP	44	360	2
NMTAP	44	372	1
BRTAP	45	0	0
BRTAP	45	0	5
BRTAP	45	72	2
BRTAP	45	72	7
BRTAP	45	144	0
BRTAP	45	144	4
NMSTR	45	288	5
NMSI_	45	288	5	96	48	0
NMTAP	45	336	4
NMTAP	45	336	6
NMTAP	46	0	5
NMSTR	46	96	2
NMSI_	46	96	2	96	48	7
NMTAP	46	96	3
NMHLD	46	120	2	48
NMTAP	46	120	3
NMTAP	46	168	4
NMTAP	46	288	4
NMSTR	46	288	5
NMSI_	46	288	5	96	48	0
NMTAP	46	312	4
NMHLD	46	312	5	48
NMTAP	46	360	3
NMSTR	47	96	2
NMSI_	47	96	2	96	48	7
NMTAP	47	96	3
NMHLD	47	120	2	48
NMTAP	47	120	3
NMTAP	47	168	4
NMSTR	47	288	5
NMSI_	47	288	5	96	48	0
NMTAP	47	336	4
NMTAP	47	336	6
NMTAP	48	0	5
NMTAP	48	96	2
NMTAP	48	96	3
NMTAP	48	120	2
NMTAP	48	120	3
NMTAP	48	168	0
NMTAP	48	168	5
NMTAP	48	240	6
NMTAP	48	264	7
NMTAP	48	288	6
NMTAP	48	336	0
NMTAP	48	336	5
BRTAP	49	0	6
BRTAP	49	0	7
BRTAP	49	72	2
BRTAP	49	72	3
BRTAP	49	144	0
BRTAP	49	144	5
NMSTR	49	288	2
NMSI_	49	288	2	96	48	6
NMTAP	49	336	1
NMTAP	49	336	3
NMTAP	50	0	2
NMSTR	50	96	4
NMSI_	50	96	4	96	48	0
NMTAP	50	96	5
NMHLD	50	120	4	48
NMTAP	50	120	5
NMTAP	50	168	7
NMTAP	50	288	2
NMSTR	50	288	3
NMSI_	50	288	3	96	48	7
NMTAP	50	312	2
NMHLD	50	312	3	48
NMTAP	50	360	0
NMSTR	51	96	4
NMSI_	51	96	4	96	48	0
NMTAP	51	96	5
NMHLD	51	120	4	48
NMTAP	51	120	5
NMTAP	51	168	7
NMSTR	51	288	2
NMSI_	51	288	2	96	48	6
NMTAP	51	336	1
NMTAP	51	336	3
NMTAP	52	0	2
NMTAP	52	96	4
NMTAP	52	96	5
NMTAP	52	120	4
NMTAP	52	120	5
NMTAP	52	168	2
NMTAP	52	168	7
NMTAP	52	240	1
NMTAP	52	264	0
NMTAP	52	288	1
NMTAP	52	336	3
NMTAP	52	336	6
NMHLD	53	0	3	48
NMHLD	53	0	6	48
NMHLD	53	72	2	48
NMHLD	53	72	5	48
NMHLD	53	144	1	144
NMHLD	53	144	4	144
BRTAP	54	0	1
BRTAP	54	0	4
NMSTR	54	96	6
NMSUR	54	96	6	96	48	3
NMTAP	54	96	7
NMHLD	54	120	6	48
NMTAP	54	120	7
NMTAP	54	168	2
NMTAP	54	288	0
NMSTR	54	288	1
NMSLL	54	288	1	96	48	3
NMTAP	54	312	0
NMHLD	54	312	1	48
NMTAP	54	360	4
NMSTR	55	96	6
NMSLL	55	96	6	96	48	2
NMTAP	55	96	7
NMHLD	55	120	6	48
NMTAP	55	120	7
NMTAP	55	168	1
NMSTR	55	288	0
NMSI_	55	288	0	96	48	5
NMSTR	55	288	1
NMSI_	55	288	1	96	48	5
NMTAP	55	336	2
NMTAP	55	336	7
NMTAP	56	96	4
NMTAP	56	96	5
NMTAP	56	120	4
NMTAP	56	120	5
NMTAP	56	168	2
NMTAP	56	168	7
NMTAP	56	240	1
NMTAP	56	264	0
NMTAP	56	288	2
NMTAP	56	336	4
NMTAP	56	336	6
BRTAP	57	0	0
BRTAP	57	0	1
BRTAP	57	72	4
BRTAP	57	72	5
BRTAP	57	144	2
BRTAP	57	144	7
NMSTR	57	288	6
NMSI_	57	288	6	96	48	2
NMSTR	57	288	7
NMSI_	57	288	7	96	48	2
NMTAP	57	336	0
NMTAP	57	336	5
NMTAP	58	96	0
NMSTR	58	96	1
NMSUL	58	96	1	96	48	4
NMTAP	58	120	0
NMHLD	58	120	1	48
NMTAP	58	168	5
NMSTR	58	288	6
NMSLR	58	288	6	96	48	4
NMTAP	58	288	7
NMHLD	58	312	6	48
NMTAP	58	312	7
NMTAP	58	360	3
NMTAP	59	96	0
NMSTR	59	96	1
NMSLR	59	96	1	96	48	5
NMTAP	59	120	0
NMHLD	59	120	1	48
NMTAP	59	168	6
NMSTR	59	288	6
NMSI_	59	288	6	96	48	2
NMSTR	59	288	7
NMSI_	59	288	7	96	48	2
NMTAP	59	336	0
NMTAP	59	336	5
NMTAP	60	96	2
NMTAP	60	96	3
NMTAP	60	120	2
NMTAP	60	120	3
NMTAP	60	168	0
NMTAP	60	168	5
NMTAP	60	240	6
NMTAP	60	264	7
NMTAP	60	288	5
NMTAP	60	336	1
NMTAP	60	336	3
NMTAP	61	0	3
NMTAP	61	0	6
NMTAP	61	72	1
NMTAP	61	72	4
NMTAP	61	144	3
NMTAP	61	144	7
NMTAP	61	216	0
NMTAP	61	216	4
NMTAP	61	288	4
NMTAP	61	300	3
NMTAP	61	312	4
NMTAP	61	336	3
NMTAP	61	360	4
NMTAP	62	0	3
BRTAP	62	24	5
NMTAP	62	72	6
NMTAP	62	96	4
NMTAP	62	144	1
NMTAP	62	168	3
NMTAP	62	216	0
NMTAP	62	240	7
NMTAP	62	288	2
NMTAP	62	312	4
NMTAP	62	336	3
BRTAP	63	0	0
BRHLD	63	0	6	240
NMTAP	63	240	4
NMTAP	63	264	5
BRTAP	63	288	0
BRTAP	63	288	7
BRTAP	64	0	1
NMTAP	64	48	1
NMTAP	64	96	1
NMTAP	64	120	7
NMTAP	64	168	7
NMTAP	64	216	7
NMTAP	64	264	7
NMTAP	64	288	1
NMTAP	64	336	1
NMTAP	65	0	7
NMTAP	65	48	7
NMTAP	65	96	7
NMTAP	65	120	1
NMTAP	65	168	1
NMTAP	65	216	1
NMTAP	65	264	1
NMTAP	65	288	7
NMTAP	65	336	7
NMTAP	66	0	0
BRTAP	66	0	6
NMTAP	66	48	0
NMTAP	66	96	0
NMTAP	66	120	6
NMTAP	66	168	6
NMTAP	66	216	6
NMTAP	66	264	6
NMTAP	66	288	0
NMTAP	66	336	0
NMTAP	66	360	6
NMTAP	67	0	0
NMTAP	67	48	0
NMTAP	67	96	0
NMTAP	67	120	6
NMTAP	67	168	6
NMTAP	67	216	6
NMTAP	67	240	0
NMTAP	67	264	6
NMTAP	67	288	0
NMTAP	67	312	6
NMTAP	67	336	0
BRTAP	67	360	7
NMTAP	68	24	7
NMTAP	68	48	1
NMTAP	68	96	1
NMTAP	68	120	6
NMTAP	68	168	6
NMTAP	68	216	1
NMTAP	68	240	7
NMTAP	68	264	0
NMTAP	68	288	6
NMTAP	68	336	6
NMTAP	68	360	0
NMTAP	69	24	0
BRTAP	69	48	7
NMTAP	69	96	7
NMTAP	69	120	1
NMTAP	69	168	1
NMTAP	69	216	1
NMTAP	69	240	7
NMTAP	69	264	1
NMTAP	69	288	6
NMTAP	69	312	0
NMTAP	69	360	0
NMTAP	70	24	0
BRTAP	70	48	6
NMTAP	70	96	6
NMTAP	70	120	0
NMTAP	70	168	0
NMTAP	70	216	0
NMTAP	70	240	6
NMTAP	70	264	1
NMTAP	70	288	7
NMTAP	70	336	0
NMTAP	70	336	7
NMTAP	70	360	1
NMTAP	70	360	6
NMTAP	71	48	2
NMTAP	71	96	2
NMTAP	71	120	1
NMTAP	71	120	3
NMTAP	71	192	5
NMTAP	71	240	5
NMTAP	71	264	4
NMTAP	71	264	6
NMTAP	71	336	3
NMTAP	71	336	4
NMTAP	72	0	3
NMTAP	72	0	4
NMTAP	72	24	2
NMTAP	72	24	5
NMTAP	72	96	1
NMTAP	72	96	4
NMTAP	72	144	2
NMTAP	72	168	3
NMTAP	72	192	2
NMTAP	72	216	4
NMTAP	72	240	3
NMTAP	72	240	5
NMTAP	72	288	0
NMTAP	72	312	7
NMTAP	72	336	0
NMTTP	72	360	5	B	0	M1
NMTTP	72	360	5	E	0	M1
NMTTP	72	360	5	A	0	M1
NMTTP	72	360	6	B	0	M1
NMTTP	72	360	6	E	1	M1
NMTTP	72	360	6	A	0	M1
NMTTP	72	360	6	D	0	M1

T_REC_TAP	594
T_REC_BRK	46
T_REC_XTP	9
T_REC_BXX	0
T_REC_HLD	44
T_REC_XHO	0
T_REC_BHO	1
T_REC_BXH	0
T_REC_STR	39
T_REC_BST	2
T_REC_XST	0
T_REC_XBS	0
T_REC_TTP	7
T_REC_THO	0
T_REC_SLD	41
T_REC_BSL	0
T_REC_ALL	783
T_NUM_TAP	649
T_NUM_BRK	49
T_NUM_HLD	44
T_NUM_SLD	41
T_NUM_ALL	783
T_JUDGE_TAP	697
T_JUDGE_HLD	67
T_JUDGE_SLD	41
T_JUDGE_ALL	805
TTM_EACHPAIRS	143
TTM_SCR_TAP	324500
TTM_SCR_BRK	127400
TTM_SCR_HLD	44000
TTM_SCR_SLD	61500
TTM_SCR_ALL	557400
TTM_SCR_S	535950
TTM_SCR_SS	552500
TTM_RAT_ACV	10088

