VERSION	0.00.00	1.05.00
FES_MODE	1
BPM_DEF	160.000	160.000	160.000	160.000
MET_DEF	4	4
RESOLUTION	384
CLK_DEF	384
COMPATIBLE_CODE	MA2

BPM	0	0	160.000

EXSTR	3	0	3
NMSI_	3	0	3	96	48	0
EXSTR	4	0	4
NMSI_	4	0	4	96	48	7
EXSTR	5	0	3
NMSI_	5	0	3	96	48	0
EXSTR	6	0	4
NMSI_	6	0	4	96	1248	7
EXSTR	7	0	3
NMSI_	7	0	3	96	48	0
EXSTR	8	0	0
NMSI_	8	0	0	96	48	3
EXSTR	9	0	3
NMSI_	9	0	3	96	48	0
EXSTR	9	288	0
NMSI_	9	288	0	96	192	3
EXSTR	9	288	7
NMSI_	9	288	7	96	48	4
EXSTR	11	0	5
NMSI_	11	0	5	96	48	0
EXSTR	11	192	2
NMSI_	11	192	2	96	48	7
EXSTR	12	0	5
NMSI_	12	0	5	96	288	0
EXSTR	12	96	5
NMSI_	12	96	5	96	48	3
EXSTR	12	192	5
NMSI_	12	192	5	96	48	1
EXSTR	13	0	2
NMSI_	13	0	2	96	48	7
EXSTR	13	192	5
NMSI_	13	192	5	96	48	0
EXSTR	14	0	2
NMSI_	14	0	2	96	288	7
EXSTR	14	96	2
NMSI_	14	96	2	96	48	6
EXSTR	14	192	2
NMSCR	14	192	2	96	48	5
EXSTR	14	288	2
NMSI_	14	288	2	96	48	0
EXSTR	15	192	6
NMSI_	15	192	6	96	48	3
EXSTR	16	0	1
NMSI_	16	0	1	96	48	4
EXSTR	16	192	5
NMSI_	16	192	5	96	48	2
EXSTR	16	288	1
NMSI_	16	288	1	96	48	6
EXSTR	17	0	5
NMSI_	17	0	5	96	48	2
EXSTR	17	96	1
NMSI_	17	96	1	96	48	6
EXSTR	17	192	5
NMSCL	17	192	5	96	384	2
EXSTR	18	192	1
NMSCL	18	192	1	96	48	6
EXSTR	19	0	0
NMSI_	19	0	0	96	48	3
EXSTR	19	96	7
NMSI_	19	96	7	96	48	4
EXSTR	19	192	0
NMSI_	19	192	0	96	48	3
EXSTR	19	288	7
NMSI_	19	288	7	96	48	4
CNSI_	20	48	4	0	48	7
EXSTR	20	96	0
NMSI_	20	96	0	96	48	3
NMSI_	20	96	0	96	48	5
CNSI_	20	240	3	0	48	0
EXSTR	21	0	7
NMSI_	21	0	7	96	48	4
EXSTR	21	96	0
NMSI_	21	96	0	96	48	3
EXSTR	21	192	7
NMSI_	21	192	7	96	48	4
EXSTR	21	288	0
NMSI_	21	288	0	96	48	3
CNSI_	22	48	3	0	48	0
EXSTR	22	96	7
NMSI_	22	96	7	96	48	4
NMSCR	22	96	7	96	144	3
CNSI_	22	240	4	0	48	7
EXSTR	23	0	7
NMSF_	23	0	7	96	48	3
EXSTR	23	192	0
NMSF_	23	192	0	96	48	4
EXSTR	24	0	7
NMSI_	24	0	7	96	48	3
EXSTR	24	96	7
NMSI_	24	96	7	96	48	1
NMSI_	24	96	7	96	48	5
EXSTR	24	192	7
NMSF_	24	192	7	96	48	3
EXSTR	25	0	0
NMSI_	25	0	0	96	48	4
EXSTR	25	192	7
NMSI_	25	192	7	96	48	3
EXSTR	26	0	0
NMSCR	26	0	0	96	48	3
EXSTR	26	96	0
NMSCL	26	96	0	96	48	5
EXSTR	26	192	0
NMSI_	26	192	0	96	144	3
EXSTR	26	288	0
NMSI_	26	288	0	96	48	4
EXSTR	27	96	5
NMSCR	27	96	5	96	48	0
EXSTR	27	288	2
NMSCL	27	288	2	96	48	7
EXSTR	28	0	2
NMSCR	28	0	2	96	48	5
EXSTR	28	96	2
NMSI_	28	96	2	96	48	6
EXSTR	28	192	2
NMSI_	28	192	2	96	48	4
EXSTR	29	0	5
NMSI_	29	0	5	96	864	2
EXSTR	29	288	1
NMSI_	29	288	1	96	48	7
EXSTR	30	96	6
NMSI_	30	96	6	96	48	0
EXSTR	30	288	1
NMSI_	30	288	1	96	48	7
EXSTR	31	96	6
NMSI_	31	96	6	96	48	0
EXSTR	31	288	1
NMSI_	31	288	1	96	1056	6
EXSTR	32	192	5
NMSV_	32	192	5	96	96	3
EXSTR	33	192	2
NMSV_	33	192	2	96	96	4
EXSTR	34	96	4
NMSI_	34	96	4	96	48	0
EXSTR	34	192	4
NMSI_	34	192	4	96	48	7
EXSTR	35	0	0
NMSI_	35	0	0	96	72	4
CNSI_	35	168	4	0	72	1
CNSI_	35	240	1	0	72	7
CNSI_	35	312	7	0	72	5
CNSI_	36	0	5	0	72	2
CNSI_	36	72	2	0	72	6
CNSI_	36	144	6	0	48	3
EXSTR	37	0	7
NMSI_	37	0	7	96	72	4
CNSI_	37	168	4	0	72	1
CNSI_	37	240	1	0	72	3
CNSI_	37	312	3	0	72	6
CNSI_	38	0	6	0	72	2
CNSI_	38	72	2	0	72	5
CNSI_	38	144	5	0	48	0
CNSCR	38	192	0	0	96	6
EXSTR	39	0	3
NMSI_	39	0	3	96	72	1
CNSI_	39	168	1	0	72	5
CNSI_	39	240	5	0	72	3
CNSI_	39	312	3	0	72	6
CNSI_	40	0	6	0	72	2
CNSCL	40	72	2	0	120	4
CNSI_	40	192	4	0	96	7
EXSTR	41	0	4
NMSCR	41	0	4	96	72	7
CNSCR	41	168	7	0	72	2
CNSCL	41	240	2	0	72	0
CNSCL	41	312	0	0	72	5
CNSCL	42	0	5	0	72	1
CNSI_	42	72	1	0	120	5
EXSTR	42	288	3
NMSXR	42	288	3	96	144	3
CNSXR	43	144	3	0	144	3
CNSI_	43	288	3	0	48	0
EXSTR	43	288	7
NMSXR	43	288	7	96	144	7
CNSXR	44	144	7	0	144	7
CNSXR	44	288	7	0	96	7
EXSTR	45	0	0
NMSXL	45	0	0	96	192	3
CNSI_	45	0	7	0	48	4
EXSTR	45	192	4
NMSXL	45	192	4	96	192	7
EXSTR	46	192	0
NMSI_	46	192	0	96	48	3
EXSTR	46	240	0
NMSI_	46	240	0	96	48	5
EXSTR	46	288	0
NMSI_	46	288	0	96	48	4
EXSTR	47	96	6
NMSXL	47	96	6	96	144	6
CNSXL	47	336	6	0	144	6
CNSXL	48	96	6	0	144	6
CNSXL	48	240	6	0	144	6
CNSXL	49	0	6	0	144	6
EXSTR	49	96	2
NMSXL	49	96	2	96	144	2
CNSXL	49	336	2	0	144	2
EXSTR	50	0	6
NMSXL	50	0	6	96	144	6
CNSXL	50	96	2	0	144	2
CNSXL	50	240	2	0	96	2
CNSXL	50	240	6	0	96	6
NMTTP	51	0	0	C	1	M1
EXSTR	52	0	2
NMSCL	52	0	2	96	288	5
EXSTR	54	0	2
NMSCL	54	0	2	96	288	5
EXSTR	56	0	2
NMSCL	56	0	2	96	96	0
CNSCR	56	192	0	0	24	1
CNSCL	56	216	1	0	24	0
CNSCR	56	240	0	0	24	1
CNSCL	56	264	1	0	24	0
CNSCR	56	288	0	0	24	1
CNSCL	56	312	1	0	168	5
EXSTR	58	0	2
NMSCL	58	0	2	96	96	5
CNSCR	58	192	5	0	24	6
CNSCL	58	216	6	0	24	5
CNSCR	58	240	5	0	24	6
CNSCL	58	264	6	0	24	5
CNSCR	58	288	5	0	24	6
CNSCL	58	312	6	0	24	5
CNSCR	58	336	5	0	24	6
CNSCL	58	360	6	0	24	5
CNSCR	59	0	5	0	24	6
CNSCL	59	24	6	0	24	5
CNSCR	59	48	5	0	24	6
CNSCL	59	72	6	0	120	4
EXSTR	60	0	3
NMSCL	60	0	3	96	384	0
EXSTR	61	0	4
NMSCR	61	0	4	96	384	7
EXSTR	62	0	3
NMSCL	62	0	3	96	384	0
EXSTR	63	0	4
NMSCR	63	0	4	96	24	5
CNSCL	63	120	5	0	24	4
CNSCR	63	144	4	0	24	5
CNSCL	63	168	5	0	24	4
CNSCR	63	192	4	0	24	5
CNSCL	63	216	5	0	24	4
CNSCR	63	240	4	0	24	5
CNSCL	63	264	5	0	24	4
CNSCR	63	288	4	0	48	7
EXSTR	64	0	3
NMSCL	64	0	3	96	24	1
CNSCR	64	120	1	0	24	2
CNSCL	64	144	2	0	24	1
CNSCR	64	168	1	0	24	2
CNSCL	64	192	2	0	24	1
CNSCR	64	216	1	0	24	2
CNSCL	64	240	2	0	24	1
CNSCR	64	264	1	0	24	2
CNSCL	64	288	2	0	24	1
CNSCR	64	312	1	0	24	2
CNSCL	64	336	2	0	24	1
CNSCR	64	360	1	0	24	2
CNSCL	65	0	2	0	24	1
CNSCR	65	24	1	0	24	2
CNSCL	65	48	2	0	24	1
CNSCR	65	72	1	0	24	2
CNSCL	65	96	2	0	24	1
CNSCR	65	120	1	0	24	2
CNSCL	65	144	2	0	24	1
CNSCR	65	168	1	0	24	2
CNSCL	65	192	2	0	24	0
EXSTR	66	0	4
NMSI_	66	0	4	96	48	7
EXSTR	66	192	3
NMSI_	66	192	3	96	48	0
EXSTR	67	0	4
NMSI_	67	0	4	96	48	7
EXSTR	67	192	3
NMSI_	67	192	3	96	48	0
EXSTR	67	192	7
NMSI_	67	192	7	96	48	4
EXSTR	68	0	1
NMSI_	68	0	1	96	48	6
EXSTR	68	0	5
NMSI_	68	0	5	96	48	2
EXSTR	68	192	0
NMSI_	68	192	0	96	48	4
EXSTR	68	288	0
NMSI_	68	288	0	96	48	3
NMSI_	68	288	0	96	48	5
EXSTR	69	96	6
NMSI_	69	96	6	96	48	2
EXSTR	69	192	0
NMSI_	69	192	0	96	48	4
EXSTR	70	0	2
NMSI_	70	0	2	96	48	5
EXSTR	70	0	6
NMSI_	70	0	6	96	48	1
EXSTR	70	192	7
NMSI_	70	192	7	96	48	3
EXSTR	70	288	7
NMSI_	70	288	7	96	48	2
NMSCL	70	288	7	96	192	3
EXSTR	71	192	0
NMSI_	71	192	0	96	48	4
EXSTR	71	288	0
NMSI_	71	288	0	96	48	3
NMSI_	71	288	0	96	48	5
EXSTR	72	96	7
NMSI_	72	96	7	96	48	3
EXSTR	72	192	7
NMSCL	72	192	7	96	96	4
NMSCR	72	192	7	96	96	2
CNSCL	73	0	2	0	48	7
CNSCR	73	0	4	0	48	7
EXSTR	73	192	3
NMSI_	73	192	3	96	864	0
EXSTR	73	288	3
NMSI_	73	288	3	96	48	7
EXSTR	74	0	3
NMSI_	74	0	3	96	48	1
EXSTR	74	96	3
NMSI_	74	96	3	96	48	5
EXSTR	74	192	3
NMSI_	74	192	3	96	48	7
EXSTR	74	288	3
NMSI_	74	288	3	96	48	1
EXSTR	75	0	3
NMSI_	75	0	3	96	48	5
EXSTR	75	96	3
NMSI_	75	96	3	96	48	7
EXSTR	75	192	3
NMSI_	75	192	3	96	48	1
BRSTR	76	0	7
NMSCL	76	0	7	384	768	5
NMSCL	76	0	7	384	1152	4
NMSCL	76	0	7	384	1536	3
NMSCL	76	0	7	384	1920	2
NMSCL	76	0	7	384	2304	1
NMSCL	76	0	7	2688	192	0
BRTAP	76	96	7
CNSCR	83	192	0	0	192	7

T_REC_TAP	0
T_REC_BRK	1
T_REC_XTP	0
T_REC_BXX	0
T_REC_HLD	0
T_REC_XHO	0
T_REC_BHO	0
T_REC_BXH	0
T_REC_STR	0
T_REC_BST	1
T_REC_XST	115
T_REC_XBS	0
T_REC_TTP	1
T_REC_THO	0
T_REC_SLD	128
T_REC_BSL	0
T_REC_ALL	246
T_NUM_TAP	116
T_NUM_BRK	2
T_NUM_HLD	0
T_NUM_SLD	128
T_NUM_ALL	246
T_JUDGE_TAP	118
T_JUDGE_HLD	0
T_JUDGE_SLD	128
T_JUDGE_ALL	246
TTM_EACHPAIRS	4
TTM_SCR_TAP	58000
TTM_SCR_BRK	5200
TTM_SCR_HLD	0
TTM_SCR_SLD	192000
TTM_SCR_ALL	255200
TTM_SCR_S	247350
TTM_SCR_SS	255000
TTM_RAT_ACV	10007

