VERSION	0.00.00	1.05.00
FES_MODE	1
BPM_DEF	180.000	180.000	180.000	180.000
MET_DEF	4	4
RESOLUTION	384
CLK_DEF	384
COMPATIBLE_CODE	MA2

BPM	0	0	180.000
MET	0	0	4	4

BXTAP	5	0	3
BXTAP	5	24	4
BXTAP	5	48	3
BXTAP	5	72	4
BXTAP	5	96	3
BXTAP	5	120	4
BXTAP	5	144	3
BXTAP	5	168	4
BXTAP	5	192	3
BXTAP	5	216	4
BXTAP	5	240	3
BXTAP	5	264	4
BXTAP	5	288	3
BXTAP	5	312	4
BXTAP	5	336	3
BXTAP	5	360	4
BXTAP	6	0	2
BXTAP	6	24	5
BXTAP	6	48	2
BXTAP	6	72	5
BXTAP	6	96	2
BXTAP	6	120	5
BXTAP	6	144	2
BXTAP	6	168	5
BXTAP	6	192	2
BXTAP	6	216	5
BXTAP	6	240	2
BXTAP	6	264	5
BXTAP	6	288	2
BXTAP	6	312	5
BXTAP	6	336	2
BXTAP	6	360	5
BRTAP	7	0	1
BXTAP	7	24	6
BXTAP	7	48	1
BXTAP	7	72	6
BRTAP	7	96	1
BXTAP	7	120	6
BXTAP	7	144	1
BXTAP	7	168	6
BRTAP	7	192	0
BXTAP	7	216	7
BXTAP	7	240	0
BXTAP	7	264	7
BRTAP	7	288	0
BXTAP	7	312	7
BXTAP	7	336	0
BXTAP	7	360	7
BRTAP	8	0	0
NMTAP	8	12	1
BRTAP	8	24	2
NMTAP	8	36	3
BRTAP	8	48	4
NMTAP	8	60	5
BRTAP	8	72	6
NMTAP	8	84	7
BRTAP	8	96	0
NMTAP	8	108	1
BRTAP	8	120	2
NMTAP	8	132	3
BRTAP	8	144	4
NMTAP	8	156	5
BRTAP	8	168	6
NMTAP	8	180	7
BRTAP	8	192	0
NMTAP	8	204	1
BRTAP	8	216	2
NMTAP	8	228	3
BRTAP	8	240	4
NMTAP	8	252	5
BRTAP	8	264	6
NMTAP	8	276	7
BRTAP	8	288	0
NMTAP	8	300	1
BRTAP	8	312	2
NMTAP	8	324	3
BRTAP	8	336	4
NMTAP	8	348	5
BRTAP	8	360	6
NMTAP	8	372	7
BRTAP	9	0	0
NMTAP	9	48	1
NMTAP	9	72	0
NMTAP	9	96	1
NMTAP	9	144	1
NMTAP	9	168	0
NMTAP	9	192	1
NMTAP	9	240	1
NMTAP	9	264	0
NMTAP	9	288	2
NMTAP	9	312	7
NMTAP	9	336	3
NMTAP	9	360	6
NMHLD	10	0	4	48
NMHLD	10	0	5	48
NMHLD	10	96	5	48
NMHLD	10	96	6	48
NMTAP	10	192	7
NMTAP	10	240	7
NMTAP	10	264	0
NMTAP	10	288	1
NMTAP	10	288	6
NMTAP	11	0	6
NMTAP	11	24	7
NMTAP	11	48	6
NMTAP	11	72	7
NMTAP	11	96	6
NMTAP	11	120	7
NMTAP	11	144	6
NMTAP	11	192	0
NMTAP	11	192	5
NMTAP	11	240	1
NMTAP	11	264	4
NMTAP	11	288	2
NMTAP	11	312	3
NMTAP	11	336	2
NMTAP	11	360	3
NMTAP	12	0	2
NMTAP	12	48	3
NMTAP	12	48	4
NMTAP	12	96	5
NMTAP	12	120	4
NMTAP	12	144	5
NMTAP	12	168	4
NMSTR	12	192	5
NMSI_	12	192	5	96	48	1
NMSTR	12	216	4
NMSI_	12	216	4	96	24	0
NMTAP	12	240	5
NMTAP	12	264	4
NMTAP	13	0	6
NMTAP	13	24	7
NMTAP	13	48	6
NMTAP	13	72	7
NMTAP	13	96	6
BRTAP	13	120	7
BRTAP	13	192	0
BRTAP	13	216	5
BRTAP	13	240	0
BRTAP	13	264	5
BRTAP	13	288	0
NMHLD	13	336	1	72
NMTAP	13	336	4
NMTAP	14	24	3
NMTAP	14	48	2
NMTAP	14	72	4
NMTAP	14	96	3
NMTAP	14	120	5
NMTAP	14	144	4
NMTAP	14	168	5
BRSTR	14	192	3
BRSI_	14	192	3	96	48	7
BRSTR	14	216	4
BRSI_	14	216	4	96	24	0
BRTAP	14	240	3
BRTAP	14	264	4
NMHLD	15	0	1	24
NMHLD	15	48	1	24
NMHLD	15	96	0	24
NMHLD	15	144	0	24
NMHLD	15	192	7	24
NMHLD	15	240	7	24
NMHLD	15	288	0	24
NMHLD	15	288	6	24
NMTAP	15	336	1
NMTAP	15	336	5
NMTAP	16	0	3
NMTAP	16	24	4
NMTAP	16	48	3
NMTAP	16	72	4
NMTAP	16	96	2
NMTAP	16	120	5
NMTAP	16	144	2
NMTAP	16	168	5
NMTAP	16	192	1
NMTAP	16	216	6
NMTAP	16	240	1
NMTAP	16	264	6
NMSTR	16	288	0
BRSF_	16	288	0	96	48	4
BRTAP	17	0	0
NMTTP	17	96	6	E	0	M1
NMTTP	17	192	0	C	0	M1
NMTTP	17	288	2	E	0	M1
NMSTR	18	0	1
NMSV_	18	0	1	96	672	4
NMSTR	18	0	6
BRSI_	18	0	6	96	480	2
NMSTR	20	0	3
BRSI_	20	0	3	96	480	5
CNSV_	20	0	4	0	768	7
NMSTR	22	0	6
BRSI_	22	0	6	96	480	2
CNSV_	22	0	7	0	768	4
NMSTR	24	0	3
BRSI_	24	0	3	96	480	5
CNSV_	24	0	4	0	576	1
NMHLD	26	0	2	96
NMHLD	26	0	3	96
NMTTP	26	192	0	C	0	M1
NMTTP	26	192	1	B	0	M1
NMTTP	26	192	1	A	0	M1
NMTTP	26	192	2	B	0	M1
NMTTP	26	192	2	A	0	M1
NMTTP	26	192	3	A	0	M1
NMTTP	26	192	4	B	0	M1
NMTTP	26	192	4	E	0	M1
NMTTP	26	192	4	A	0	M1
NMTTP	26	192	5	E	0	M1
NMTTP	26	192	5	A	0	M1
NMTTP	26	192	6	B	0	M1
NMTTP	26	192	6	A	0	M1
NMTTP	26	192	7	B	0	M1
NMTTP	26	192	7	A	0	M1
NMHLD	27	0	4	96
NMHLD	27	0	5	96
NMTTP	27	192	0	B	0	M1
NMTTP	27	192	0	C	0	M1
NMTTP	27	192	0	A	0	M1
NMTTP	27	192	1	B	0	M1
NMTTP	27	192	1	A	0	M1
NMTTP	27	192	2	A	0	M1
NMTTP	27	192	3	B	0	M1
NMTTP	27	192	3	E	0	M1
NMTTP	27	192	3	A	0	M1
NMTTP	27	192	4	E	0	M1
NMTTP	27	192	4	A	0	M1
NMTTP	27	192	5	B	0	M1
NMTTP	27	192	5	A	0	M1
NMTTP	27	192	6	B	0	M1
NMTTP	27	192	6	A	0	M1
NMHLD	28	0	2	96
NMHLD	28	0	3	96
NMTTP	28	192	0	C	0	M1
NMTTP	28	192	1	B	0	M1
NMTTP	28	192	1	A	0	M1
NMTTP	28	192	2	B	0	M1
NMTTP	28	192	2	A	0	M1
NMTTP	28	192	3	A	0	M1
NMTTP	28	192	4	B	0	M1
NMTTP	28	192	4	E	0	M1
NMTTP	28	192	4	A	0	M1
NMTTP	28	192	5	E	0	M1
NMTTP	28	192	5	A	0	M1
NMTTP	28	192	6	B	0	M1
NMTTP	28	192	6	A	0	M1
NMTTP	28	192	7	B	0	M1
NMTTP	28	192	7	A	0	M1
NMHLD	29	0	4	96
NMHLD	29	0	5	96
NMTTP	29	192	0	B	0	M1
NMTTP	29	192	0	C	0	M1
NMTTP	29	192	0	A	0	M1
NMTTP	29	192	1	B	0	M1
NMTTP	29	192	1	A	0	M1
NMTTP	29	192	2	A	0	M1
NMTTP	29	192	3	B	0	M1
NMTTP	29	192	3	E	0	M1
NMTTP	29	192	3	A	0	M1
NMTTP	29	192	4	E	0	M1
NMTTP	29	192	4	A	0	M1
NMTTP	29	192	5	B	0	M1
NMTTP	29	192	5	A	0	M1
NMTTP	29	192	6	B	0	M1
NMTTP	29	192	6	A	0	M1
NMHLD	30	0	2	96
NMHLD	30	0	3	96
NMTTP	30	192	0	C	0	M1
NMTTP	30	192	1	B	0	M1
NMTTP	30	192	1	A	0	M1
NMTTP	30	192	2	B	0	M1
NMTTP	30	192	2	A	0	M1
NMTTP	30	192	3	A	0	M1
NMTTP	30	192	4	B	0	M1
NMTTP	30	192	4	E	0	M1
NMTTP	30	192	4	A	0	M1
NMTTP	30	192	5	E	0	M1
NMTTP	30	192	5	A	0	M1
NMTTP	30	192	6	B	0	M1
NMTTP	30	192	6	A	0	M1
NMTTP	30	192	7	B	0	M1
NMTTP	30	192	7	A	0	M1
NMTAP	31	0	6
NMSTR	31	96	6
NMSCR	31	96	6	96	96	1
NMSTR	31	192	1
NMSV_	31	192	1	96	96	2
NMSTR	31	288	2
NMSCR	31	288	2	96	1152	5
NMTAP	32	0	6
NMTAP	32	24	7
NMTAP	32	48	6
NMTAP	32	96	6
NMTAP	32	120	7
NMTAP	32	144	6
NMTAP	32	192	6
NMTAP	32	216	7
NMTAP	32	240	6
NMTAP	32	288	6
NMTAP	32	312	7
NMTAP	32	336	6
NMTAP	33	0	6
NMTAP	33	24	7
NMTAP	33	48	6
NMTAP	33	96	6
NMTAP	33	120	7
NMTAP	33	144	6
NMTAP	33	192	6
NMTAP	33	216	7
NMTAP	33	240	6
NMTAP	33	288	6
NMTAP	33	312	7
NMTAP	33	336	6
NMTAP	34	0	6
NMTAP	34	24	7
NMTAP	34	48	6
NMTAP	34	96	6
NMTAP	34	120	7
NMTAP	34	144	6
NMTAP	34	192	6
NMTAP	34	216	7
NMTAP	34	240	6
NMTAP	34	288	6
NMTAP	34	312	7
NMTAP	34	336	6
NMTAP	35	0	6
NMTAP	35	24	7
NMTAP	35	48	6
NMTAP	35	96	6
NMTAP	35	120	7
NMTAP	35	144	6
NMHLD	35	192	4	96
NMTAP	35	192	6
NMTAP	35	216	7
NMTAP	35	240	6
NMTAP	35	288	6
NMTAP	35	312	7
NMTAP	35	336	6
BRTAP	36	0	0
NMTAP	36	24	7
NMTAP	36	48	0
NMTAP	36	72	7
NMTAP	36	96	0
NMTAP	36	120	7
NMTAP	36	144	0
NMTAP	36	168	7
NMTAP	36	192	1
NMTAP	36	216	6
NMTAP	36	240	1
NMTAP	36	264	6
NMTAP	36	288	1
NMTAP	36	312	6
NMTAP	36	336	1
NMTAP	36	360	6
BRTAP	37	0	2
NMTAP	37	24	5
NMTAP	37	48	2
NMTAP	37	72	5
NMTAP	37	96	2
NMTAP	37	120	5
NMTAP	37	144	2
NMTAP	37	168	5
BRTAP	37	192	3
NMTAP	37	216	4
NMTAP	37	240	3
NMTAP	37	264	4
NMTAP	37	288	3
NMTAP	37	312	4
NMTAP	37	336	3
NMTAP	37	360	4
BRTAP	38	0	3
NMTAP	38	24	3
NMTAP	38	48	3
NMTAP	38	72	3
BRTAP	38	96	3
NMTAP	38	120	3
NMTAP	38	144	3
NMTAP	38	168	3
BRTAP	38	192	3
NMTAP	38	216	3
BRTAP	38	240	3
NMTAP	38	264	3
BRTAP	38	288	3
NMTAP	38	312	3
BRTAP	38	336	3
NMTAP	38	360	3
BRTAP	39	0	3
BRTAP	39	24	3
BRTAP	39	48	3
BRTAP	39	72	3
BRTAP	39	96	3
BRTAP	39	120	3
BRTAP	39	144	3
BRTAP	39	168	3
BRTAP	39	192	3
NMHLD	39	216	3	0
NMHLD	39	240	3	0
NMHLD	39	264	3	0
NMSTR	39	288	2
NMSI_	39	288	2	96	48	0
NMSTR	39	288	3
NMSI_	39	288	3	96	48	7
NMTTP	40	0	2	A	0	M1
NMTTP	40	0	3	A	0	M1
NMTTP	40	0	3	D	0	M1
NMSTR	40	96	4
NMSI_	40	96	4	96	48	0
NMSTR	40	96	5
NMSI_	40	96	5	96	48	7
NMTTP	40	192	4	A	0	M1
NMTTP	40	192	5	A	0	M1
NMTTP	40	192	5	D	0	M1
NMSTR	40	288	2
NMSI_	40	288	2	96	48	0
NMSTR	40	288	3
NMSI_	40	288	3	96	48	7
NMTTP	41	0	2	A	0	M1
NMTTP	41	0	3	A	0	M1
NMTTP	41	0	3	D	0	M1
NMSTR	41	96	4
NMSI_	41	96	4	96	48	0
NMSTR	41	96	5
NMSI_	41	96	5	96	48	7
NMTTP	41	192	4	A	0	M1
NMTTP	41	192	5	A	0	M1
NMTTP	41	192	5	D	0	M1
NMSTR	41	288	2
NMSCL	41	288	2	96	96	5
NMSTR	41	288	3
NMSUL	41	288	3	96	96	4
NMTTP	42	0	2	A	0	M1
NMTTP	42	0	3	A	0	M1
NMTTP	42	0	3	D	0	M1
CNSUR	42	96	4	0	96	3
NMTTP	42	96	4	A	0	M1
CNSCR	42	96	5	0	96	2
NMTTP	42	96	5	A	0	M1
NMTTP	42	96	5	D	0	M1
CNSCL	42	192	2	0	96	5
NMTTP	42	192	2	A	0	M1
CNSUL	42	192	3	0	96	4
NMTTP	42	192	3	A	0	M1
NMTTP	42	192	3	D	0	M1
CNSUR	42	288	4	0	96	3
NMTTP	42	288	4	A	0	M1
CNSCR	42	288	5	0	96	2
NMTTP	42	288	5	A	0	M1
NMTTP	42	288	5	D	0	M1
CNSCL	43	0	2	0	96	5
NMTTP	43	0	2	A	0	M1
CNSUL	43	0	3	0	96	4
NMTTP	43	0	3	A	0	M1
NMTTP	43	0	3	D	0	M1
CNSUR	43	96	4	0	96	3
NMTTP	43	96	4	A	0	M1
CNSCR	43	96	5	0	96	2
NMTTP	43	96	5	A	0	M1
NMTTP	43	96	5	D	0	M1
NMTTP	43	192	2	A	0	M1
NMTTP	43	192	3	A	0	M1
NMTTP	43	192	3	D	0	M1
NMSTR	43	288	4
NMSI_	43	288	4	96	48	0
NMSTR	43	288	5
NMSI_	43	288	5	96	48	7
NMTTP	44	0	4	A	0	M1
NMTTP	44	0	5	A	0	M1
NMTTP	44	0	5	D	0	M1
NMSTR	44	96	2
NMSI_	44	96	2	96	48	0
NMSTR	44	96	3
NMSI_	44	96	3	96	48	7
NMTTP	44	192	2	A	0	M1
NMTTP	44	192	3	A	0	M1
NMTTP	44	192	3	D	0	M1
NMSTR	44	288	4
NMSI_	44	288	4	96	48	0
NMSTR	44	288	5
NMSI_	44	288	5	96	48	7
NMTTP	45	0	4	A	0	M1
NMTTP	45	0	5	A	0	M1
NMTTP	45	0	5	D	0	M1
NMSTR	45	96	2
NMSI_	45	96	2	96	48	0
NMSTR	45	96	3
NMSI_	45	96	3	96	48	7
NMTTP	45	192	2	A	0	M1
NMTTP	45	192	3	A	0	M1
NMTTP	45	192	3	D	0	M1
NMSTR	45	288	4
NMSUR	45	288	4	96	96	3
NMSTR	45	288	5
NMSCR	45	288	5	96	96	2
NMTTP	46	0	4	A	0	M1
NMTTP	46	0	5	A	0	M1
NMTTP	46	0	5	D	0	M1
CNSCL	46	96	2	0	96	5
NMTTP	46	96	2	A	0	M1
CNSUL	46	96	3	0	96	4
NMTTP	46	96	3	A	0	M1
NMTTP	46	96	3	D	0	M1
CNSUR	46	192	4	0	96	3
NMTTP	46	192	4	A	0	M1
CNSCR	46	192	5	0	96	2
NMTTP	46	192	5	A	0	M1
NMTTP	46	192	5	D	0	M1
CNSCL	46	288	2	0	96	5
NMTTP	46	288	2	A	0	M1
CNSUL	46	288	3	0	96	4
NMTTP	46	288	3	A	0	M1
NMTTP	46	288	3	D	0	M1
CNSUR	47	0	4	0	96	3
NMTTP	47	0	4	A	0	M1
CNSCR	47	0	5	0	96	2
NMTTP	47	0	5	A	0	M1
NMTTP	47	0	5	D	0	M1
CNSCL	47	96	2	0	96	5
NMTTP	47	96	2	A	0	M1
CNSUL	47	96	3	0	96	4
NMTTP	47	96	3	A	0	M1
NMTTP	47	96	3	D	0	M1
NMTTP	47	192	4	A	0	M1
NMTTP	47	192	5	A	0	M1
NMTTP	47	192	5	D	0	M1
BRTAP	47	288	1
BRTAP	47	288	6
NMTAP	48	0	6
NMTAP	48	24	4
NMTAP	48	48	5
NMTAP	48	72	4
NMTAP	48	96	6
NMTAP	48	120	4
NMHLD	48	144	5	48
BRTAP	48	192	4
BRTAP	48	216	4
BRTAP	48	240	4
BRTAP	48	264	4
BRTAP	48	288	4
BRTAP	48	312	4
BRTAP	48	336	4
NMTAP	49	0	3
NMTAP	49	0	5
NMTAP	49	48	6
NMTAP	49	72	4
NMTAP	49	96	5
NMTAP	49	144	2
NMTAP	49	168	3
NMSTR	49	192	0
NMSI_	49	192	0	96	48	4
NMTAP	49	216	7
NMTAP	49	240	0
NMTAP	49	264	7
NMTAP	49	288	0
NMTAP	50	0	0
NMTAP	50	24	1
NMTAP	50	48	2
NMTAP	50	72	3
NMSTR	50	96	4
NMSF_	50	96	4	96	48	0
NMTAP	50	120	5
NMTAP	50	144	6
NMTAP	50	168	7
BRTAP	50	192	4
NMTAP	51	0	1
NMTAP	51	0	3
EXHLD	51	48	2	24
EXHLD	51	96	2	24
EXHLD	51	144	2	24
NMSTR	51	192	1
NMSI_	51	192	1	96	48	5
NMSTR	51	192	6
NMSI_	51	192	6	96	48	2
NMTAP	51	240	0
NMTAP	51	240	7
NMHLD	52	0	1	24
NMTAP	52	0	3
NMHLD	52	48	2	24
NMTAP	52	96	1
NMHLD	52	96	3	24
NMHLD	52	144	2	24
NMTAP	52	192	4
NMHLD	52	192	6	24
NMHLD	52	240	5	24
NMHLD	52	288	4	24
NMTAP	52	288	6
NMHLD	52	336	5	24
NMTAP	53	0	5
NMHLD	53	0	7	24
NMHLD	53	48	6	24
NMHLD	53	96	5	24
NMTAP	53	96	7
NMHLD	53	144	6	24
NMSTR	53	192	7
NMSI_	53	192	7	96	48	3
NMTAP	53	216	0
NMTAP	53	240	7
NMTAP	53	264	0
NMTAP	53	288	7
NMHLD	54	0	6	24
NMHLD	54	0	7	24
NMHLD	54	48	0	24
NMHLD	54	48	5	24
NMHLD	54	96	1	24
NMHLD	54	96	4	24
NMHLD	54	144	2	24
NMHLD	54	144	3	24
NMHLD	54	192	4	24
NMHLD	54	192	5	24
NMHLD	54	240	3	24
NMHLD	54	240	6	24
NMHLD	54	288	2	24
NMHLD	54	288	7	24
NMHLD	54	336	0	24
NMHLD	54	336	1	24
NMTAP	55	0	4
NMTAP	55	24	3
NMTAP	55	48	4
NMTAP	55	72	3
NMTAP	55	96	5
NMTAP	55	120	2
NMTAP	55	144	5
NMTAP	55	168	2
NMSTR	55	192	6
NMSSR	55	192	6	96	96	2
NMTAP	55	216	1
NMTAP	55	240	6
NMTAP	55	264	1
NMTAP	55	288	6
BRTAP	56	0	0
NMTTP	56	96	6	E	0	M1
NMTTP	56	192	0	C	0	M1
NMTTP	56	288	2	E	0	M1
NMSTR	57	0	2
NMSCR	57	0	2	96	192	6
NMSTR	57	192	6
NMSCR	57	192	6	96	192	2
NMSTR	58	0	2
NMSCR	58	0	2	96	192	6
NMSTR	58	192	6
NMSCR	58	192	6	96	192	2
NMSTR	59	0	2
NMSCR	59	0	2	96	192	6
NMSTR	59	192	6
NMSCR	59	192	6	96	192	2
NMSTR	60	0	2
NMSCR	60	0	2	96	192	6
NMSTR	60	192	6
NMSCR	60	192	6	96	192	2
NMSTR	61	0	2
NMSCR	61	0	2	96	192	6
NMSTR	61	192	6
NMSCR	61	192	6	96	192	2
NMSTR	62	0	2
NMSCR	62	0	2	96	192	6
NMSTR	62	192	6
NMSCR	62	192	6	96	192	2
NMSTR	63	0	2
NMSCR	63	0	2	96	192	6
NMSTR	63	192	6
NMSCR	63	192	6	96	192	2
NMSTR	64	0	2
NMSCR	64	0	2	96	192	6
NMSTR	64	192	6
NMSCR	64	192	6	96	192	2
BRSTR	65	0	2
NMSCL	65	0	2	96	672	2
NMTTP	65	320	6	A	1	M1
NMTTP	65	352	6	A	1	M1
NMTTP	66	0	6	B	0	M1
NMTTP	66	0	7	B	0	M1
NMTTP	66	0	7	E	1	M1
NMTTP	66	32	6	D	1	M1
NMTTP	66	64	6	E	1	M1
NMTTP	66	96	5	B	1	M1
NMTTP	66	128	5	A	1	M1
NMTTP	66	132	5	E	1	M1
NMTTP	66	138	4	B	1	M1
BRTAP	67	0	7
NMTAP	67	288	3
NMTAP	67	336	4
NMTAP	68	0	3
NMHLD	68	96	2	48
NMHLD	68	96	4	48
NMHLD	68	192	1	48
NMHLD	68	192	5	48
NMSTR	68	288	0
NMSCL	68	288	0	96	288	1
NMHLD	68	288	6	48
NMTAP	69	0	0
NMHLD	69	0	7	360
BRTAP	69	360	0
BRTAP	69	362	1
BRTAP	69	362	6
BRTAP	69	364	2
BRTAP	69	364	5
BRTAP	69	366	3
BRTAP	69	366	4
NMTAP	70	96	0
NMTAP	70	96	7
NMTAP	70	192	1
NMTAP	70	192	6
NMTAP	70	288	2
NMTAP	70	288	5
NMTAP	71	0	3
NMTAP	71	24	4
NMTAP	71	48	3
NMTAP	71	72	4
NMTAP	71	96	3
NMTAP	71	120	4
NMTAP	71	144	2
NMTAP	71	168	5
NMTAP	71	192	2
NMTAP	71	216	5
NMTAP	71	240	2
NMTAP	71	264	5
NMTAP	71	288	2
NMTAP	71	312	5
BRTAP	71	336	2
NMTTP	71	336	2	B	1	M1
BRTAP	72	0	2
NMTTP	72	0	2	B	1	M1
NMTAP	72	48	3
NMTAP	72	48	4
NMTAP	72	96	3
NMTAP	72	120	4
BRTAP	72	144	3
NMTAP	72	192	5
NMTAP	72	216	4
NMTAP	72	240	5
NMTAP	72	264	4
NMTAP	72	288	5
NMTAP	72	312	4
NMTAP	72	336	5
NMTAP	72	360	4
NMTAP	73	0	6
NMTAP	73	24	3
NMTAP	73	48	6
NMTAP	73	72	3
NMTAP	73	96	6
NMTAP	73	120	3
NMTAP	73	144	6
NMTAP	73	168	3
NMTAP	73	192	6
NMTAP	73	216	3
NMTAP	73	240	5
NMTAP	73	256	4
NMTAP	73	272	3
NMTAP	73	288	2
NMTAP	73	304	1
NMTAP	73	320	0
BRTAP	73	336	7
NMTAP	74	0	5
NMTAP	74	24	4
NMTAP	74	48	5
NMTAP	74	72	4
BRTAP	74	96	5
NMTAP	74	144	2
NMTAP	74	168	3
NMTAP	74	192	2
NMTAP	74	216	3
NMTAP	74	240	1
NMTAP	74	264	4
NMTAP	74	288	1
NMTAP	74	312	4
NMTAP	74	336	0
NMTAP	74	360	5
NMTAP	75	0	0
NMTAP	75	24	5
NMTAP	75	48	0
NMTAP	75	72	5
NMTAP	75	96	1
NMTAP	75	120	4
NMTAP	75	144	1
NMTAP	75	168	4
NMTAP	75	192	1
NMTAP	75	216	4
NMTAP	75	240	1
NMTAP	75	264	4
BRTAP	75	288	1
BRTAP	75	296	2
BRTAP	75	304	3
BRTAP	75	312	4
BRTAP	75	336	7
BRTAP	75	344	6
BRTAP	75	352	5
BRTAP	75	360	4
BRTAP	76	0	0
BRTAP	76	8	1
BRTAP	76	16	2
BRTAP	76	24	3
NMTAP	76	48	6
NMTAP	76	72	7
NMTAP	76	96	6
NMTAP	76	120	7
NMTAP	76	144	6
NMTAP	76	168	7
BRTAP	76	192	5
NMTAP	76	240	6
NMTAP	76	264	7
NMTAP	76	288	6
NMTAP	76	312	7
NMTAP	76	336	6
NMTAP	76	360	7
NMTAP	77	0	6
NMTAP	77	24	7
NMTAP	77	48	5
NMTAP	77	72	0
NMSTR	77	96	5
BRSSR	77	96	5	96	48	1
NMTAP	77	120	0
NMTAP	77	144	5
NMTAP	77	168	0
BRTAP	77	192	5
CNSSR	77	240	1	0	48	5
NMTAP	77	336	7
NMTAP	77	360	0
NMTAP	78	0	6
NMTAP	78	24	1
NMTAP	78	48	5
NMTAP	78	72	2
NMTAP	78	96	4
NMSTR	78	120	3
NMSV_	78	120	3	96	48	5
NMTAP	78	144	4
NMTAP	78	168	3
NMHLD	78	192	4	96
BRTAP	78	216	3
CNSV_	78	264	5	0	48	7
NMSTR	79	0	0
NMSI_	79	0	0	96	48	5
NMTAP	79	48	5
NMTAP	79	72	5
NMSTR	79	96	0
NMSI_	79	96	0	96	48	3
NMTAP	79	144	3
NMSTR	79	192	0
NMSI_	79	192	0	96	48	5
NMTAP	79	240	5
NMTAP	79	264	5
NMSTR	79	288	0
NMSI_	79	288	0	96	48	3
NMTAP	79	336	3
NMSTR	80	0	0
NMSI_	80	0	0	96	48	5
NMTAP	80	48	5
NMTAP	80	72	5
NMSTR	80	96	0
NMSI_	80	96	0	96	48	3
NMTAP	80	144	3
NMSTR	80	192	0
NMSI_	80	192	0	96	48	4
NMSI_	80	192	0	96	48	5
NMTAP	80	240	5
NMTAP	80	264	5
BRTAP	80	288	0
NMSTR	81	0	7
NMSI_	81	0	7	96	48	2
NMTAP	81	48	2
NMTAP	81	72	2
NMSTR	81	96	7
NMSI_	81	96	7	96	48	4
NMTAP	81	144	4
NMSTR	81	192	7
NMSI_	81	192	7	96	48	2
NMTAP	81	240	2
NMTAP	81	264	2
NMSTR	81	288	7
NMSI_	81	288	7	96	48	4
NMTAP	81	336	4
NMSTR	82	0	7
NMSI_	82	0	7	96	48	2
NMTAP	82	48	2
NMTAP	82	72	2
NMSTR	82	96	7
NMSI_	82	96	7	96	48	4
NMTAP	82	144	4
NMSTR	82	192	7
NMSI_	82	192	7	96	48	2
NMSI_	82	192	7	96	48	3
NMTAP	82	240	2
NMTAP	82	264	2
BRTAP	82	288	7
NMSTR	83	0	0
NMSCL	83	0	0	96	48	5
NMTAP	83	48	5
NMTAP	83	72	5
NMSTR	83	96	0
NMSCR	83	96	0	96	48	3
NMTAP	83	144	3
NMTAP	83	168	3
NMSTR	83	192	0
NMSCL	83	192	0	96	48	5
NMTAP	83	240	5
NMTAP	83	264	5
NMSTR	83	288	0
NMSCR	83	288	0	96	48	3
NMTAP	83	336	3
NMTAP	83	360	3
NMSTR	84	0	0
NMSCL	84	0	0	96	48	5
NMTAP	84	48	5
NMTAP	84	72	5
NMSTR	84	96	0
NMSCR	84	96	0	96	48	3
NMTAP	84	144	3
NMTAP	84	168	3
NMSTR	84	192	0
NMSF_	84	192	0	96	48	4
NMTAP	84	240	5
NMTAP	84	264	5
BRTAP	84	288	0
NMSTR	85	0	7
NMSI_	85	0	7	96	48	3
NMTAP	85	48	7
NMSTR	85	96	0
NMSI_	85	96	0	96	48	4
NMTAP	85	96	7
NMTAP	85	144	0
BRTAP	85	192	0
BRSTR	85	192	6
NMSI_	85	192	6	96	48	2
NMTAP	85	240	6
BRTAP	85	288	3
BRTAP	85	288	6
BRTAP	85	336	3
BRTAP	86	0	4
NMTTP	86	1	5	D	1	M1
NMTAP	86	12	5
BRTAP	86	24	6
NMTTP	86	25	7	D	1	M1
NMTAP	86	36	7
BRTAP	86	48	0
NMTTP	86	49	1	D	1	M1
NMTAP	86	60	1
BRTAP	86	72	2
NMTTP	86	73	3	D	1	M1
NMTAP	86	84	3
BRTAP	86	96	4
NMTTP	86	97	5	D	1	M1
NMTAP	86	108	5
BRTAP	86	120	6
NMTTP	86	121	7	D	1	M1
BRTAP	86	132	7
BRTAP	86	144	0
NMTTP	86	145	1	D	1	M1
NMTAP	86	156	1
NMTAP	86	168	2
NMTAP	86	180	3
NMTAP	86	192	4
NMTAP	86	204	5
NMTAP	86	216	6
NMTAP	86	228	7
NMTAP	86	240	0
NMTAP	86	252	1
NMTAP	86	264	2
NMTAP	86	276	3
NMSTR	86	288	4
NMSI_	86	288	4	96	48	0
NMSTR	86	288	5
NMSI_	86	288	5	96	48	7
NMTTP	87	0	4	A	0	M1
NMTTP	87	0	5	A	0	M1
NMTTP	87	0	5	D	0	M1
NMSTR	87	96	2
NMSI_	87	96	2	96	48	0
NMSTR	87	96	3
NMSI_	87	96	3	96	48	7
NMTTP	87	192	2	A	0	M1
NMTTP	87	192	3	A	0	M1
NMTTP	87	192	3	D	0	M1
NMSTR	87	288	4
NMSI_	87	288	4	96	48	0
NMSTR	87	288	5
NMSI_	87	288	5	96	48	7
NMTTP	88	0	4	A	0	M1
NMTTP	88	0	5	A	0	M1
NMTTP	88	0	5	D	0	M1
NMSTR	88	96	2
NMSI_	88	96	2	96	48	0
NMSTR	88	96	3
NMSI_	88	96	3	96	48	7
NMTTP	88	192	2	A	0	M1
NMTTP	88	192	3	A	0	M1
NMTTP	88	192	3	D	0	M1
NMSTR	88	288	4
NMSUR	88	288	4	96	96	3
NMSTR	88	288	5
NMSCR	88	288	5	96	96	2
NMTTP	89	0	4	A	0	M1
NMTTP	89	0	5	A	0	M1
NMTTP	89	0	5	D	0	M1
CNSCL	89	96	2	0	96	5
NMTTP	89	96	2	A	0	M1
CNSUL	89	96	3	0	96	4
NMTTP	89	96	3	A	0	M1
NMTTP	89	96	3	D	0	M1
CNSUR	89	192	4	0	96	3
NMTTP	89	192	4	A	0	M1
CNSCR	89	192	5	0	96	2
NMTTP	89	192	5	A	0	M1
NMTTP	89	192	5	D	0	M1
CNSCL	89	288	2	0	96	5
NMTTP	89	288	2	A	0	M1
CNSUL	89	288	3	0	96	4
NMTTP	89	288	3	A	0	M1
NMTTP	89	288	3	D	0	M1
CNSUR	90	0	4	0	96	3
NMTTP	90	0	4	A	0	M1
CNSCR	90	0	5	0	96	2
NMTTP	90	0	5	A	0	M1
NMTTP	90	0	5	D	0	M1
CNSCL	90	96	2	0	96	5
NMTTP	90	96	2	A	0	M1
CNSUL	90	96	3	0	96	4
NMTTP	90	96	3	A	0	M1
NMTTP	90	96	3	D	0	M1
NMTTP	90	192	4	A	0	M1
NMTTP	90	192	5	A	0	M1
NMTTP	90	192	5	D	0	M1
NMSTR	90	288	2
NMSI_	90	288	2	96	48	0
NMSTR	90	288	3
NMSI_	90	288	3	96	48	7
NMTTP	91	0	2	A	0	M1
NMTTP	91	0	3	A	0	M1
NMTTP	91	0	3	D	0	M1
NMSTR	91	96	4
NMSI_	91	96	4	96	48	0
NMSTR	91	96	5
NMSI_	91	96	5	96	48	7
NMTTP	91	192	4	A	0	M1
NMTTP	91	192	5	A	0	M1
NMTTP	91	192	5	D	0	M1
NMSTR	91	288	2
NMSI_	91	288	2	96	48	0
NMSTR	91	288	3
NMSI_	91	288	3	96	48	7
NMTTP	92	0	2	A	0	M1
NMTTP	92	0	3	A	0	M1
NMTTP	92	0	3	D	0	M1
NMSTR	92	96	4
NMSI_	92	96	4	96	48	0
NMSTR	92	96	5
NMSI_	92	96	5	96	48	7
NMTTP	92	192	4	A	0	M1
NMTTP	92	192	5	A	0	M1
NMTTP	92	192	5	D	0	M1
NMSTR	92	288	2
NMSCL	92	288	2	96	96	5
NMSTR	92	288	3
NMSUL	92	288	3	96	96	4
NMTTP	93	0	2	A	0	M1
NMTTP	93	0	3	A	0	M1
NMTTP	93	0	3	D	0	M1
CNSUR	93	96	4	0	96	3
NMTTP	93	96	4	A	0	M1
CNSCR	93	96	5	0	96	2
NMTTP	93	96	5	A	0	M1
NMTTP	93	96	5	D	0	M1
CNSCL	93	192	2	0	96	5
NMTTP	93	192	2	A	0	M1
CNSUL	93	192	3	0	96	4
NMTTP	93	192	3	A	0	M1
NMTTP	93	192	3	D	0	M1
CNSUR	93	288	4	0	96	3
NMTTP	93	288	4	A	0	M1
CNSCR	93	288	5	0	96	2
NMTTP	93	288	5	A	0	M1
NMTTP	93	288	5	D	0	M1
CNSCL	94	0	2	0	96	5
NMTTP	94	0	2	A	0	M1
CNSUL	94	0	3	0	96	4
NMTTP	94	0	3	A	0	M1
NMTTP	94	0	3	D	0	M1
CNSUR	94	96	4	0	96	3
NMTTP	94	96	4	A	0	M1
CNSCR	94	96	5	0	96	2
NMTTP	94	96	5	A	0	M1
NMTTP	94	96	5	D	0	M1
NMTTP	94	192	2	A	0	M1
NMTTP	94	192	3	A	0	M1
NMTTP	94	192	3	D	0	M1
BRSTR	94	288	0
BRSCL	94	288	0	96	48	5
BRSTR	94	288	1
BRSCR	94	288	1	96	48	4
NMTTP	95	0	0	A	0	M1
NMTTP	95	0	1	A	0	M1
NMTTP	95	0	1	D	1	M1
BRSTR	95	96	6
BRSCL	95	96	6	96	48	3
BRSTR	95	96	7
BRSCR	95	96	7	96	48	2
NMTTP	95	192	6	A	0	M1
NMTTP	95	192	7	A	0	M1
NMTTP	95	192	7	D	1	M1
BRSTR	95	288	0
BRSCL	95	288	0	96	48	5
BRSTR	95	288	1
BRSCR	95	288	1	96	48	4
NMTTP	96	0	0	A	0	M1
NMTTP	96	0	1	A	0	M1
NMTTP	96	0	1	D	1	M1
BRSTR	96	96	6
BRSCL	96	96	6	96	48	3
BRSTR	96	96	7
BRSCR	96	96	7	96	48	2
NMTTP	96	192	6	A	0	M1
NMTTP	96	192	7	A	0	M1
NMTTP	96	192	7	D	1	M1
BRSTR	96	288	0
BRSUR	96	288	0	96	96	7
BRSTR	96	288	1
BRSCR	96	288	1	96	96	6
NMTTP	97	0	0	A	0	M1
NMTTP	97	0	1	A	0	M1
NMTTP	97	0	1	D	1	M1
CNSCL	97	96	6	0	96	1
NMTTP	97	96	6	A	0	M1
CNSUL	97	96	7	0	96	0
NMTTP	97	96	7	A	0	M1
NMTTP	97	96	7	D	1	M1
CNSUR	97	192	0	0	96	7
NMTTP	97	192	0	A	0	M1
CNSCR	97	192	1	0	96	6
NMTTP	97	192	1	A	0	M1
NMTTP	97	192	1	D	1	M1
CNSCL	97	288	6	0	96	1
NMTTP	97	288	6	A	0	M1
CNSUL	97	288	7	0	96	0
NMTTP	97	288	7	A	0	M1
NMTTP	97	288	7	D	1	M1
CNSUR	98	0	0	0	96	7
NMTTP	98	0	0	A	0	M1
CNSCR	98	0	1	0	96	6
NMTTP	98	0	1	A	0	M1
NMTTP	98	0	1	D	1	M1
CNSCL	98	96	6	0	96	1
NMTTP	98	96	6	A	0	M1
CNSUL	98	96	7	0	96	0
NMTTP	98	96	7	A	0	M1
NMTTP	98	96	7	D	1	M1
NMTTP	98	192	0	A	0	M1
NMTTP	98	192	1	A	0	M1
NMTTP	98	192	1	D	1	M1
BRSTR	98	288	6
BRSCL	98	288	6	96	48	3
BRSTR	98	288	7
BRSCR	98	288	7	96	48	2
NMTTP	99	0	6	A	0	M1
NMTTP	99	0	7	A	0	M1
NMTTP	99	0	7	D	1	M1
BRSTR	99	96	0
BRSCL	99	96	0	96	48	5
BRSTR	99	96	1
BRSCR	99	96	1	96	48	4
NMTTP	99	192	0	A	0	M1
NMTTP	99	192	1	A	0	M1
NMTTP	99	192	1	D	1	M1
BRSTR	99	288	6
BRSCL	99	288	6	96	48	3
BRSTR	99	288	7
BRSCR	99	288	7	96	48	2
NMTTP	100	0	6	A	0	M1
NMTTP	100	0	7	A	0	M1
NMTTP	100	0	7	D	1	M1
BRSTR	100	96	0
BRSCL	100	96	0	96	48	5
BRSTR	100	96	1
BRSCR	100	96	1	96	48	4
NMTTP	100	192	0	A	0	M1
NMTTP	100	192	1	A	0	M1
NMTTP	100	192	1	D	1	M1
BRSTR	100	288	6
BRSCL	100	288	6	96	96	1
BRSTR	100	288	7
BRSUL	100	288	7	96	96	0
NMTTP	101	0	6	A	0	M1
NMTTP	101	0	7	A	0	M1
NMTTP	101	0	7	D	1	M1
CNSUR	101	96	0	0	96	7
NMTTP	101	96	0	A	0	M1
CNSCR	101	96	1	0	96	6
NMTTP	101	96	1	A	0	M1
NMTTP	101	96	1	D	1	M1
CNSCL	101	192	6	0	96	1
NMTTP	101	192	6	A	0	M1
CNSUL	101	192	7	0	96	0
NMTTP	101	192	7	A	0	M1
NMTTP	101	192	7	D	1	M1
NMTTP	101	288	0	A	0	M1
NMTTP	101	288	1	A	0	M1
NMTTP	101	288	1	D	1	M1
NMTAP	102	0	3
NMTAP	102	0	4
NMTAP	102	48	3
NMTAP	102	56	4
NMTAP	102	64	3
NMTAP	102	72	4
NMTAP	102	80	3
NMTAP	102	88	4
NMTAP	102	96	3
NMTAP	102	144	3
NMTAP	102	192	4
NMTAP	102	288	0
NMTAP	102	288	7
BRTAP	103	0	0
BRTAP	103	0	1
BRTAP	103	0	2
BRTAP	103	0	5
BRTAP	103	0	6
BRTAP	103	0	7

T_REC_TAP	397
T_REC_BRK	108
T_REC_XTP	0
T_REC_BXX	44
T_REC_HLD	63
T_REC_XHO	3
T_REC_BHO	0
T_REC_BXH	0
T_REC_STR	99
T_REC_BST	24
T_REC_XST	0
T_REC_XBS	0
T_REC_TTP	290
T_REC_THO	0
T_REC_SLD	97
T_REC_BSL	28
T_REC_ALL	1153
T_NUM_TAP	786
T_NUM_BRK	204
T_NUM_HLD	66
T_NUM_SLD	97
T_NUM_ALL	1153
T_JUDGE_TAP	962
T_JUDGE_HLD	86
T_JUDGE_SLD	125
T_JUDGE_ALL	1173
TTM_EACHPAIRS	81
TTM_SCR_TAP	393000
TTM_SCR_BRK	530400
TTM_SCR_HLD	66000
TTM_SCR_SLD	145500
TTM_SCR_ALL	1134900
TTM_SCR_S	1081100
TTM_SCR_SS	1114500
TTM_RAT_ACV	10183

