VERSION	0.00.00	1.04.00
FES_MODE	1
BPM_DEF	152.000	152.000	152.000	152.000
MET_DEF	4	4
RESOLUTION	384
CLK_DEF	384
COMPATIBLE_CODE	MA2

BPM	0	0	152.000
MET	0	0	4	4

NMTAP	1	0	3
NMTAP	1	96	3
NMTAP	1	192	3
NMTAP	1	288	3
NMTAP	2	0	2
NMTAP	2	0	3
NMTAP	2	96	2
NMTAP	2	96	3
NMTAP	2	192	2
NMTAP	2	192	3
NMTAP	2	288	2
NMTAP	2	288	3
NMTAP	3	0	2
NMTAP	3	96	2
NMTAP	3	192	2
NMTAP	3	288	2
NMTAP	4	0	1
NMTAP	4	0	2
NMTAP	4	96	1
NMTAP	4	96	2
NMTAP	4	192	1
NMTAP	4	192	2
NMHLD	4	288	1	1536
NMHLD	4	288	2	1536
EXHLD	5	0	5	48
EXHLD	5	96	6	48
EXHLD	5	192	5	48
EXHLD	5	288	6	48
EXHLD	6	0	5	48
EXHLD	6	96	6	48
EXHLD	6	192	5	48
EXHLD	6	288	6	48
EXHLD	7	0	5	48
EXHLD	7	96	6	48
EXHLD	7	192	5	48
EXHLD	7	288	6	48
EXHLD	8	0	5	48
EXHLD	8	96	6	48
EXHLD	8	192	5	48
EXHLD	8	288	6	48
NMTAP	9	0	2
NMTAP	9	0	3
EXHLD	9	0	5	48
NMTAP	9	96	2
NMTAP	9	96	3
EXHLD	9	96	6	48
NMTAP	9	192	0
NMTAP	9	192	1
EXHLD	9	192	5	48
NMTAP	9	288	0
NMTAP	9	288	1
EXHLD	9	288	6	48
NMTAP	10	0	2
NMTAP	10	0	3
EXHLD	10	0	5	48
NMTAP	10	96	2
NMTAP	10	96	3
EXHLD	10	96	6	48
NMTAP	10	192	0
NMTAP	10	192	1
EXHLD	10	192	5	48
NMTAP	10	288	0
NMTAP	10	288	1
EXHLD	10	288	6	48
NMTAP	11	0	2
NMTAP	11	0	3
EXHLD	11	0	5	48
NMTAP	11	96	2
NMTAP	11	96	3
EXHLD	11	96	6	48
NMTAP	11	192	0
NMTAP	11	192	1
EXHLD	11	192	5	48
NMTAP	11	288	0
NMTAP	11	288	1
EXHLD	11	288	6	48
NMTAP	12	0	2
NMTAP	12	0	3
EXTAP	12	0	5
EXTAP	12	48	6
NMTAP	12	96	2
NMTAP	12	96	3
EXTAP	12	96	5
EXTAP	12	144	6
NMTAP	12	192	2
NMTAP	12	192	3
EXTAP	12	192	5
EXHLD	12	240	6	3120
NMTAP	12	288	2
NMTAP	12	288	3
NMHLD	13	0	1	72
NMHLD	13	72	3	72
NMTAP	13	144	2
NMTAP	13	240	2
NMTAP	13	264	3
NMTAP	13	288	1
NMHLD	14	0	3	72
NMHLD	14	72	2	72
NMTAP	14	144	1
NMTAP	14	240	1
NMTAP	14	264	0
NMTAP	14	288	1
NMHLD	15	0	1	72
NMHLD	15	72	3	72
NMTAP	15	144	2
NMTAP	15	240	2
NMTAP	15	264	3
NMTAP	15	288	1
NMHLD	16	0	3	72
NMHLD	16	72	2	72
NMTAP	16	144	1
NMTAP	16	240	1
NMTAP	16	264	0
NMTAP	16	288	3
NMHLD	17	0	1	72
NMHLD	17	72	3	72
NMTAP	17	144	2
NMTAP	17	240	2
NMTAP	17	264	3
NMTAP	17	288	1
NMHLD	18	0	3	72
NMHLD	18	72	2	72
NMTAP	18	144	1
NMTAP	18	240	1
NMTAP	18	264	0
NMTAP	18	288	1
NMHLD	19	0	1	72
NMHLD	19	72	3	72
NMTAP	19	144	2
NMTAP	19	240	2
NMTAP	19	264	3
NMTAP	19	288	1
NMHLD	20	0	2	48
NMHLD	20	0	3	48
NMHLD	20	96	2	48
NMHLD	20	96	3	48
NMHLD	20	192	2	48
NMHLD	20	192	3	48
NMTAP	20	288	2
NMTAP	20	288	3
NMTAP	21	0	1
NMHLD	21	0	5	48
NMTAP	21	48	0
NMTAP	21	96	2
NMHLD	21	96	6	48
NMTAP	21	144	3
NMTAP	21	192	1
NMHLD	21	192	5	48
NMTAP	21	240	0
NMTAP	21	288	2
NMHLD	21	288	6	48
NMTAP	21	336	3
NMTAP	22	0	1
NMHLD	22	0	5	48
NMTAP	22	48	0
NMTAP	22	96	3
NMHLD	22	96	6	48
NMTAP	22	144	2
NMTAP	22	192	0
NMHLD	22	192	5	48
NMTAP	22	240	1
NMTAP	22	288	3
NMHLD	22	288	6	48
NMTAP	22	336	2
NMTAP	23	0	1
NMHLD	23	0	5	48
NMTAP	23	48	0
NMTAP	23	96	2
NMHLD	23	96	6	48
NMTAP	23	144	3
NMTAP	23	192	1
NMHLD	23	192	5	48
NMTAP	23	240	0
NMTAP	23	288	2
NMHLD	23	288	6	48
NMTAP	23	336	3
NMTAP	24	0	1
NMHLD	24	0	5	48
NMTAP	24	48	0
NMTAP	24	96	2
NMHLD	24	96	6	6240
NMTAP	24	144	3
NMTAP	24	192	2
NMTAP	24	240	1
NMTAP	24	288	0
NMHLD	25	0	0	72
NMHLD	25	72	1	72
NMHLD	25	144	2	72
NMHLD	25	216	3	72
NMTAP	25	288	2
NMHLD	26	0	3	72
NMHLD	26	72	2	72
NMTAP	26	144	1
BRHLD	26	192	0	144
BRHLD	26	192	3	144
NMHLD	27	0	0	72
NMHLD	27	72	1	72
NMHLD	27	144	2	72
NMHLD	27	216	3	72
NMTAP	27	288	2
NMHLD	28	0	3	72
NMHLD	28	72	2	72
NMTAP	28	144	1
BRHLD	28	192	0	144
BRHLD	28	192	2	144
NMHLD	29	0	0	72
NMHLD	29	72	1	72
NMHLD	29	144	2	72
NMHLD	29	216	3	72
NMTAP	29	288	2
NMHLD	30	0	3	72
NMHLD	30	72	2	72
NMTAP	30	144	1
BRHLD	30	192	0	144
BRHLD	30	192	3	144
NMTTP	30	192	6	D	1	M1
NMTTP	30	288	6	D	1	M1
NMHLD	31	0	0	72
NMHLD	31	72	1	72
NMHLD	31	144	2	72
NMHLD	31	216	3	72
NMTAP	31	288	2
NMHLD	32	0	3	72
NMHLD	32	72	2	72
NMTAP	32	144	1
BRHLD	32	192	0	144
BRHLD	32	192	2	144
NMTAP	33	0	3
NMTAP	33	96	3
NMTAP	33	192	3
NMTAP	33	288	3
NMTAP	34	0	2
NMTAP	34	0	3
NMTAP	34	96	2
NMTAP	34	96	3
NMTAP	34	192	2
NMTAP	34	192	3
NMTAP	34	288	2
NMTAP	34	288	3
NMTAP	35	0	1
NMTAP	35	48	1
NMTAP	35	96	1
NMTAP	35	144	1
NMTAP	35	192	1
NMTAP	35	240	1
NMTAP	35	288	1
NMTAP	35	336	1
NMTAP	36	0	0
NMTAP	36	24	7
NMTAP	36	48	0
NMTAP	36	72	7
NMTAP	36	96	0
NMTAP	36	120	7
NMTAP	36	144	0
NMTAP	36	168	7
NMTAP	36	192	0
NMTAP	36	288	2
NMTAP	36	288	4
NMSTR	37	0	0
NMSCR	37	0	0	96	48	2
NMSTR	37	96	5
NMSCL	37	96	5	96	48	3
NMSTR	37	192	0
NMSCR	37	192	0	96	48	2
NMSTR	37	288	5
NMSCL	37	288	5	96	48	3
NMSTR	38	0	0
NMSCR	38	0	0	96	48	2
NMSTR	38	96	5
NMSCL	38	96	5	96	48	3
BRTAP	38	192	0
NMTAP	38	336	2
NMTAP	38	336	4
NMTAP	39	0	2
NMTAP	39	0	4
NMSTR	39	96	3
NMSXL	39	96	3	96	96	3
NMSXR	39	96	3	96	96	3
NMSTR	40	0	3
NMSXR	40	0	3	96	144	0
EXTAP	40	240	5
EXTAP	40	240	6
EXTAP	40	288	5
EXTAP	40	288	6
NMTAP	40	336	0
NMTAP	40	336	1
NMHLD	41	0	0	48
NMHLD	41	0	1	48
NMHLD	41	0	6	1056
NMHLD	41	96	2	48
NMHLD	41	96	3	48
NMHLD	41	192	0	48
NMHLD	41	192	1	48
NMHLD	41	288	2	48
NMHLD	41	288	3	48
NMTAP	42	0	0
NMTAP	42	0	1
NMSTR	42	96	0
NMSI_	42	96	0	96	48	4
NMSTR	42	96	1
NMSI_	42	96	1	96	48	4
NMHLD	42	336	2	96
NMHLD	42	336	3	96
NMSTR	43	96	3
NMSXL	43	96	3	96	96	3
NMSXR	43	96	3	96	96	3
NMTAP	44	48	1
NMTAP	44	48	2
NMTAP	44	48	5
NMTAP	44	96	0
NMTAP	44	96	3
NMHLD	44	96	6	48
NMTAP	44	192	1
NMTAP	44	192	2
NMTAP	44	192	5
NMTAP	44	240	0
NMTAP	44	240	3
NMHLD	44	240	6	1488
NMSTR	45	0	0
NMSCR	45	0	0	96	48	2
NMTTP	45	0	6	D	1	M1
NMSTR	45	96	5
NMSCL	45	96	5	96	48	3
NMSTR	45	192	0
NMSCR	45	192	0	96	48	2
NMSTR	45	288	5
NMSCL	45	288	5	96	48	3
NMSTR	46	0	0
NMSCR	46	0	0	96	48	2
NMSTR	46	96	5
NMSCL	46	96	5	96	48	3
BRTAP	46	192	0
NMTAP	46	336	2
NMTAP	46	336	4
NMTAP	47	0	2
NMTAP	47	0	4
NMSTR	47	96	3
NMSXL	47	96	3	96	96	3
NMSXR	47	96	3	96	96	3
NMSTR	48	0	4
NMSSL	48	0	4	96	144	0
EXTAP	48	240	5
EXTAP	48	240	6
EXTAP	48	288	5
EXTAP	48	288	6
NMTAP	48	336	0
NMTAP	48	336	1
NMHLD	49	0	0	48
NMHLD	49	0	1	48
NMHLD	49	0	6	1056
NMHLD	49	96	2	48
NMHLD	49	96	3	48
NMHLD	49	192	1	48
NMHLD	49	192	2	48
NMSTR	49	288	0
NMSI_	49	288	0	96	48	2
NMSTR	50	0	0
NMSI_	50	0	0	96	48	4
NMSTR	50	96	0
NMSI_	50	96	0	96	48	3
NMTAP	50	336	3
NMTAP	50	336	4
NMHLD	51	0	3	48
NMHLD	51	0	4	48
NMHLD	51	96	2	48
NMHLD	51	96	3	48
NMHLD	51	192	1	48
NMHLD	51	192	2	48
NMHLD	51	288	0	48
NMHLD	51	288	1	48
NMTAP	52	48	1
NMTAP	52	48	2
NMTAP	52	48	5
NMTAP	52	96	0
NMTAP	52	96	3
NMHLD	52	96	6	48
NMTAP	52	192	1
NMTAP	52	192	2
NMTAP	52	192	5
NMTAP	52	240	0
NMTAP	52	240	3
NMHLD	52	240	6	1440
NMTAP	52	336	1
NMTAP	52	336	4
NMSTR	53	0	1
NMSXR	53	0	1	96	480	3
NMSTR	53	0	4
NMSXL	53	0	4	96	480	2
EXTAP	54	288	2
EXTAP	54	288	3
NMHLD	55	0	1	192
NMTAP	55	48	3
NMTAP	55	96	3
NMTAP	55	144	3
NMHLD	55	192	2	192
NMTAP	55	240	0
NMTAP	55	288	0
NMTAP	55	336	0
NMHLD	56	0	1	192
NMTAP	56	48	3
NMTAP	56	96	3
NMTAP	56	144	3
NMTAP	56	192	2
NMTAP	56	240	1
NMTAP	56	240	2
NMHLD	56	240	5	48
NMTAP	56	336	0
NMTAP	56	336	1
NMHLD	56	336	6	6480
EXHLD	57	0	0	96
EXHLD	57	0	1	96
NMHLD	57	192	2	96
NMHLD	57	192	3	96
EXTAP	58	0	0
EXTAP	58	0	1
NMTAP	58	96	2
NMTAP	58	96	3
EXTAP	58	192	0
EXTAP	58	192	1
NMTAP	58	288	2
NMTAP	58	288	3
NMSTR	59	0	0
NMSCR	59	0	0	96	96	3
NMSTR	59	192	4
NMSI_	59	192	4	96	96	7
NMSTR	60	0	0
NMSCR	60	0	0	96	96	3
CNSUR	60	192	3	0	96	7
CNSUR	60	288	7	0	96	4
EXHLD	61	0	0	96
NMTAP	61	192	1
NMTAP	61	192	3
NMTAP	61	240	1
NMTAP	61	240	3
NMTAP	61	288	1
NMTAP	61	288	3
NMSTR	62	0	1
NMSI_	62	0	1	96	48	5
NMSTR	62	0	2
NMSI_	62	0	2	96	48	5
NMSTR	62	192	1
NMSI_	62	192	1	96	48	5
NMSTR	62	192	2
NMSI_	62	192	2	96	48	5
NMHLD	63	0	0	96
NMHLD	63	96	1	96
NMHLD	63	192	2	96
NMTAP	63	288	3
NMTAP	64	0	1
NMTAP	64	0	4
NMTAP	64	48	1
NMTAP	64	48	4
NMTAP	64	96	1
NMSTR	64	96	4
NMSUR	64	96	4	96	96	0
NMHLD	64	192	2	96
NMTAP	65	0	1
NMTAP	65	24	0
NMTAP	65	48	1
NMTAP	65	72	0
NMTAP	65	96	1
NMTAP	65	120	0
NMTAP	65	144	1
NMTAP	65	168	0
NMSTR	65	192	1
NMSCR	65	192	1	96	48	4
NMTTP	67	0	4	E	0	M1
NMTTP	67	96	3	E	0	M1
NMTTP	67	192	2	E	0	M1
NMTTP	67	288	1	E	0	M1
NMTTP	68	0	0	E	0	M1
NMTTP	69	0	4	E	0	M1
NMTTP	69	96	3	E	0	M1
NMTTP	69	192	2	E	0	M1
NMTTP	69	288	1	E	0	M1
NMTTP	70	0	0	E	0	M1
NMTTP	71	0	4	E	0	M1
NMTTP	71	96	3	E	0	M1
NMTTP	71	192	2	E	0	M1
NMTTP	71	288	1	E	0	M1
NMTTP	72	0	0	E	0	M1
NMTTP	72	96	7	E	0	M1
NMTTP	72	192	6	E	0	M1
NMTTP	72	288	5	E	0	M1
NMTAP	73	48	2
NMTAP	73	48	3
NMTAP	73	96	2
NMTAP	73	96	3
NMTAP	73	192	1
NMTAP	73	192	2
NMTAP	73	240	1
NMTAP	73	240	2
BRTAP	73	288	0
NMTTP	73	288	6	D	1	M1
NMSTR	74	0	2
NMSI_	74	0	2	96	48	0
NMSTR	74	0	3
NMSI_	74	0	3	96	48	7
BRHLD	74	0	5	48
NMTTP	74	0	6	D	1	M1
NMTTP	74	96	6	D	1	M1
BRHLD	74	96	6	48
NMSTR	74	192	2
NMSI_	74	192	2	96	48	0
NMSTR	74	192	3
NMSI_	74	192	3	96	48	7
BRHLD	74	192	5	48
NMTTP	74	192	6	D	1	M1
NMTTP	74	288	6	D	1	M1
BRHLD	74	288	6	48
NMSTR	75	0	2
NMSI_	75	0	2	96	48	0
NMSTR	75	0	3
NMSI_	75	0	3	96	48	7
BRHLD	75	0	5	48
NMTTP	75	0	6	D	1	M1
NMTTP	75	96	6	D	1	M1
BRHLD	75	96	6	48
NMSTR	75	192	2
NMSI_	75	192	2	96	48	0
NMSTR	75	192	3
NMSI_	75	192	3	96	48	7
BRHLD	75	192	5	48
NMTTP	75	192	6	D	1	M1
NMTTP	75	288	6	D	1	M1
BRHLD	75	288	6	48
NMSTR	76	0	2
NMSI_	76	0	2	96	48	0
NMSTR	76	0	3
NMSI_	76	0	3	96	48	7
BRHLD	76	0	5	48
NMTTP	76	0	6	D	1	M1
NMTTP	76	96	6	D	1	M1
BRHLD	76	96	6	48
NMSTR	76	192	2
NMSI_	76	192	2	96	48	0
NMSTR	76	192	3
NMSI_	76	192	3	96	48	7
BRHLD	76	192	5	48
NMTTP	76	192	6	D	1	M1
NMTTP	76	288	6	D	1	M1
BRHLD	76	288	6	48
NMSTR	77	0	2
NMSI_	77	0	2	96	48	0
NMSTR	77	0	3
NMSI_	77	0	3	96	48	7
BRHLD	77	0	5	48
NMTTP	77	0	6	D	1	M1
NMTTP	77	96	6	D	1	M1
BRHLD	77	96	6	48
NMTAP	77	192	2
NMTAP	77	192	3
BRTAP	77	192	5
EXTAP	77	240	0
EXTAP	77	240	1
EXTAP	77	240	5
EXTAP	77	240	6
NMTTP	77	240	6	D	1	M1
NMSTR	77	288	0
NMSI_	77	288	0	96	48	4
NMSTR	77	288	1
NMSI_	77	288	1	96	48	3
EXTAP	77	288	5
EXTAP	77	288	6
NMTTP	77	288	6	D	1	M1
BRHLD	78	0	5	48
NMTTP	78	0	6	D	1	M1
NMSTR	78	96	0
NMSI_	78	96	0	96	48	4
NMSTR	78	96	1
NMSI_	78	96	1	96	48	3
NMTTP	78	96	6	D	1	M1
BRHLD	78	96	6	48
BRHLD	78	192	5	48
NMTTP	78	192	6	D	1	M1
NMTAP	78	288	0
NMTAP	78	288	1
NMTTP	78	288	6	D	1	M1
BRHLD	78	288	6	48
BRTAP	79	0	2
BRTAP	79	0	3
BRHLD	79	0	5	48
NMTTP	79	0	6	D	1	M1
BRTAP	79	96	1
BRTAP	79	96	2
NMTTP	79	96	6	D	1	M1
BRHLD	79	96	6	48
BRTAP	79	192	0
BRTAP	79	192	1
BRHLD	79	192	5	48
NMTTP	79	192	6	D	1	M1
NMSTR	79	288	0
NMSI_	79	288	0	96	48	4
NMSTR	79	288	1
NMSI_	79	288	1	96	48	3
NMTTP	79	288	6	D	1	M1
BRHLD	79	288	6	48
BRHLD	80	0	5	48
NMTTP	80	0	6	D	1	M1
NMSTR	80	96	0
NMSI_	80	96	0	96	48	4
NMSTR	80	96	1
NMSI_	80	96	1	96	48	3
NMTTP	80	96	6	D	1	M1
BRHLD	80	96	6	48
BRHLD	80	192	5	48
NMTTP	80	192	6	D	1	M1
NMTTP	80	288	6	D	1	M1
BRHLD	80	288	6	48
NMTAP	81	48	1
BRTAP	81	48	5
NMTTP	81	48	6	D	1	M1
NMHLD	81	96	1	864
NMTTP	81	96	6	D	1	M1
BRHLD	81	96	6	48
NMTAP	81	192	2
BRTAP	81	192	5
NMTTP	81	192	6	D	1	M1
NMHLD	81	240	2	720
NMTTP	81	240	6	D	1	M1
BRHLD	81	240	6	48
NMTAP	81	336	0
NMSTR	82	0	0
NMSI_	82	0	0	96	480	3
BRHLD	82	0	5	48
BRHLD	82	96	6	48
BRHLD	82	192	5	48
BRHLD	82	288	6	48
BRHLD	83	0	5	48
BRHLD	83	96	6	48
BRHLD	83	192	5	48
BRHLD	83	288	6	48
NMHLD	84	0	0	48
BRHLD	84	0	5	48
NMHLD	84	0	7	48
NMHLD	84	96	3	48
NMHLD	84	96	4	48
BRHLD	84	96	6	48
NMHLD	84	192	0	48
BRHLD	84	192	5	48
NMHLD	84	192	7	48
NMHLD	84	288	3	48
NMHLD	84	288	4	48
BRHLD	84	288	6	48
NMHLD	85	0	0	48
BRHLD	85	0	5	48
NMHLD	85	0	7	48
NMHLD	85	96	3	48
NMHLD	85	96	4	48
BRHLD	85	96	6	48
NMTAP	85	192	0
BRTAP	85	192	5
NMTAP	85	192	7
NMHLD	85	240	3	48
NMHLD	85	240	4	48
BRHLD	85	240	6	48
NMTAP	85	336	0
BRTAP	85	336	5
NMTAP	85	336	7
NMHLD	86	0	3	48
NMHLD	86	0	4	48
BRHLD	86	0	6	48
NMHLD	86	96	1	48
BRHLD	86	96	5	48
NMHLD	86	96	7	48
NMHLD	86	192	3	48
NMHLD	86	192	4	48
BRHLD	86	192	6	48
NMHLD	86	288	0	48
BRHLD	86	288	5	48
NMHLD	86	288	7	48
NMHLD	87	0	2	48
NMHLD	87	0	4	48
BRHLD	87	0	6	48
NMHLD	87	96	0	48
BRHLD	87	96	5	48
NMHLD	87	96	7	48
NMHLD	87	192	3	48
NMHLD	87	192	4	48
BRHLD	87	192	6	48
NMHLD	87	288	0	48
BRHLD	87	288	5	48
NMHLD	87	288	7	48
NMHLD	88	0	3	48
NMHLD	88	0	4	48
BRHLD	88	0	6	48
NMHLD	88	96	1	48
BRHLD	88	96	5	48
NMHLD	88	96	7	48
NMHLD	88	192	3	48
NMHLD	88	192	4	48
BRHLD	88	192	6	48
NMHLD	88	288	0	48
BRHLD	88	288	5	48
NMHLD	88	288	7	48
NMTAP	89	0	0
NMTAP	89	0	1
BRTAP	89	0	6
NMTAP	89	48	2
NMTAP	89	48	3
BRTAP	89	48	5
NMTAP	89	96	0
NMTAP	89	96	1
BRTAP	89	96	6
NMTAP	89	144	2
NMTAP	89	144	3
BRTAP	89	144	5
NMTAP	89	192	0
NMTAP	89	192	1
BRTAP	89	192	6
NMTAP	89	240	2
NMTAP	89	240	3
BRTAP	89	240	5
NMTAP	89	288	0
NMTAP	89	288	1
BRTAP	89	288	6
NMHLD	89	336	2	336
NMHLD	89	336	3	336
BRHLD	89	336	5	336

T_REC_TAP	263
T_REC_BRK	21
T_REC_XTP	25
T_REC_BXX	0
T_REC_HLD	143
T_REC_XHO	32
T_REC_BHO	64
T_REC_BXH	0
T_REC_STR	56
T_REC_BST	0
T_REC_XST	0
T_REC_XBS	0
T_REC_TTP	54
T_REC_THO	0
T_REC_SLD	59
T_REC_BSL	0
T_REC_ALL	717
T_NUM_TAP	398
T_NUM_BRK	85
T_NUM_HLD	175
T_NUM_SLD	59
T_NUM_ALL	717
T_JUDGE_TAP	419
T_JUDGE_HLD	852
T_JUDGE_SLD	59
T_JUDGE_ALL	1330
TTM_EACHPAIRS	158
TTM_SCR_TAP	199000
TTM_SCR_BRK	221000
TTM_SCR_HLD	175000
TTM_SCR_SLD	88500
TTM_SCR_ALL	683500
TTM_SCR_S	654750
TTM_SCR_SS	675000
TTM_RAT_ACV	10125

