VERSION	0.00.00	1.04.00
FES_MODE	1
BPM_DEF	152.000	152.000	152.000	152.000
MET_DEF	4	4
RESOLUTION	384
CLK_DEF	384
COMPATIBLE_CODE	MA2

BPM	0	0	152.000
MET	0	0	4	4

NMTAP	1	0	4
NMTAP	1	96	4
NMTAP	1	192	4
NMTAP	1	288	4
NMTAP	2	0	4
NMTAP	2	0	5
NMTAP	2	96	4
NMTAP	2	96	5
NMTAP	2	192	4
NMTAP	2	192	5
NMTAP	2	288	4
NMTAP	2	288	5
NMTAP	3	0	5
NMTAP	3	96	5
NMTAP	3	192	5
NMTAP	3	288	5
NMTAP	4	0	5
NMTAP	4	0	6
NMTAP	4	96	5
NMTAP	4	96	6
NMTAP	4	192	5
NMTAP	4	192	6
NMHLD	4	288	5	1536
NMHLD	4	288	6	1536
EXHLD	5	0	1	48
EXHLD	5	96	2	48
EXHLD	5	192	1	48
EXHLD	5	288	2	48
EXHLD	6	0	1	48
EXHLD	6	96	2	48
EXHLD	6	192	1	48
EXHLD	6	288	2	48
EXHLD	7	0	1	48
EXHLD	7	96	2	48
EXHLD	7	192	1	48
EXHLD	7	288	2	48
EXHLD	8	0	1	48
EXHLD	8	96	2	48
EXHLD	8	192	1	48
EXHLD	8	288	2	48
EXHLD	9	0	1	48
NMTAP	9	0	4
NMTAP	9	0	5
EXHLD	9	96	2	48
NMTAP	9	96	4
NMTAP	9	96	5
EXHLD	9	192	1	48
NMTAP	9	192	6
NMTAP	9	192	7
EXHLD	9	288	2	48
NMTAP	9	288	6
NMTAP	9	288	7
EXHLD	10	0	1	48
NMTAP	10	0	4
NMTAP	10	0	5
EXHLD	10	96	2	48
NMTAP	10	96	4
NMTAP	10	96	5
EXHLD	10	192	1	48
NMTAP	10	192	6
NMTAP	10	192	7
EXHLD	10	288	2	48
NMTAP	10	288	6
NMTAP	10	288	7
EXHLD	11	0	1	48
NMTAP	11	0	4
NMTAP	11	0	5
EXHLD	11	96	2	48
NMTAP	11	96	4
NMTAP	11	96	5
EXHLD	11	192	1	48
NMTAP	11	192	6
NMTAP	11	192	7
EXHLD	11	288	2	48
NMTAP	11	288	6
NMTAP	11	288	7
EXTAP	12	0	1
NMTAP	12	0	4
NMTAP	12	0	5
EXTAP	12	48	2
EXTAP	12	96	1
NMTAP	12	96	4
NMTAP	12	96	5
EXTAP	12	144	2
EXTAP	12	192	1
NMTAP	12	192	4
NMTAP	12	192	5
EXHLD	12	240	2	3120
NMTAP	12	288	4
NMTAP	12	288	5
BRTAP	13	0	7
NMTAP	13	96	4
NMTAP	13	96	6
NMTAP	13	144	5
NMTAP	13	192	6
NMTAP	13	240	5
NMTAP	13	288	4
NMTAP	13	288	6
NMTAP	13	336	5
NMTAP	14	0	6
NMTAP	14	48	5
NMTAP	14	96	4
NMTAP	14	96	6
NMTAP	14	144	5
NMTAP	14	192	6
NMTAP	14	240	5
NMTAP	14	288	4
NMTAP	14	288	6
NMTAP	14	336	5
NMTAP	15	0	6
NMTAP	15	48	5
NMTAP	15	96	4
NMTAP	15	96	6
NMTAP	15	144	5
NMTAP	15	192	6
NMTAP	15	240	5
NMTAP	15	288	4
NMTAP	15	288	6
NMTAP	15	336	5
NMTAP	16	0	6
NMTAP	16	48	5
NMTAP	16	96	4
NMTAP	16	96	6
NMTAP	16	144	5
NMTAP	16	192	6
NMTAP	16	240	5
NMTAP	16	288	4
NMTAP	16	288	6
NMTAP	16	336	5
BRTAP	17	0	7
NMTAP	17	96	4
NMTAP	17	96	6
NMTAP	17	144	5
NMTAP	17	192	6
NMTAP	17	240	5
NMTAP	17	288	4
NMTAP	17	288	6
NMTAP	17	336	5
NMTAP	18	0	6
NMTAP	18	48	5
NMTAP	18	96	4
NMTAP	18	96	6
NMTAP	18	144	5
NMTAP	18	192	6
NMTAP	18	240	5
NMTAP	18	288	4
NMTAP	18	288	6
NMTAP	18	336	5
NMTAP	19	0	6
NMTAP	19	48	5
NMTAP	19	96	4
NMTAP	19	96	6
NMTAP	19	144	5
NMTAP	19	192	6
NMTAP	19	240	5
NMTAP	19	288	4
NMTAP	19	288	6
NMTAP	19	336	4
NMTAP	19	336	6
NMHLD	20	48	4	48
NMHLD	20	48	5	48
NMHLD	20	144	4	48
NMHLD	20	144	5	48
NMTAP	20	240	4
NMTAP	20	240	5
NMTAP	20	288	4
NMTAP	20	288	5
NMHLD	21	0	1	48
NMTAP	21	0	7
NMHLD	21	48	7	48
NMHLD	21	96	2	48
NMTAP	21	144	7
NMHLD	21	192	1	48
NMTAP	21	192	6
NMHLD	21	240	6	48
NMHLD	21	288	2	48
NMTAP	21	336	6
NMHLD	22	0	1	48
NMTAP	22	0	5
NMHLD	22	48	5	48
NMHLD	22	96	2	48
NMTAP	22	144	5
NMHLD	22	192	1	48
NMTAP	22	192	4
NMHLD	22	240	4	48
NMHLD	22	288	2	48
NMTAP	22	336	4
NMHLD	23	0	1	48
NMTAP	23	0	7
NMHLD	23	48	7	48
NMHLD	23	96	2	48
NMTAP	23	144	7
NMHLD	23	192	1	48
NMTAP	23	192	6
NMHLD	23	240	6	48
NMHLD	23	288	2	48
NMTAP	23	336	6
NMHLD	24	0	1	48
NMTAP	24	0	5
NMHLD	24	48	5	48
NMHLD	24	96	2	6240
NMTAP	24	144	5
NMTAP	24	192	4
NMHLD	24	240	4	48
NMHLD	25	0	6	72
NMHLD	25	72	4	72
NMTAP	25	144	5
NMTAP	25	240	5
NMTAP	25	264	4
NMTAP	25	288	6
NMHLD	26	0	4	72
NMHLD	26	72	5	72
NMTAP	26	144	6
NMTAP	26	240	6
NMTAP	26	264	7
NMTAP	26	288	6
NMHLD	27	0	6	72
NMHLD	27	72	4	72
NMTAP	27	144	5
NMTAP	27	240	5
NMTAP	27	264	4
NMTAP	27	288	6
NMHLD	28	0	4	72
NMHLD	28	72	5	72
NMTAP	28	144	6
NMTAP	28	240	6
NMTAP	28	264	7
NMTAP	28	288	4
NMHLD	29	0	6	72
NMHLD	29	72	4	72
NMTAP	29	144	5
NMTAP	29	240	5
NMTAP	29	264	4
NMTAP	29	288	6
NMHLD	30	0	4	72
NMHLD	30	72	5	72
NMTAP	30	144	6
NMTTP	30	192	2	D	1	M1
NMTAP	30	240	6
NMTAP	30	264	7
NMTTP	30	288	2	D	1	M1
NMTAP	30	288	6
NMHLD	31	0	6	72
NMHLD	31	72	4	72
NMTAP	31	144	5
NMTAP	31	240	5
NMTAP	31	264	4
NMTAP	31	288	6
NMHLD	32	0	4	48
NMHLD	32	0	5	48
NMHLD	32	96	4	48
NMHLD	32	96	5	48
NMHLD	32	192	4	48
NMHLD	32	192	5	48
NMTAP	32	288	4
NMTAP	32	288	5
NMTAP	33	0	4
NMTAP	33	96	4
NMTAP	33	192	4
NMTAP	33	288	4
NMTAP	34	0	4
NMTAP	34	0	5
NMTAP	34	96	4
NMTAP	34	96	5
NMTAP	34	192	4
NMTAP	34	192	5
NMTAP	34	288	4
NMTAP	34	288	5
NMTAP	35	0	6
NMTAP	35	48	6
NMTAP	35	96	6
NMTAP	35	144	6
NMTAP	35	192	6
NMTAP	35	240	6
NMTAP	35	288	6
NMTAP	35	336	6
NMTAP	36	0	7
NMTAP	36	24	0
NMTAP	36	48	7
NMTAP	36	72	0
NMTAP	36	96	7
NMTAP	36	120	0
NMTAP	36	144	7
NMTAP	36	168	0
NMTAP	36	192	7
NMTAP	36	288	4
NMTAP	36	288	5
NMSTR	37	0	6
NMSCL	37	0	6	96	48	4
NMSTR	37	96	7
NMSCR	37	96	7	96	48	1
NMSTR	37	192	6
NMSCL	37	192	6	96	48	4
NMSTR	37	288	7
NMSCR	37	288	7	96	48	1
NMSTR	38	0	6
NMSCL	38	0	6	96	48	4
NMSTR	38	96	7
NMSCR	38	96	7	96	48	1
BRTAP	38	192	6
NMTAP	38	336	3
NMTAP	38	336	5
NMTAP	39	0	3
NMTAP	39	0	5
NMSTR	39	96	7
NMSXL	39	96	7	96	96	7
NMSXR	39	96	7	96	96	7
NMSTR	40	0	7
NMSXR	40	0	7	96	144	4
NMTAP	40	336	4
NMTAP	40	336	5
NMHLD	41	0	2	1056
NMHLD	41	0	4	48
NMHLD	41	0	5	48
NMHLD	41	96	6	48
NMHLD	41	96	7	48
NMHLD	41	192	4	48
NMHLD	41	192	5	48
NMHLD	41	288	6	48
NMHLD	41	288	7	48
NMTAP	42	0	4
NMTAP	42	0	5
NMSTR	42	96	6
NMSI_	42	96	6	96	48	3
NMSTR	42	96	7
NMSI_	42	96	7	96	48	3
NMTAP	42	336	4
NMTAP	42	336	5
NMTAP	43	48	3
NMTAP	43	48	6
NMTAP	43	96	3
NMTAP	43	96	6
NMHLD	43	192	4	48
NMHLD	43	192	5	48
NMHLD	43	288	4	48
NMHLD	43	288	5	48
NMTAP	44	48	1
NMTAP	44	48	5
NMHLD	44	96	2	48
NMHLD	44	96	6	48
NMTAP	44	192	1
NMTAP	44	192	5
NMHLD	44	240	2	1488
NMTAP	44	240	6
NMTTP	45	0	2	D	1	M1
NMSTR	45	0	6
NMSCL	45	0	6	96	48	4
NMSTR	45	96	7
NMSCR	45	96	7	96	48	1
NMSTR	45	192	6
NMSCL	45	192	6	96	48	4
NMSTR	45	288	7
NMSCR	45	288	7	96	48	1
NMSTR	46	0	6
NMSCL	46	0	6	96	48	4
NMSTR	46	96	7
NMSCR	46	96	7	96	48	1
BRTAP	46	192	6
NMTAP	46	336	3
NMTAP	46	336	5
NMTAP	47	0	3
NMTAP	47	0	5
NMSTR	47	96	7
NMSXL	47	96	7	96	96	7
NMSXR	47	96	7	96	96	7
NMSTR	48	0	7
NMSXR	48	0	7	96	144	4
NMTAP	48	336	4
NMTAP	48	336	5
NMHLD	49	0	2	1056
NMHLD	49	0	4	48
NMHLD	49	0	5	48
NMHLD	49	96	5	48
NMHLD	49	96	6	48
NMHLD	49	192	6	48
NMHLD	49	192	7	48
NMSTR	49	288	7
NMSI_	49	288	7	96	48	5
NMSTR	50	0	7
NMSI_	50	0	7	96	48	3
NMSTR	50	96	7
NMSI_	50	96	7	96	48	4
NMTAP	50	336	3
NMTAP	50	336	4
NMHLD	51	0	3	48
NMHLD	51	0	4	48
NMHLD	51	96	4	48
NMHLD	51	96	5	48
NMHLD	51	192	5	48
NMHLD	51	192	6	48
NMHLD	51	288	6	48
NMHLD	51	288	7	48
NMTAP	52	48	1
NMTAP	52	48	5
NMTAP	52	48	6
NMHLD	52	96	2	48
NMTAP	52	96	4
NMTAP	52	96	7
NMTAP	52	192	1
NMTAP	52	192	5
NMTAP	52	192	6
NMHLD	52	240	2	1440
NMTAP	52	240	4
NMTAP	52	240	7
NMTAP	52	336	3
NMTAP	52	336	6
NMSTR	53	0	3
NMSXR	53	0	3	96	480	5
NMSTR	53	0	6
NMSXL	53	0	6	96	480	4
EXTAP	54	288	4
EXTAP	54	288	5
NMHLD	55	0	6	192
NMTAP	55	48	4
NMTAP	55	96	4
NMTAP	55	144	4
NMHLD	55	192	5	192
NMTAP	55	240	7
NMTAP	55	288	7
NMTAP	55	336	7
NMHLD	56	0	6	192
NMTAP	56	48	4
NMTAP	56	96	4
NMTAP	56	144	4
NMTAP	56	192	5
NMHLD	56	240	1	48
NMTAP	56	240	5
NMTAP	56	240	6
NMHLD	56	336	2	6480
NMTAP	56	336	6
NMTAP	56	336	7
EXHLD	57	0	6	96
EXHLD	57	0	7	96
NMHLD	57	192	4	96
NMHLD	57	192	5	96
EXTAP	58	0	6
EXTAP	58	0	7
NMTAP	58	96	4
NMTAP	58	96	5
EXTAP	58	192	6
EXTAP	58	192	7
NMTAP	58	288	4
NMTAP	58	288	5
NMSTR	59	0	7
NMSCL	59	0	7	96	96	4
NMSTR	59	192	3
NMSI_	59	192	3	96	96	0
NMSTR	60	0	7
NMSCL	60	0	7	96	96	4
CNSUL	60	192	4	0	96	0
CNSUL	60	288	0	0	96	3
EXHLD	61	0	7	96
NMTAP	61	192	4
NMTAP	61	192	6
NMTAP	61	240	4
NMTAP	61	240	6
NMTAP	61	288	4
NMTAP	61	288	6
NMSTR	62	0	5
NMSI_	62	0	5	96	48	1
NMSTR	62	0	6
NMSI_	62	0	6	96	48	1
NMSTR	62	192	5
NMSI_	62	192	5	96	48	1
NMSTR	62	192	6
NMSI_	62	192	6	96	48	1
NMHLD	63	0	7	96
NMHLD	63	96	6	96
NMHLD	63	192	5	96
NMTAP	63	288	4
NMTAP	64	0	3
NMTAP	64	0	6
NMTAP	64	48	3
NMTAP	64	48	6
NMSTR	64	96	3
NMSUL	64	96	3	96	96	7
NMTAP	64	96	6
NMHLD	64	192	5	96
NMTAP	65	0	6
NMTAP	65	24	7
NMTAP	65	48	6
NMTAP	65	72	7
NMTAP	65	96	6
NMTAP	65	120	7
NMTAP	65	144	6
NMTAP	65	168	7
NMHLD	65	192	6	192
NMTTP	66	0	0	E	0	M1
NMTTP	66	96	7	E	0	M1
NMTTP	66	192	6	E	0	M1
NMTTP	66	288	5	E	0	M1
NMTTP	67	0	4	E	0	M1
NMTTP	68	0	0	E	0	M1
NMTTP	68	96	7	E	0	M1
NMTTP	68	192	6	E	0	M1
NMTTP	68	288	5	E	0	M1
NMTTP	69	0	4	E	0	M1
NMTTP	70	0	0	E	0	M1
NMTTP	70	96	7	E	0	M1
NMTTP	70	192	6	E	0	M1
NMTTP	70	288	5	E	0	M1
NMTTP	71	0	4	E	0	M1
NMTTP	72	0	0	E	0	M1
NMTTP	72	96	7	E	0	M1
NMTTP	72	192	6	E	0	M1
NMTTP	72	288	5	E	0	M1
NMTAP	73	48	4
NMTAP	73	48	5
NMTAP	73	96	4
NMTAP	73	96	5
NMTAP	73	192	5
NMTAP	73	192	6
NMTAP	73	240	5
NMTAP	73	240	6
NMTTP	73	288	2	D	1	M1
NMSTR	73	288	4
NMSI_	73	288	4	96	48	0
NMSTR	73	288	5
NMSI_	73	288	5	96	48	7
BRHLD	74	0	1	48
NMTTP	74	0	2	D	1	M1
NMTTP	74	96	2	D	1	M1
BRHLD	74	96	2	48
NMSTR	74	96	4
NMSI_	74	96	4	96	48	0
NMSTR	74	96	5
NMSI_	74	96	5	96	48	7
BRHLD	74	192	1	48
NMTTP	74	192	2	D	1	M1
NMTTP	74	288	2	D	1	M1
BRHLD	74	288	2	48
NMSTR	74	288	4
NMSI_	74	288	4	96	48	0
NMSTR	74	288	5
NMSI_	74	288	5	96	48	7
BRHLD	75	0	1	48
NMTTP	75	0	2	D	1	M1
NMTTP	75	96	2	D	1	M1
BRHLD	75	96	2	48
NMSTR	75	96	4
NMSI_	75	96	4	96	48	0
NMSTR	75	96	5
NMSI_	75	96	5	96	48	7
BRHLD	75	192	1	48
NMTTP	75	192	2	D	1	M1
NMTTP	75	288	2	D	1	M1
BRHLD	75	288	2	48
NMSTR	75	288	4
NMSI_	75	288	4	96	48	0
NMSTR	75	288	5
NMSI_	75	288	5	96	48	7
BRHLD	76	0	1	48
NMTTP	76	0	2	D	1	M1
NMTTP	76	96	2	D	1	M1
BRHLD	76	96	2	48
NMSTR	76	96	4
NMSI_	76	96	4	96	48	0
NMSTR	76	96	5
NMSI_	76	96	5	96	48	7
BRHLD	76	192	1	48
NMTTP	76	192	2	D	1	M1
NMTTP	76	288	2	D	1	M1
BRHLD	76	288	2	48
NMSTR	76	288	4
NMSI_	76	288	4	96	48	0
NMSTR	76	288	5
NMSI_	76	288	5	96	48	7
BRHLD	77	0	1	48
NMTTP	77	0	2	D	1	M1
NMTTP	77	96	2	D	1	M1
BRHLD	77	96	2	48
NMTAP	77	96	4
NMTAP	77	96	5
BRTAP	77	192	1
NMTTP	77	240	2	D	1	M1
EXTAP	77	240	4
EXTAP	77	240	6
NMTTP	77	288	2	D	1	M1
EXTAP	77	288	4
EXTAP	77	288	6
BRHLD	78	0	1	48
NMTTP	78	0	2	D	1	M1
NMSTR	78	0	6
NMSI_	78	0	6	96	48	4
NMSTR	78	0	7
NMSI_	78	0	7	96	48	3
NMTTP	78	96	2	D	1	M1
BRHLD	78	96	2	48
BRHLD	78	192	1	48
NMTTP	78	192	2	D	1	M1
NMSTR	78	192	6
NMSI_	78	192	6	96	48	4
NMSTR	78	192	7
NMSI_	78	192	7	96	48	3
NMTTP	78	288	2	D	1	M1
BRHLD	78	288	2	48
BRHLD	79	0	1	48
NMTTP	79	0	2	D	1	M1
BXTAP	79	0	3
BXTAP	79	0	4
NMTTP	79	96	2	D	1	M1
BRHLD	79	96	2	48
BRTAP	79	96	4
BRTAP	79	96	5
BRHLD	79	192	1	48
NMTTP	79	192	2	D	1	M1
BRTAP	79	192	5
BRTAP	79	192	6
NMTTP	79	288	2	D	1	M1
BRHLD	79	288	2	48
NMTAP	79	288	6
NMTAP	79	288	7
BRHLD	80	0	1	48
NMTTP	80	0	2	D	1	M1
NMSTR	80	0	6
NMSI_	80	0	6	96	48	4
NMSTR	80	0	7
NMSI_	80	0	7	96	48	3
NMTTP	80	96	2	D	1	M1
BRHLD	80	96	2	48
BRHLD	80	192	1	48
NMTTP	80	192	2	D	1	M1
NMSTR	80	192	6
NMSI_	80	192	6	96	48	4
NMSTR	80	192	7
NMSI_	80	192	7	96	48	3
NMTTP	80	288	2	D	1	M1
BRHLD	80	288	2	48
BRTAP	81	48	1
NMTTP	81	48	2	D	1	M1
BRTAP	81	48	4
BRTAP	81	48	5
NMTTP	81	96	2	D	1	M1
BRHLD	81	96	2	48
BRTAP	81	96	4
BRTAP	81	96	5
BRTAP	81	192	1
NMTTP	81	192	2	D	1	M1
BRTAP	81	192	6
BRTAP	81	192	7
NMTTP	81	240	2	D	1	M1
BRHLD	81	240	2	48
BRTAP	81	240	6
BRTAP	81	240	7
NMTAP	81	336	7
BRHLD	82	0	1	48
NMSTR	82	0	7
NMSCR	82	0	7	96	96	0
BRHLD	82	96	2	48
CNSI_	82	192	0	0	192	4
BRHLD	82	192	1	48
BRHLD	82	288	2	48
BRHLD	83	0	1	48
CNSV_	83	0	4	0	192	3
BRHLD	83	96	2	48
BRHLD	83	192	1	48
BRHLD	83	288	2	48
BRHLD	84	0	1	48
NMHLD	84	0	3	48
NMHLD	84	0	4	48
NMHLD	84	96	0	48
BRHLD	84	96	2	48
NMHLD	84	96	7	48
BRHLD	84	192	1	48
NMHLD	84	192	3	48
NMHLD	84	192	4	48
NMHLD	84	288	0	48
BRHLD	84	288	2	48
NMHLD	84	288	7	48
BRHLD	85	0	1	48
NMHLD	85	0	3	48
NMHLD	85	0	4	48
NMHLD	85	96	0	48
BRHLD	85	96	2	48
NMHLD	85	96	7	48
BRTAP	85	192	1
NMTAP	85	192	3
NMTAP	85	192	4
NMHLD	85	240	0	48
BRHLD	85	240	2	48
NMHLD	85	240	7	48
BRTAP	85	336	1
NMTAP	85	336	3
NMTAP	85	336	4
NMHLD	86	0	0	48
BRHLD	86	0	2	48
NMHLD	86	0	7	48
BRHLD	86	96	1	48
NMHLD	86	96	3	48
NMHLD	86	96	5	48
NMHLD	86	192	0	48
BRHLD	86	192	2	48
NMHLD	86	192	7	48
BRHLD	86	288	1	48
NMHLD	86	288	3	48
NMHLD	86	288	4	48
NMHLD	87	0	0	48
BRHLD	87	0	2	48
NMHLD	87	0	6	48
BRHLD	87	96	1	48
NMHLD	87	96	3	48
NMHLD	87	96	4	48
NMHLD	87	192	0	48
BRHLD	87	192	2	48
NMHLD	87	192	7	48
BRHLD	87	288	1	48
NMHLD	87	288	3	48
NMHLD	87	288	4	48
NMHLD	88	0	0	48
BRHLD	88	0	2	48
NMHLD	88	0	7	48
BRHLD	88	96	1	48
NMHLD	88	96	3	48
NMHLD	88	96	5	48
NMHLD	88	192	0	48
BRHLD	88	192	2	48
NMHLD	88	192	7	48
BRHLD	88	288	1	48
NMHLD	88	288	3	48
NMHLD	88	288	4	48
BRTAP	89	0	2
NMTAP	89	0	4
NMTAP	89	0	5
BRTAP	89	48	1
NMTAP	89	48	6
NMTAP	89	48	7
BRTAP	89	96	2
NMTAP	89	96	4
NMTAP	89	96	5
BRTAP	89	144	1
NMTAP	89	144	6
NMTAP	89	144	7
BRTAP	89	192	2
NMTAP	89	192	4
NMTAP	89	192	5
BRTAP	89	240	1
NMTAP	89	240	6
NMTAP	89	240	7
BRTAP	89	288	2
NMTAP	89	288	4
NMTAP	89	288	5
BRHLD	89	336	1	336
NMHLD	89	336	6	336
NMHLD	89	336	7	336

T_REC_TAP	309
T_REC_BRK	28
T_REC_XTP	15
T_REC_BXX	2
T_REC_HLD	133
T_REC_XHO	32
T_REC_BHO	56
T_REC_BXH	0
T_REC_STR	54
T_REC_BST	0
T_REC_XST	0
T_REC_XBS	0
T_REC_TTP	55
T_REC_THO	0
T_REC_SLD	56
T_REC_BSL	0
T_REC_ALL	740
T_NUM_TAP	433
T_NUM_BRK	86
T_NUM_HLD	165
T_NUM_SLD	56
T_NUM_ALL	740
T_JUDGE_TAP	463
T_JUDGE_HLD	764
T_JUDGE_SLD	56
T_JUDGE_ALL	1283
TTM_EACHPAIRS	167
TTM_SCR_TAP	216500
TTM_SCR_BRK	223600
TTM_SCR_HLD	165000
TTM_SCR_SLD	84000
TTM_SCR_ALL	689100
TTM_SCR_S	660100
TTM_SCR_SS	680500
TTM_RAT_ACV	10126

