VERSION	0.00.00	1.04.00
FES_MODE	0
BPM_DEF	220.000	220.000	220.000	220.000
MET_DEF	4	4
RESOLUTION	384
CLK_DEF	384
COMPATIBLE_CODE	MA2

BPM	0	0	220.000

NMHLD	2	0	1	672
NMHLD	2	0	5	672
NMTAP	4	0	4
NMTAP	4	64	4
NMTAP	4	96	3
NMTAP	4	160	3
NMTAP	4	192	5
NMTAP	4	256	5
NMTAP	4	288	2
NMTAP	4	352	2
NMTAP	5	0	4
NMTAP	5	64	4
NMSTR	5	96	3
NMSI_	5	96	3	96	48	7
NMTAP	5	160	3
NMSTR	5	192	4
NMSI_	5	192	4	96	48	0
NMHLD	6	0	2	672
NMHLD	6	0	6	672
NMTAP	8	0	5
NMTAP	8	64	5
NMTAP	8	96	4
NMTAP	8	160	4
NMTAP	8	192	6
NMTAP	8	256	6
NMTAP	8	288	3
NMTAP	8	352	3
NMTAP	9	0	5
NMTAP	9	64	5
NMSTR	9	96	4
NMSI_	9	96	4	96	48	7
NMTAP	9	160	4
NMSTR	9	192	5
NMSI_	9	192	5	96	48	0
NMHLD	10	0	2	672
NMHLD	10	0	6	672
NMTAP	12	0	5
NMTAP	12	64	5
NMTAP	12	96	4
NMTAP	12	160	4
NMTAP	12	192	6
NMTAP	12	256	6
NMTAP	12	288	3
NMTAP	12	352	3
NMTAP	13	0	5
NMTAP	13	64	5
NMSTR	13	96	4
NMSI_	13	96	4	96	48	1
NMTAP	13	160	4
NMSTR	13	192	5
NMSI_	13	192	5	96	48	0
NMTAP	14	0	1
NMTAP	14	0	4
NMTAP	14	96	1
NMTAP	14	96	4
NMTAP	14	192	1
NMTAP	14	192	4
NMTAP	14	288	1
NMTAP	14	288	4
NMTAP	15	0	3
NMTAP	15	0	6
NMTAP	15	96	3
NMTAP	15	96	6
NMTAP	15	192	3
NMTAP	15	192	6
NMTAP	15	288	3
NMTAP	15	288	6
NMTAP	16	0	1
NMTAP	16	0	4
NMTAP	16	96	1
NMTAP	16	96	4
NMTAP	16	192	1
NMTAP	16	192	4
NMTAP	16	288	1
NMTAP	16	288	4
NMTAP	17	0	3
NMTAP	17	0	6
NMTAP	17	96	3
NMTAP	17	96	6
NMTAP	17	192	3
NMTAP	17	192	6
NMTAP	17	288	3
NMTAP	17	288	6
NMTAP	18	0	1
NMTAP	18	0	4
NMTAP	18	96	1
NMTAP	18	96	4
NMTAP	18	192	1
NMTAP	18	192	4
NMTAP	18	288	1
NMTAP	18	288	4
NMTAP	19	0	3
NMTAP	19	0	6
NMTAP	19	96	3
NMTAP	19	96	6
NMTAP	19	192	3
NMTAP	19	192	6
NMTAP	19	288	3
NMTAP	19	288	6
NMTAP	20	0	1
NMTAP	20	0	4
NMTAP	20	96	1
NMTAP	20	96	4
NMTAP	20	192	1
NMTAP	20	192	4
NMTAP	20	288	1
NMTAP	20	288	4
NMTAP	21	0	3
NMTAP	21	0	6
NMTAP	21	96	3
NMTAP	21	96	6
NMTAP	21	192	3
NMTAP	21	192	6
NMTAP	21	288	3
NMTAP	21	288	6
NMHLD	22	0	1	1440
NMTAP	22	0	3
NMTAP	22	96	3
NMTAP	22	192	2
NMTAP	22	288	2
NMTAP	23	0	3
NMTAP	23	96	2
NMTAP	23	192	3
NMTAP	23	288	2
NMSTR	24	0	3
NMSI_	24	0	3	96	48	5
NMSTR	24	192	3
NMSI_	24	192	3	96	48	0
NMTAP	25	0	3
NMSTR	25	96	3
NMSCR	25	96	3	96	96	0
NMTAP	26	0	4
NMHLD	26	0	6	576
NMTAP	26	96	4
NMTAP	26	192	5
NMTAP	26	288	5
NMTAP	27	0	4
NMTAP	27	96	5
BRTAP	27	192	3
NMTAP	27	288	3
NMTAP	27	288	4
NMSTR	28	0	2
NMSI_	28	0	2	96	96	6
NMTAP	28	96	7
NMSTR	28	192	5
NMSI_	28	192	5	96	96	1
NMTAP	28	288	0
NMSTR	29	0	3
NMSI_	29	0	3	96	96	7
NMTAP	29	96	6
NMTAP	29	192	4
NMTAP	29	288	1
NMTAP	29	288	6
NMTAP	30	0	2
NMSTR	30	0	3
NMSI_	30	0	3	96	48	7
NMTAP	30	96	1
NMTAP	30	192	2
NMSTR	30	192	3
NMSI_	30	192	3	96	48	7
NMTAP	30	288	0
NMSTR	31	0	4
NMSI_	31	0	4	96	48	0
NMTAP	31	0	5
NMTAP	31	96	6
NMSTR	31	192	4
NMSI_	31	192	4	96	48	0
NMTAP	31	192	5
NMTAP	31	288	7
NMTAP	32	0	2
NMSTR	32	0	3
NMSI_	32	0	3	96	48	7
NMTAP	32	96	1
NMSTR	32	192	4
NMSI_	32	192	4	96	48	0
NMTAP	32	192	5
NMTAP	32	288	6
NMTAP	33	0	2
NMSTR	33	0	3
NMSI_	33	0	3	96	48	7
NMTAP	33	96	0
NMSTR	33	192	4
NMSI_	33	192	4	96	48	0
NMTAP	33	192	5
NMTAP	33	288	7
NMTAP	34	0	6
NMSTR	34	0	7
NMSI_	34	0	7	96	48	3
NMTAP	34	96	5
NMSTR	34	192	0
NMSI_	34	192	0	96	48	4
NMTAP	34	192	1
NMTAP	34	288	2
NMTAP	35	0	6
NMSTR	35	0	7
NMSI_	35	0	7	96	48	3
NMTAP	35	96	4
NMSTR	35	192	0
NMSI_	35	192	0	96	48	4
NMTAP	35	192	1
NMTAP	35	288	3
NMHLD	36	0	1	192
NMHLD	36	0	6	192
NMTAP	36	288	2
NMSTR	36	288	3
NMSI_	36	288	3	96	48	6
NMSTR	37	0	2
NMSI_	37	0	2	96	48	7
NMSTR	37	96	3
NMSI_	37	96	3	96	48	6
NMSTR	37	192	2
NMSI_	37	192	2	96	48	7
NMSTR	38	0	5
NMSI_	38	0	5	96	48	3
NMTAP	38	96	1
NMSTR	38	192	2
NMSI_	38	192	2	96	48	4
NMTAP	38	288	7
NMSTR	39	0	6
NMSI_	39	0	6	96	48	3
NMTAP	39	96	0
NMSTR	39	192	1
NMSI_	39	192	1	96	48	4
NMTAP	39	288	6
NMTAP	40	0	5
NMTAP	40	0	7
NMTAP	40	96	1
NMTAP	40	192	0
NMTAP	40	192	2
NMTAP	40	288	1
NMTAP	41	0	2
NMTAP	41	0	3
NMTAP	41	96	6
NMTAP	41	96	7
BRTAP	41	192	0
BRTAP	41	192	5
NMSTR	42	0	3
NMSI_	42	0	3	96	48	1
NMSTR	42	0	4
NMSI_	42	0	4	96	48	0
NMSTR	42	192	3
NMSI_	42	192	3	96	48	7
NMSTR	42	192	4
NMSI_	42	192	4	96	48	6
NMSTR	43	0	3
NMSI_	43	0	3	96	48	0
NMTAP	43	0	4
NMSTR	43	96	4
NMSI_	43	96	4	96	48	7
NMTAP	43	192	3
NMSTR	44	0	5
NMSCL	44	0	5	96	48	2
NMTAP	44	96	0
NMSTR	44	192	1
NMSCL	44	192	1	96	48	6
NMTAP	44	288	5
NMSTR	45	0	5
NMSCL	45	0	5	96	48	2
NMTAP	45	192	1
NMTAP	45	192	7
NMTAP	45	288	3
NMTAP	45	288	4
NMSTR	46	0	2
NMSI_	46	0	2	96	48	0
NMSTR	46	0	3
NMSI_	46	0	3	96	48	7
NMSTR	46	192	4
NMSI_	46	192	4	96	48	0
NMSTR	46	192	5
NMSI_	46	192	5	96	48	7
NMTAP	47	0	3
NMTAP	47	0	4
NMSTR	47	96	1
NMSCL	47	96	1	96	96	6
NMSTR	47	96	5
NMSUR	47	96	5	96	96	2
NMSTR	48	0	4
NMSI_	48	0	4	96	48	0
NMSTR	48	0	5
NMSI_	48	0	5	96	48	1
NMSTR	48	192	2
NMSI_	48	192	2	96	48	6
NMSTR	48	192	3
NMSI_	48	192	3	96	48	7
BRTAP	49	0	0
NMTAP	49	0	4
BRTAP	49	96	1
NMTAP	49	96	5
BRTAP	49	192	2
NMTAP	49	192	6
BRTAP	49	288	3
NMTAP	49	288	7
NMSTR	50	0	3
NMSI_	50	0	3	96	48	7
NMSTR	50	0	4
NMSI_	50	0	4	96	48	6
NMSTR	50	192	3
NMSI_	50	192	3	96	48	1
NMSTR	50	192	4
NMSI_	50	192	4	96	48	0
NMTAP	51	0	3
NMSTR	51	0	4
NMSI_	51	0	4	96	48	0
NMSTR	51	96	3
NMSI_	51	96	3	96	48	7
NMTAP	51	192	4
NMSTR	52	0	2
NMSCR	52	0	2	96	48	5
NMTAP	52	96	7
NMSTR	52	192	6
NMSCR	52	192	6	96	48	1
NMTAP	52	288	2
NMSTR	53	0	2
NMSCL	53	0	2	96	48	7
NMSTR	53	0	3
NMSUL	53	0	3	96	48	6
NMTAP	53	192	1
NMTAP	53	192	4
NMTAP	53	288	3
NMTAP	53	288	4
NMSTR	54	0	4
NMSI_	54	0	4	96	48	0
NMSTR	54	0	5
NMSI_	54	0	5	96	48	7
NMSTR	54	192	2
NMSI_	54	192	2	96	48	0
NMSTR	54	192	3
NMSI_	54	192	3	96	48	7
NMTAP	55	0	2
NMTAP	55	0	5
NMTAP	55	96	3
NMSTR	55	96	4
NMSI_	55	96	4	96	96	7
NMHLD	55	192	0	96
NMSTR	56	0	0
NMSI_	56	0	0	96	48	4
NMSTR	56	0	1
NMSI_	56	0	1	96	48	5
NMSTR	56	192	6
NMSI_	56	192	6	96	48	2
NMSTR	56	192	7
NMSI_	56	192	7	96	48	3
NMTAP	57	0	4
NMTAP	57	0	5
NMTAP	57	96	2
NMTAP	57	96	3
NMTAP	57	192	1
NMTAP	57	192	6
NMTAP	58	0	0
NMHLD	58	0	7	64
NMTAP	58	64	5
NMTAP	58	96	7
NMHLD	58	192	0	64
NMTAP	58	192	7
NMTAP	58	256	2
NMTAP	58	288	0
NMSTR	59	0	0
NMSUR	59	0	0	96	48	4
NMTAP	59	0	4
NMSTR	59	96	7
NMSUL	59	96	7	96	48	3
BRTAP	59	192	0
NMSTR	61	192	2
NMSCL	61	192	2	96	480	5
NMSTR	61	192	3
NMSUL	61	192	3	96	480	4
NMSTR	63	192	4
NMSUR	63	192	4	96	480	3
NMSTR	63	192	5
NMSCR	63	192	5	96	480	2
NMSTR	65	192	2
NMSCL	65	192	2	96	480	5
NMSTR	65	192	3
NMSUL	65	192	3	96	480	4
NMSTR	68	0	3
NMSI_	68	0	3	96	48	1
NMSTR	68	0	4
NMSI_	68	0	4	96	48	0
NMSTR	68	192	3
NMSI_	68	192	3	96	48	7
NMSTR	68	192	4
NMSI_	68	192	4	96	48	6
NMSTR	69	0	3
NMSI_	69	0	3	96	48	0
NMSTR	69	0	4
NMSI_	69	0	4	96	48	7
NMTAP	69	192	1
NMTAP	69	192	6
NMSTR	70	0	5
NMSI_	70	0	5	96	48	0
NMHLD	70	0	6	96
NMHLD	70	192	1	96
NMSTR	70	192	2
NMSCR	70	192	2	96	48	5
NMSTR	71	0	0
NMSI_	71	0	0	96	48	4
NMSTR	71	0	7
NMSI_	71	0	7	96	48	3
NMTAP	71	192	0
NMTAP	71	192	7
NMTTP	72	96	0	B	0	M1
NMTTP	72	96	1	B	0	M1
NMTTP	72	160	6	B	0	M1
NMTTP	72	160	7	B	0	M1
NMTTP	72	288	2	B	0	M1
NMTTP	72	288	2	E	0	M1
NMTTP	72	288	2	A	0	M1
NMTTP	72	288	5	B	0	M1
NMTTP	72	288	5	A	0	M1
NMTTP	72	288	6	E	0	M1
NMTTP	73	96	0	B	0	M1
NMTTP	73	96	1	B	0	M1
NMTTP	73	160	6	B	0	M1
NMTTP	73	160	7	B	0	M1
NMTTP	73	288	2	B	0	M1
NMTTP	73	288	2	E	0	M1
NMTTP	73	288	2	A	0	M1
NMTTP	73	288	5	B	0	M1
NMTTP	73	288	5	A	0	M1
NMTTP	73	288	6	E	0	M1
NMTTP	74	96	0	B	0	M1
NMTTP	74	96	1	B	0	M1
NMTTP	74	160	6	B	0	M1
NMTTP	74	160	7	B	0	M1
NMTTP	74	288	2	B	0	M1
NMTTP	74	288	2	E	0	M1
NMTTP	74	288	2	A	0	M1
NMTTP	74	288	5	B	0	M1
NMTTP	74	288	5	A	0	M1
NMTTP	74	288	6	E	0	M1
NMTTP	75	96	0	B	0	M1
NMTTP	75	96	1	B	0	M1
NMTTP	75	160	6	B	0	M1
NMTTP	75	160	7	B	0	M1
NMTTP	75	288	2	B	0	M1
NMTTP	75	288	2	E	0	M1
NMTTP	75	288	2	A	0	M1
NMTTP	75	288	5	B	0	M1
NMTTP	75	288	5	A	0	M1
NMTTP	75	288	6	E	0	M1
NMSTR	76	0	3
NMSI_	76	0	3	96	48	7
NMSTR	76	0	4
NMSI_	76	0	4	96	48	6
NMSTR	76	192	3
NMSI_	76	192	3	96	48	1
NMSTR	76	192	4
NMSI_	76	192	4	96	48	0
NMSTR	77	0	3
NMSI_	77	0	3	96	48	0
NMSTR	77	0	4
NMSI_	77	0	4	96	48	7
NMTAP	77	192	1
NMTAP	77	192	6
NMHLD	78	0	1	96
NMSTR	78	0	2
NMSI_	78	0	2	96	48	7
NMSTR	78	192	5
NMSCL	78	192	5	96	48	2
NMHLD	78	192	6	96
NMSTR	79	0	0
NMSI_	79	0	0	96	48	4
NMSTR	79	0	7
NMSI_	79	0	7	96	48	3
NMTAP	79	192	0
NMTAP	79	192	7
NMTTP	80	96	1	B	0	M1
NMTTP	80	96	1	E	0	M1
NMTTP	80	96	1	A	0	M1
NMTTP	80	160	6	B	0	M1
NMTTP	80	160	6	A	0	M1
NMTTP	80	160	7	E	0	M1
NMTTP	80	288	3	B	0	M1
NMTTP	80	288	3	E	0	M1
NMTTP	80	288	3	D	0	M1
NMTTP	80	288	4	B	0	M1
NMTTP	80	288	5	E	0	M1
NMTTP	80	288	5	D	0	M1
NMTTP	81	96	1	B	0	M1
NMTTP	81	96	1	E	0	M1
NMTTP	81	96	1	A	0	M1
NMTTP	81	160	6	B	0	M1
NMTTP	81	160	6	A	0	M1
NMTTP	81	160	7	E	0	M1
NMTTP	81	288	3	B	0	M1
NMTTP	81	288	3	E	0	M1
NMTTP	81	288	3	D	0	M1
NMTTP	81	288	4	B	0	M1
NMTTP	81	288	5	E	0	M1
NMTTP	81	288	5	D	0	M1
NMTAP	82	0	0
NMHLD	82	0	7	64
NMTAP	82	64	5
NMTAP	82	96	7
NMHLD	82	192	0	64
NMTAP	82	192	7
NMTAP	82	256	2
NMTAP	82	288	0
NMSTR	83	0	0
NMSUR	83	0	0	96	48	4
NMTAP	83	0	4
NMSTR	83	96	7
NMSUL	83	96	7	96	48	3
NMTAP	83	192	0
NMTAP	83	288	2
NMTAP	83	288	5
NMTTP	84	96	1	B	0	M1
NMTTP	84	96	1	E	0	M1
NMTTP	84	96	1	A	0	M1
NMTTP	84	160	6	B	0	M1
NMTTP	84	160	6	A	0	M1
NMTTP	84	160	7	E	0	M1
NMTTP	84	288	3	B	0	M1
NMTTP	84	288	3	E	0	M1
NMTTP	84	288	3	D	0	M1
NMTTP	84	288	4	B	0	M1
NMTTP	84	288	5	E	0	M1
NMTTP	84	288	5	D	0	M1
NMTTP	85	96	1	B	0	M1
NMTTP	85	96	1	E	0	M1
NMTTP	85	96	1	A	0	M1
NMTTP	85	160	6	B	0	M1
NMTTP	85	160	6	A	0	M1
NMTTP	85	160	7	E	0	M1
NMTTP	85	288	3	B	0	M1
NMTTP	85	288	3	E	0	M1
NMTTP	85	288	3	D	0	M1
NMTTP	85	288	4	B	0	M1
NMTTP	85	288	5	E	0	M1
NMTTP	85	288	5	D	0	M1
NMTAP	86	0	0
NMHLD	86	0	7	64
NMTAP	86	64	5
NMTAP	86	96	7
NMHLD	86	192	0	64
NMTAP	86	192	7
NMTAP	86	256	2
NMTAP	86	288	0
NMSTR	87	0	0
NMSUR	87	0	0	96	48	4
NMTAP	87	0	4
NMSTR	87	96	7
NMSUL	87	96	7	96	48	3
NMSTR	87	192	0
NMSUR	87	192	0	96	48	4
NMTAP	87	288	7
NMTAP	88	0	0
NMTAP	88	32	7
NMTAP	88	64	0
NMTAP	88	96	7
NMTAP	88	128	0
NMTAP	88	160	7
NMTAP	88	192	1
NMTAP	88	224	6
NMTAP	88	256	1
NMTAP	88	288	6
NMTAP	88	320	1
NMTAP	88	352	6
NMTAP	89	0	2
NMTAP	89	32	5
NMTAP	89	64	2
NMTAP	89	96	5
NMTAP	89	128	2
NMTAP	89	160	5
NMTAP	89	192	3
NMTAP	89	224	4
NMTAP	89	256	3
NMTAP	89	288	4
NMTAP	89	320	3
NMTAP	89	352	4
NMTAP	90	0	2
NMTAP	90	96	1
NMTAP	90	96	3
NMTAP	90	192	6
NMTAP	90	192	7
NMTAP	90	256	0
NMTAP	90	256	5
NMTAP	90	352	2
NMSTR	90	352	3
NMSCR	90	352	3	96	80	0
BRTAP	91	192	3
BRTAP	91	192	6
NMSTR	92	0	1
NMSI_	92	0	1	96	48	4
NMSTR	92	0	6
NMSI_	92	0	6	96	48	3
NMSTR	92	192	1
NMSI_	92	192	1	96	48	5
NMSTR	92	192	6
NMSI_	92	192	6	96	48	2
NMSTR	93	0	0
NMSI_	93	0	0	96	48	4
NMSTR	93	0	6
NMSI_	93	0	6	96	48	2
NMSTR	93	192	1
NMSI_	93	192	1	96	48	5
NMSTR	93	192	7
NMSI_	93	192	7	96	48	3
NMTAP	94	0	4
NMTAP	94	96	3
NMTAP	94	96	5
NMTAP	94	192	2
NMTAP	94	192	6
NMSTR	94	288	1
NMSI_	94	288	1	96	48	5
NMTAP	94	288	7
NMSTR	95	0	6
NMSI_	95	0	6	96	48	3
NMSTR	95	96	0
NMSI_	95	96	0	96	48	4
BRTAP	95	192	7
BXTAP	96	0	0
BXTAP	96	0	6
BXTAP	96	192	0
BXTAP	96	192	6
BRTAP	97	0	2
BRTAP	97	0	4
BRTAP	97	96	2
BRTAP	97	96	4
BRTAP	97	192	2
BRTAP	97	192	4
BXTAP	98	0	1
BXTAP	98	0	7
BXTAP	98	192	1
BXTAP	98	192	7
BRTAP	99	0	3
BRTAP	99	0	5
BRTAP	99	96	3
BRTAP	99	96	5
BRTAP	99	192	3
BRTAP	99	192	5
BXTAP	100	0	0
BXTAP	100	0	6
BXTAP	100	192	0
BXTAP	100	192	6
BRTAP	101	0	2
BRTAP	101	0	4
BRTAP	101	96	2
BRTAP	101	96	4
BRTAP	101	192	2
BRTAP	101	192	4
BXTAP	102	0	1
BXTAP	102	0	7
BXTAP	102	192	0
BXTAP	102	192	6
NMTAP	103	0	0
NMTAP	103	32	7
NMTAP	103	64	0
NMTAP	103	96	6
NMTAP	103	128	1
NMTAP	103	160	6
NMTAP	103	192	2
NMTAP	103	224	5
NMTAP	103	256	2
NMTAP	103	288	4
EXSTR	104	0	3
BRSI_	104	0	3	96	48	0
EXSTR	104	0	4
BRSI_	104	0	4	96	48	1
NMSTR	104	192	3
BRSI_	104	192	3	96	48	6
NMSTR	104	192	4
BRSI_	104	192	4	96	48	7
NMSTR	105	0	3
BRSI_	105	0	3	96	48	7
NMTAP	105	0	4
NMSTR	105	96	4
BRSI_	105	96	4	96	48	0
NMTAP	105	192	3
NMSTR	106	0	5
BRSI_	106	0	5	96	48	1
NMTAP	106	96	3
NMSTR	106	192	2
BRSI_	106	192	2	96	48	6
NMTAP	106	288	4
NMSTR	107	0	4
BRSI_	107	0	4	96	48	0
NMSTR	107	0	5
BRSI_	107	0	5	96	48	1
NMTAP	107	192	2
NMTAP	107	192	7
NMTAP	107	288	3
NMTAP	107	288	4
NMSTR	108	0	2
BRSI_	108	0	2	96	48	7
NMSTR	108	0	3
BRSI_	108	0	3	96	48	0
NMSTR	108	192	4
BRSI_	108	192	4	96	48	7
NMSTR	108	192	5
BRSI_	108	192	5	96	48	0
NMTAP	109	0	2
NMTAP	109	0	5
NMSTR	109	96	3
BRSI_	109	96	3	96	48	7
NMSTR	109	96	4
BRSI_	109	96	4	96	48	0
NMSTR	110	0	6
BRSI_	110	0	6	96	48	2
NMSTR	110	0	7
BRSI_	110	0	7	96	48	3
NMSTR	110	192	0
BRSI_	110	192	0	96	48	4
NMSTR	110	192	1
BRSI_	110	192	1	96	48	5
NMTAP	111	0	2
NMTAP	111	0	3
NMTAP	111	96	4
NMTAP	111	96	5
NMTAP	111	192	1
NMTAP	111	192	6
NMTAP	112	0	3
NMTAP	112	0	5
NMTAP	112	192	2
NMTAP	112	192	4
NMTAP	112	352	5
NMTAP	113	0	3
NMTAP	113	96	2
NMTAP	113	96	6
NMTAP	113	192	2
NMTAP	113	192	6
NMTTP	113	288	6	E	0	M1
NMTAP	114	0	3
NMTAP	114	0	5
NMTAP	114	192	2
NMTAP	114	192	4
NMTAP	114	352	5
NMTAP	115	0	3
NMTAP	115	96	2
NMTAP	115	96	6
NMTAP	115	192	2
NMTAP	115	192	6
NMTTP	115	288	6	E	0	M1
NMTAP	116	0	3
NMTAP	116	0	4
NMTAP	116	64	2
NMTAP	116	96	3
NMTAP	116	160	5
NMTAP	116	192	4
NMTAP	116	256	1
NMTAP	116	288	3
NMTAP	116	352	6
NMTAP	117	0	4
NMTAP	117	64	1
NMTAP	117	96	3
NMTAP	117	160	6
NMTAP	117	192	4
NMTAP	117	288	0
NMTAP	117	288	2
NMTAP	118	0	3
NMTAP	118	0	4
NMTAP	118	64	5
NMTAP	118	96	4
NMTAP	118	160	2
NMTAP	118	192	3
NMTAP	118	256	6
NMTAP	118	288	4
NMTAP	118	352	1
NMTAP	119	0	3
NMTAP	119	64	6
NMTAP	119	96	4
NMTAP	119	160	1
NMTAP	119	192	3
NMTAP	119	288	5
NMTAP	119	288	7
NMTAP	120	0	2
NMTAP	120	0	3
NMTAP	120	64	2
NMTAP	120	64	3
NMTAP	120	160	3
NMTAP	120	160	5
NMTAP	120	256	2
NMTAP	120	256	4
NMTAP	120	352	3
NMTAP	120	352	5
NMTAP	121	64	2
NMTAP	121	64	4
NMTAP	121	160	2
NMTAP	121	192	3
NMSTR	121	256	0
BRSI_	121	256	0	96	48	4
NMSTR	121	256	1
BRSI_	121	256	1	96	48	5
BRTAP	121	352	0
BRTAP	121	352	1

T_REC_TAP	353
T_REC_BRK	31
T_REC_XTP	0
T_REC_BXX	16
T_REC_HLD	21
T_REC_XHO	0
T_REC_BHO	0
T_REC_BXH	0
T_REC_STR	135
T_REC_BST	0
T_REC_XST	2
T_REC_XBS	0
T_REC_TTP	90
T_REC_THO	0
T_REC_SLD	115
T_REC_BSL	22
T_REC_ALL	785
T_NUM_TAP	580
T_NUM_BRK	69
T_NUM_HLD	21
T_NUM_SLD	115
T_NUM_ALL	785
T_JUDGE_TAP	627
T_JUDGE_HLD	156
T_JUDGE_SLD	137
T_JUDGE_ALL	920
TTM_EACHPAIRS	181
TTM_SCR_TAP	290000
TTM_SCR_BRK	179400
TTM_SCR_HLD	21000
TTM_SCR_SLD	172500
TTM_SCR_ALL	662900
TTM_SCR_S	636350
TTM_SCR_SS	656000
TTM_RAT_ACV	10105

