VERSION	0.00.00	1.04.00
FES_MODE	0
BPM_DEF	220.000	220.000	220.000	220.000
MET_DEF	4	4
RESOLUTION	384
CLK_DEF	384
COMPATIBLE_CODE	MA2

BPM	0	0	220.000

NMTAP	2	0	3
NMTAP	2	64	3
NMTAP	2	96	4
NMTAP	2	160	4
NMTAP	2	192	2
NMTAP	2	256	2
NMTAP	2	288	5
NMTAP	2	352	5
NMTAP	3	0	3
NMTAP	3	64	3
NMSTR	3	96	4
NMSI_	3	96	4	96	48	0
NMTAP	3	160	4
NMSTR	3	192	3
NMSI_	3	192	3	96	48	7
NMHLD	4	0	1	672
NMHLD	4	0	5	672
NMTAP	6	0	2
NMTAP	6	64	2
NMTAP	6	96	3
NMTAP	6	160	3
NMTAP	6	192	1
NMTAP	6	256	1
NMTAP	6	288	4
NMTAP	6	352	4
NMTAP	7	0	2
NMTAP	7	64	2
NMSTR	7	96	3
NMSI_	7	96	3	96	48	0
NMTAP	7	160	3
NMSTR	7	192	2
NMSI_	7	192	2	96	48	7
NMHLD	8	0	1	672
NMHLD	8	0	5	672
NMTAP	10	0	2
NMTAP	10	64	2
NMTAP	10	96	3
NMTAP	10	160	3
NMTAP	10	192	1
NMTAP	10	256	1
NMTAP	10	288	4
NMTAP	10	352	4
NMTAP	11	0	2
NMTAP	11	64	2
NMSTR	11	96	3
NMSI_	11	96	3	96	48	0
NMTAP	11	160	3
NMSTR	11	192	2
NMSI_	11	192	2	96	48	7
NMTAP	12	0	5
NMTAP	12	64	5
NMTAP	12	96	4
NMTAP	12	160	4
NMTAP	12	192	6
NMTAP	12	256	6
NMTAP	12	288	3
NMTAP	12	352	3
NMTAP	13	0	5
NMTAP	13	64	5
NMSTR	13	96	4
NMSI_	13	96	4	96	48	1
NMTAP	13	160	4
NMSTR	13	192	5
NMSI_	13	192	5	96	48	0
NMSTR	14	0	1
NMSI_	14	0	1	96	96	5
NMSTR	14	96	5
NMSLR	14	96	5	96	96	3
NMSTR	15	0	0
NMSCR	15	0	0	96	48	3
NMSTR	15	0	7
NMSCL	15	0	7	96	48	4
NMTAP	15	192	1
NMTAP	15	192	6
NMTAP	15	288	3
NMTAP	15	288	4
NMHLD	16	0	1	96
NMHLD	16	0	2	96
NMHLD	16	192	5	96
NMHLD	16	192	6	96
BRSTR	17	0	1
NMSI_	17	0	1	96	48	5
BRSTR	17	96	6
NMSI_	17	96	6	96	48	2
BRSTR	17	192	0
NMSI_	17	192	0	96	48	4
BRTAP	17	288	7
NMTAP	18	0	5
NMHLD	18	0	6	96
NMTAP	18	96	1
NMHLD	18	192	1	96
NMTAP	18	192	2
NMTAP	18	288	6
NMTAP	19	0	3
NMTAP	19	0	5
NMTAP	19	96	2
NMTAP	19	96	4
NMTAP	19	192	3
NMTAP	19	192	6
NMTAP	19	288	1
NMTAP	19	288	4
NMSTR	20	0	4
NMSCL	20	0	4	96	48	1
NMTAP	20	0	5
NMTAP	20	192	2
NMSTR	20	192	3
NMSCR	20	192	3	96	48	6
NMTAP	21	0	4
NMTAP	21	0	5
NMTAP	21	96	2
NMTAP	21	96	4
NMTAP	21	192	3
NMTAP	21	192	7
NMTAP	22	0	1
NMTAP	22	0	4
NMTAP	22	96	1
NMTAP	22	96	4
NMTAP	22	192	1
NMTAP	22	192	4
NMTAP	22	288	1
NMTAP	22	288	4
NMTAP	23	0	3
NMTAP	23	0	6
NMTAP	23	96	3
NMTAP	23	96	6
NMTAP	23	192	3
NMTAP	23	192	6
NMTAP	23	288	3
NMTAP	23	288	6
NMTAP	24	0	1
NMTAP	24	0	4
NMTAP	24	96	1
NMTAP	24	96	4
NMTAP	24	192	1
NMTAP	24	192	4
NMTAP	24	288	1
NMTAP	24	288	4
NMTAP	25	0	3
NMTAP	25	0	6
NMTAP	25	96	3
NMTAP	25	96	6
NMTAP	25	192	3
NMTAP	25	192	6
NMTAP	25	288	3
NMTAP	25	288	6
NMTAP	26	0	1
NMTAP	26	0	4
NMTAP	26	96	1
NMTAP	26	96	4
NMTAP	26	192	1
NMTAP	26	192	4
NMTAP	26	288	1
NMTAP	26	288	4
NMTAP	27	0	3
NMTAP	27	0	6
NMTAP	27	96	3
NMTAP	27	96	6
NMTAP	27	192	3
NMTAP	27	192	6
NMTAP	27	288	3
NMTAP	27	288	6
NMSTR	28	0	2
NMSI_	28	0	2	96	96	6
NMTAP	28	96	7
NMSTR	28	192	5
NMSI_	28	192	5	96	96	1
NMTAP	28	288	0
NMSTR	29	0	3
NMSI_	29	0	3	96	96	7
NMTAP	29	96	6
NMTAP	29	192	4
NMTAP	29	288	1
NMTAP	29	288	6
NMSTR	30	0	4
NMSI_	30	0	4	96	48	0
NMTAP	30	0	5
NMTAP	30	96	6
NMSTR	30	192	4
NMSI_	30	192	4	96	48	0
NMTAP	30	192	5
NMTAP	30	288	7
NMTAP	31	0	2
NMSTR	31	0	3
NMSI_	31	0	3	96	48	7
NMTAP	31	96	1
NMTAP	31	192	2
NMSTR	31	192	3
NMSI_	31	192	3	96	48	7
NMTAP	31	288	0
NMSTR	32	0	4
NMSI_	32	0	4	96	48	0
NMTAP	32	0	5
NMTAP	32	96	6
NMTAP	32	192	2
NMSTR	32	192	3
NMSI_	32	192	3	96	48	7
NMTAP	32	288	1
NMSTR	33	0	4
NMSI_	33	0	4	96	48	0
NMTAP	33	0	5
NMTAP	33	96	7
NMTAP	33	192	2
NMSTR	33	192	3
NMSI_	33	192	3	96	48	7
NMTAP	33	288	0
NMSTR	34	0	0
NMSI_	34	0	0	96	48	4
NMTAP	34	0	1
NMTAP	34	96	2
NMTAP	34	192	6
NMSTR	34	192	7
NMSI_	34	192	7	96	48	3
NMTAP	34	288	5
NMSTR	35	0	0
NMSI_	35	0	0	96	48	4
NMTAP	35	0	1
NMTAP	35	96	3
NMTAP	35	192	6
NMSTR	35	192	7
NMSI_	35	192	7	96	48	3
NMTAP	35	288	4
NMHLD	36	0	1	192
NMHLD	36	0	6	192
NMSTR	36	288	4
NMSI_	36	288	4	96	48	1
NMTAP	36	288	5
NMSTR	37	0	5
NMSI_	37	0	5	96	48	0
NMSTR	37	96	4
NMSI_	37	96	4	96	48	1
NMSTR	37	192	5
NMSI_	37	192	5	96	48	0
NMSTR	38	0	2
NMSI_	38	0	2	96	48	4
NMTAP	38	96	6
NMSTR	38	192	5
NMSI_	38	192	5	96	48	3
NMTAP	38	288	0
NMSTR	39	0	1
NMSI_	39	0	1	96	48	4
NMTAP	39	96	7
NMSTR	39	192	6
NMSI_	39	192	6	96	48	3
NMTAP	39	288	1
NMTAP	40	0	0
NMTAP	40	0	2
NMTAP	40	96	6
NMTAP	40	192	5
NMTAP	40	192	7
NMTAP	40	288	1
NMTAP	41	0	4
NMTAP	41	0	5
NMTAP	41	96	0
NMTAP	41	96	1
BRTAP	41	192	2
BRTAP	41	192	7
NMSTR	42	0	3
NMSI_	42	0	3	96	48	1
NMSTR	42	0	4
NMSI_	42	0	4	96	48	0
NMSTR	42	192	3
NMSI_	42	192	3	96	48	7
NMSTR	42	192	4
NMSI_	42	192	4	96	48	6
NMSTR	43	0	3
NMSI_	43	0	3	96	48	0
NMTAP	43	0	4
NMSTR	43	96	4
NMSI_	43	96	4	96	48	7
NMTAP	43	192	3
NMSTR	44	0	5
NMSCL	44	0	5	96	48	2
NMTAP	44	96	0
NMSTR	44	192	1
NMSCL	44	192	1	96	48	6
NMTAP	44	288	5
NMSTR	45	0	5
NMSCL	45	0	5	96	48	2
NMTAP	45	192	1
NMTAP	45	192	7
NMTAP	45	288	3
NMTAP	45	288	4
NMSTR	46	0	2
NMSI_	46	0	2	96	48	0
NMSTR	46	0	3
NMSI_	46	0	3	96	48	7
NMSTR	46	192	4
NMSI_	46	192	4	96	48	0
NMSTR	46	192	5
NMSI_	46	192	5	96	48	7
NMTAP	47	0	3
NMTAP	47	0	4
NMSTR	47	96	1
NMSCL	47	96	1	96	96	6
NMSTR	47	96	5
NMSUR	47	96	5	96	96	2
NMSTR	48	0	4
NMSI_	48	0	4	96	48	0
NMSTR	48	0	5
NMSI_	48	0	5	96	48	1
NMSTR	48	192	2
NMSI_	48	192	2	96	48	6
NMSTR	48	192	3
NMSI_	48	192	3	96	48	7
BRTAP	49	0	0
NMTAP	49	0	4
BRTAP	49	96	1
NMTAP	49	96	5
BRTAP	49	192	2
NMTAP	49	192	6
BRTAP	49	288	3
NMTAP	49	288	7
NMSTR	50	0	3
NMSI_	50	0	3	96	48	7
NMSTR	50	0	4
NMSI_	50	0	4	96	48	6
NMSTR	50	192	3
NMSI_	50	192	3	96	48	1
NMSTR	50	192	4
NMSI_	50	192	4	96	48	0
NMTAP	51	0	3
NMSTR	51	0	4
NMSI_	51	0	4	96	48	0
NMSTR	51	96	3
NMSI_	51	96	3	96	48	7
NMTAP	51	192	4
NMSTR	52	0	2
NMSCR	52	0	2	96	48	5
NMTAP	52	96	7
NMSTR	52	192	6
NMSCR	52	192	6	96	48	1
NMTAP	52	288	2
NMSTR	53	0	2
NMSCL	53	0	2	96	48	7
NMSTR	53	0	3
NMSUL	53	0	3	96	48	6
NMTAP	53	192	1
NMTAP	53	192	4
NMTAP	53	288	3
NMTAP	53	288	4
NMSTR	54	0	4
NMSI_	54	0	4	96	48	0
NMSTR	54	0	5
NMSI_	54	0	5	96	48	7
NMSTR	54	192	2
NMSI_	54	192	2	96	48	0
NMSTR	54	192	3
NMSI_	54	192	3	96	48	7
NMTAP	55	0	2
NMTAP	55	0	5
NMTAP	55	96	3
NMSTR	55	96	4
NMSI_	55	96	4	96	96	7
NMHLD	55	192	0	96
NMSTR	56	0	0
NMSI_	56	0	0	96	48	4
NMSTR	56	0	1
NMSI_	56	0	1	96	48	5
NMSTR	56	192	6
NMSI_	56	192	6	96	48	2
NMSTR	56	192	7
NMSI_	56	192	7	96	48	3
NMTAP	57	0	4
NMTAP	57	0	5
NMTAP	57	96	2
NMTAP	57	96	3
NMTAP	57	192	1
NMTAP	57	192	6
NMTAP	58	0	0
NMHLD	58	0	7	64
NMTAP	58	64	5
NMTAP	58	96	7
NMHLD	58	192	0	64
NMTAP	58	192	7
NMTAP	58	256	2
NMTAP	58	288	0
NMSTR	59	0	0
NMSUR	59	0	0	96	48	4
NMTAP	59	0	4
NMSTR	59	96	7
NMSUL	59	96	7	96	48	3
BRTAP	59	192	0
NMTTP	60	96	0	B	0	M1
NMTTP	60	96	1	B	0	M1
NMTTP	60	160	6	B	0	M1
NMTTP	60	160	7	B	0	M1
NMTTP	60	288	2	B	0	M1
NMTTP	60	288	2	E	0	M1
NMTTP	60	288	2	A	0	M1
NMTTP	60	288	5	B	0	M1
NMTTP	60	288	5	A	0	M1
NMTTP	60	288	6	E	0	M1
NMTTP	61	96	0	B	0	M1
NMTTP	61	96	1	B	0	M1
NMTTP	61	160	6	B	0	M1
NMTTP	61	160	7	B	0	M1
NMTTP	61	288	2	B	0	M1
NMTTP	61	288	2	E	0	M1
NMTTP	61	288	2	A	0	M1
NMTTP	61	288	5	B	0	M1
NMTTP	61	288	5	A	0	M1
NMTTP	61	288	6	E	0	M1
NMTTP	62	96	0	B	0	M1
NMTTP	62	96	1	B	0	M1
NMTTP	62	160	6	B	0	M1
NMTTP	62	160	7	B	0	M1
NMTTP	62	288	2	B	0	M1
NMTTP	62	288	2	E	0	M1
NMTTP	62	288	2	A	0	M1
NMTTP	62	288	5	B	0	M1
NMTTP	62	288	5	A	0	M1
NMTTP	62	288	6	E	0	M1
NMTTP	63	96	0	B	0	M1
NMTTP	63	96	1	B	0	M1
NMTTP	63	160	6	B	0	M1
NMTTP	63	160	7	B	0	M1
NMTTP	63	288	2	B	0	M1
NMTTP	63	288	2	E	0	M1
NMTTP	63	288	2	A	0	M1
NMTTP	63	288	5	B	0	M1
NMTTP	63	288	5	A	0	M1
NMTTP	63	288	6	E	0	M1
NMSTR	64	0	3
NMSI_	64	0	3	96	48	1
NMSTR	64	0	4
NMSI_	64	0	4	96	48	0
NMSTR	64	192	3
NMSI_	64	192	3	96	48	7
NMSTR	64	192	4
NMSI_	64	192	4	96	48	6
NMSTR	65	0	3
NMSI_	65	0	3	96	48	0
NMSTR	65	0	4
NMSI_	65	0	4	96	48	7
NMTAP	65	192	1
NMTAP	65	192	6
NMSTR	66	0	5
NMSI_	66	0	5	96	48	0
NMHLD	66	0	6	96
NMHLD	66	192	1	96
NMSTR	66	192	2
NMSCR	66	192	2	96	48	5
NMSTR	67	0	0
NMSI_	67	0	0	96	48	4
NMSTR	67	0	7
NMSI_	67	0	7	96	48	3
NMTAP	67	192	0
NMTAP	67	192	7
NMHLD	67	288	2	1536
NMHLD	67	288	5	1536
NMSTR	72	0	3
NMSI_	72	0	3	96	48	7
NMSTR	72	0	4
NMSI_	72	0	4	96	48	6
NMSTR	72	192	3
NMSI_	72	192	3	96	48	1
NMSTR	72	192	4
NMSI_	72	192	4	96	48	0
NMSTR	73	0	3
NMSI_	73	0	3	96	48	0
NMSTR	73	0	4
NMSI_	73	0	4	96	48	7
NMTAP	73	192	1
NMTAP	73	192	6
NMHLD	74	0	1	96
NMSTR	74	0	2
NMSI_	74	0	2	96	48	7
NMSTR	74	192	5
NMSCL	74	192	5	96	48	2
NMHLD	74	192	6	96
NMSTR	75	0	0
NMSI_	75	0	0	96	48	4
NMSTR	75	0	7
NMSI_	75	0	7	96	48	3
NMTAP	75	192	0
NMTAP	75	192	7
NMHLD	75	288	2	1536
NMHLD	75	288	5	1536
NMTAP	80	0	0
NMHLD	80	0	7	64
NMTAP	80	64	5
NMTAP	80	96	7
NMHLD	80	192	0	64
NMTAP	80	192	7
NMTAP	80	256	2
NMTAP	80	288	0
NMSTR	81	0	0
NMSUR	81	0	0	96	48	4
NMTAP	81	0	4
NMSTR	81	96	7
NMSUL	81	96	7	96	48	3
NMTAP	81	192	0
NMHLD	81	288	2	768
EXHLD	81	288	5	768
NMTAP	84	0	0
NMHLD	84	0	7	64
NMTAP	84	64	5
NMTAP	84	96	7
NMHLD	84	192	0	64
NMTAP	84	192	7
NMTAP	84	256	2
NMTAP	84	288	0
NMSTR	85	0	0
NMSUR	85	0	0	96	48	4
NMTAP	85	0	4
NMSTR	85	96	7
NMSUL	85	96	7	96	48	3
NMTAP	85	192	0
NMTAP	86	0	0
NMHLD	86	0	7	64
NMTAP	86	64	5
NMTAP	86	96	7
NMHLD	86	192	0	64
NMTAP	86	192	7
NMTAP	86	256	2
NMTAP	86	288	0
NMSTR	87	0	0
NMSUR	87	0	0	96	48	4
NMTAP	87	0	4
NMSTR	87	96	7
NMSUL	87	96	7	96	48	3
NMSTR	87	192	0
NMSUR	87	192	0	96	48	4
NMTAP	87	288	7
BRSTR	88	0	1
NMSI_	88	0	1	96	48	4
BRTAP	88	0	6
NMSTR	88	96	5
NMSI_	88	96	5	96	48	0
NMSTR	88	192	2
NMSI_	88	192	2	96	48	7
NMSTR	88	288	6
NMSI_	88	288	6	96	48	3
NMSTR	89	0	2
NMSI_	89	0	2	96	48	7
NMSTR	89	96	5
NMSI_	89	96	5	96	48	0
NMSTR	89	192	3
NMSI_	89	192	3	96	48	7
NMSTR	89	288	4
NMSI_	89	288	4	96	48	0
NMTAP	90	0	2
NMTAP	90	96	1
NMTAP	90	96	3
NMTAP	90	192	6
NMTAP	90	192	7
NMTAP	90	256	0
NMTAP	90	256	5
NMTAP	90	352	2
NMSTR	90	352	3
NMSCR	90	352	3	96	80	0
BRTAP	91	192	3
BRTAP	91	192	6
NMTAP	92	0	3
NMTAP	92	32	4
NMTAP	92	64	3
NMTAP	92	96	4
NMTAP	92	128	3
NMTAP	92	160	4
NMTAP	92	192	3
NMTAP	92	224	4
NMTAP	92	256	3
NMTAP	92	288	4
NMTAP	92	320	3
NMTAP	92	352	4
NMTAP	93	0	2
NMTAP	93	32	5
NMTAP	93	64	2
NMTAP	93	96	5
NMTAP	93	128	2
NMTAP	93	160	5
NMTAP	93	192	2
NMTAP	93	224	5
NMTAP	93	256	2
NMTAP	93	288	5
NMTAP	93	320	2
NMTAP	93	352	5
NMTAP	94	0	1
NMTAP	94	96	2
NMTAP	94	96	4
NMTAP	94	192	3
NMTAP	94	192	5
NMSTR	94	288	1
NMSI_	94	288	1	96	48	5
NMTAP	94	288	7
NMSTR	95	0	6
NMSI_	95	0	6	96	48	3
NMSTR	95	96	0
NMSI_	95	96	0	96	48	4
BRTAP	95	192	7
NMHLD	96	0	0	96
NMTAP	96	0	4
NMTAP	96	96	4
NMHLD	96	192	0	96
NMTAP	96	192	4
NMSTR	96	288	4
NMSI_	96	288	4	96	48	7
NMSTR	97	0	3
NMSI_	97	0	3	96	48	0
NMSTR	97	96	4
NMSI_	97	96	4	96	48	7
NMTAP	97	192	3
NMHLD	98	0	0	96
NMTAP	98	0	4
NMTAP	98	96	4
NMHLD	98	192	0	96
NMTAP	98	192	4
NMSTR	98	288	4
NMSI_	98	288	4	96	48	0
NMSTR	99	0	3
NMSI_	99	0	3	96	48	1
NMSTR	99	96	5
NMSI_	99	96	5	96	48	7
NMTAP	99	192	4
NMHLD	100	0	0	96
NMTAP	100	0	4
NMTAP	100	96	4
NMHLD	100	192	0	96
NMTAP	100	192	4
NMSTR	100	288	4
NMSI_	100	288	4	96	48	0
NMSTR	101	0	3
NMSI_	101	0	3	96	48	7
NMSTR	101	96	5
NMSI_	101	96	5	96	48	1
NMTAP	101	192	2
NMHLD	102	0	0	96
NMTAP	102	0	4
NMTAP	102	96	4
NMHLD	102	192	0	96
NMTAP	102	192	4
NMSTR	102	288	4
NMSCR	102	288	4	96	96	0
NMSTR	103	0	0
NMSCR	103	0	0	96	96	4
NMSTR	103	96	4
NMSCR	103	96	4	96	96	0
NMTAP	103	192	0
BRTAP	103	288	4
NMSTR	104	0	3
NMSI_	104	0	3	96	48	1
NMSTR	104	0	4
NMSI_	104	0	4	96	48	0
NMSTR	104	192	3
NMSI_	104	192	3	96	48	7
NMSTR	104	192	4
NMSI_	104	192	4	96	48	6
NMSTR	105	0	3
NMSI_	105	0	3	96	48	0
NMTAP	105	0	4
NMSTR	105	96	4
NMSI_	105	96	4	96	48	7
NMTAP	105	192	3
NMSTR	106	0	5
NMSCL	106	0	5	96	48	2
NMTAP	106	96	0
NMSTR	106	192	1
NMSCL	106	192	1	96	48	6
NMTAP	106	288	5
NMSTR	107	0	4
NMSI_	107	0	4	96	48	1
NMSTR	107	0	5
NMSI_	107	0	5	96	48	0
NMTAP	107	192	2
NMTAP	107	192	7
NMTAP	107	288	3
NMTAP	107	288	4
NMSTR	108	0	2
NMSI_	108	0	2	96	48	0
NMSTR	108	0	3
NMSI_	108	0	3	96	48	7
NMSTR	108	192	4
NMSI_	108	192	4	96	48	0
NMSTR	108	192	5
NMSI_	108	192	5	96	48	7
NMTAP	109	0	2
NMTAP	109	0	5
NMSTR	109	96	3
NMSI_	109	96	3	96	96	0
NMTAP	109	96	4
NMHLD	109	192	7	96
NMSTR	110	0	6
NMSCL	110	0	6	96	48	3
NMSTR	110	0	7
NMSCR	110	0	7	96	48	2
NMSTR	110	192	0
NMSCL	110	192	0	96	48	5
NMSTR	110	192	1
NMSCR	110	192	1	96	48	4
NMTAP	111	0	2
NMTAP	111	0	3
NMTAP	111	96	4
NMTAP	111	96	5
NMTAP	111	192	1
NMTAP	111	192	6
NMTAP	112	0	0
NMHLD	112	0	7	64
NMTAP	112	64	5
NMTAP	112	96	7
NMHLD	112	192	0	64
NMTAP	112	192	7
NMTAP	112	256	2
NMTAP	112	288	0
NMSTR	113	0	0
NMSUR	113	0	0	96	48	5
NMTAP	113	0	4
NMSTR	113	96	7
NMSUL	113	96	7	96	48	2
NMTAP	113	192	0
BRTAP	113	288	0
NMTAP	114	0	0
NMHLD	114	0	7	64
NMTAP	114	64	5
NMTAP	114	96	7
NMHLD	114	192	0	64
NMTAP	114	192	7
NMTAP	114	256	2
NMTAP	114	288	0
BRSTR	115	0	0
NMSUR	115	0	0	96	48	5
BRTAP	115	0	4
BRSTR	115	96	7
NMSUL	115	96	7	96	48	2
BRTAP	115	192	0
NMTAP	115	288	1
NMTAP	115	288	6
NMTAP	116	0	3
NMTAP	116	0	4
NMTAP	116	64	5
NMTAP	116	96	4
NMTAP	116	160	2
NMTAP	116	192	3
NMTAP	116	256	6
NMTAP	116	288	4
NMTAP	116	352	1
NMTAP	117	0	3
NMTAP	117	64	6
NMTAP	117	96	4
NMTAP	117	160	1
NMTAP	117	192	3
NMTAP	117	288	5
NMTAP	117	288	7
NMTAP	118	0	3
NMTAP	118	0	4
NMTAP	118	64	2
NMTAP	118	96	3
NMTAP	118	160	5
NMTAP	118	192	4
NMTAP	118	256	1
NMTAP	118	288	3
NMTAP	118	352	6
NMTAP	119	0	4
NMTAP	119	64	1
NMTAP	119	96	3
NMTAP	119	160	6
NMTAP	119	192	4
NMTAP	119	288	0
NMTAP	119	288	2
NMTAP	120	0	4
NMTAP	120	0	5
NMTAP	120	64	4
NMTAP	120	64	5
NMTAP	120	160	2
NMTAP	120	160	4
NMTAP	120	256	3
NMTAP	120	256	5
NMTAP	120	352	2
NMTAP	120	352	4
NMTAP	121	64	3
NMTAP	121	64	5
NMTAP	121	160	5
NMTAP	121	192	4
NMSTR	121	256	6
NMSCL	121	256	6	96	64	3
NMSTR	121	256	7
NMSCR	121	256	7	96	64	2
BRTAP	121	352	6
BRTAP	121	352	7

T_REC_TAP	364
T_REC_BRK	18
T_REC_XTP	0
T_REC_BXX	0
T_REC_HLD	43
T_REC_XHO	1
T_REC_BHO	0
T_REC_BXH	0
T_REC_STR	150
T_REC_BST	6
T_REC_XST	0
T_REC_XBS	0
T_REC_TTP	40
T_REC_THO	0
T_REC_SLD	156
T_REC_BSL	0
T_REC_ALL	778
T_NUM_TAP	554
T_NUM_BRK	24
T_NUM_HLD	44
T_NUM_SLD	156
T_NUM_ALL	778
T_JUDGE_TAP	578
T_JUDGE_HLD	288
T_JUDGE_SLD	156
T_JUDGE_ALL	1022
TTM_EACHPAIRS	174
TTM_SCR_TAP	277000
TTM_SCR_BRK	62400
TTM_SCR_HLD	44000
TTM_SCR_SLD	234000
TTM_SCR_ALL	617400
TTM_SCR_S	596550
TTM_SCR_SS	615000
TTM_RAT_ACV	10039

