VERSION	0.00.00	1.04.00
FES_MODE	1
BPM_DEF	120.000	120.000	120.000	120.000
MET_DEF	4	4
RESOLUTION	384
CLK_DEF	384
COMPATIBLE_CODE	MA2

BPM	0	0	120.000
MET	0	0	4	4

BRHLD	1	0	5	1056
NMSTR	2	48	0
NMSI_	2	48	0	96	48	4
NMTAP	2	96	1
NMTAP	2	144	0
NMSTR	3	48	0
NMSI_	3	48	0	96	48	4
NMTAP	3	96	1
NMTAP	3	144	0
NMHLD	3	288	2	768
NMSTR	4	48	7
NMSI_	4	48	7	96	48	3
NMTAP	4	96	6
NMTAP	4	144	7
NMSTR	5	48	7
NMSI_	5	48	7	96	48	3
NMTAP	5	96	6
NMTAP	5	144	7
NMHLD	5	288	5	768
NMSTR	6	48	0
NMSI_	6	48	0	96	48	4
NMTAP	6	96	1
NMTAP	6	144	0
NMSTR	6	240	0
NMSI_	6	240	0	96	48	4
NMTAP	6	288	1
NMTAP	6	336	0
NMSTR	7	48	0
NMSI_	7	48	0	96	48	4
NMTAP	7	96	1
NMTAP	7	144	0
NMHLD	7	288	2	768
NMSTR	8	48	7
NMSI_	8	48	7	96	48	3
NMTAP	8	96	6
NMTAP	8	144	7
NMSTR	8	240	7
NMSI_	8	240	7	96	48	3
NMTAP	8	288	6
NMTAP	8	336	7
NMSTR	9	48	7
NMSI_	9	48	7	96	48	3
NMTAP	9	96	6
NMTAP	9	144	7
NMHLD	9	288	5	768
NMSTR	10	48	0
NMSI_	10	48	0	96	48	4
NMTAP	10	96	1
NMTAP	10	144	0
NMSTR	10	240	0
NMSI_	10	240	0	96	48	4
NMTAP	10	288	1
NMTAP	10	336	0
NMSTR	11	48	0
NMSI_	11	48	0	96	48	4
NMTAP	11	96	1
NMTAP	11	144	0
NMHLD	11	288	2	672
NMSTR	12	48	7
NMSI_	12	48	7	96	48	3
NMTAP	12	96	6
NMTAP	12	144	7
NMSTR	12	240	7
NMSI_	12	240	7	96	48	3
NMTAP	12	288	6
NMTAP	12	336	7
NMSTR	13	48	7
NMSI_	13	48	7	96	48	3
NMTAP	13	96	6
NMTAP	13	144	7
NMTAP	13	288	2
NMTAP	13	288	4
NMSTR	14	48	0
NMSI_	14	48	0	96	48	4
NMTAP	14	48	7
NMTAP	14	96	1
NMTAP	14	144	0
NMTAP	14	144	7
NMSTR	14	240	0
NMSI_	14	240	0	96	48	4
NMTAP	14	240	7
NMTAP	14	288	1
NMTAP	14	336	0
NMTAP	14	336	7
NMSTR	15	48	0
NMSI_	15	48	0	96	48	4
NMTAP	15	48	7
NMTAP	15	96	1
NMTAP	15	144	0
NMTAP	15	144	7
NMTAP	15	288	3
NMTAP	15	288	5
NMTAP	16	48	0
NMSTR	16	48	7
NMSI_	16	48	7	96	48	3
NMTAP	16	96	6
NMTAP	16	144	0
NMTAP	16	144	7
NMTAP	16	240	0
NMSTR	16	240	7
NMSI_	16	240	7	96	48	3
NMTAP	16	288	6
NMTAP	16	336	0
NMTAP	16	336	7
NMTAP	17	48	0
NMSTR	17	48	7
NMSI_	17	48	7	96	48	3
NMTAP	17	96	6
NMTAP	17	144	0
NMTAP	17	144	7
NMTAP	17	288	2
NMTAP	17	288	4
NMSTR	18	48	0
NMSI_	18	48	0	96	48	4
NMTAP	18	48	7
NMTAP	18	96	1
NMTAP	18	144	0
NMTAP	18	144	7
NMSTR	18	240	0
NMSI_	18	240	0	96	48	4
NMTAP	18	240	7
NMTAP	18	288	1
NMTAP	18	336	0
NMTAP	18	336	7
NMSTR	19	48	0
NMSI_	19	48	0	96	48	4
NMTAP	19	48	7
NMTAP	19	96	1
NMTAP	19	144	0
NMTAP	19	144	7
NMTAP	19	288	3
NMTAP	19	288	5
NMTAP	20	48	0
NMSTR	20	48	7
NMSI_	20	48	7	96	48	3
NMTAP	20	96	6
NMTAP	20	144	0
NMTAP	20	144	7
NMTAP	20	240	0
NMSTR	20	240	7
NMSI_	20	240	7	96	48	3
NMTAP	20	288	6
NMTAP	20	336	0
NMTAP	20	336	7
NMTAP	21	48	0
NMSTR	21	48	7
NMSI_	21	48	7	96	48	3
NMTAP	21	96	6
NMTAP	21	144	0
NMTAP	21	144	7
NMTAP	21	288	2
NMTAP	21	288	4
NMSTR	22	48	0
NMSI_	22	48	0	96	48	4
NMTAP	22	48	7
NMTAP	22	96	1
NMTAP	22	144	0
NMTAP	22	144	7
NMTAP	22	192	6
NMSTR	22	240	0
NMSI_	22	240	0	96	48	4
NMTAP	22	240	7
NMTAP	22	288	1
NMTAP	22	336	0
NMTAP	22	336	7
NMTAP	23	0	6
NMSTR	23	48	0
NMSI_	23	48	0	96	48	4
NMTAP	23	48	7
NMTAP	23	96	1
NMTAP	23	144	0
NMTAP	23	144	7
NMTAP	23	192	6
NMTAP	23	288	3
NMTAP	23	288	5
NMTAP	24	48	0
NMSTR	24	48	7
NMSI_	24	48	7	96	48	3
NMTAP	24	96	6
NMTAP	24	144	0
NMTAP	24	144	7
NMTAP	24	192	1
NMTAP	24	240	0
NMSTR	24	240	7
NMSI_	24	240	7	96	48	3
NMTAP	24	288	6
NMTAP	24	336	0
NMTAP	24	336	7
NMTAP	25	0	1
NMTAP	25	48	0
NMSTR	25	48	7
NMSI_	25	48	7	96	48	3
NMTAP	25	96	6
NMTAP	25	144	0
NMTAP	25	144	7
NMTAP	25	192	1
NMTAP	25	288	2
NMTAP	25	288	4
NMSTR	26	48	0
NMSI_	26	48	0	96	48	4
NMTAP	26	48	7
NMTAP	26	96	1
NMTAP	26	144	0
NMTAP	26	144	7
NMTAP	26	192	6
NMSTR	26	240	0
NMSI_	26	240	0	96	48	4
NMTAP	26	240	7
NMTAP	26	288	1
NMTAP	26	336	0
NMTAP	26	336	7
NMTAP	27	0	6
NMSTR	27	48	0
NMSI_	27	48	0	96	48	4
NMTAP	27	48	7
NMTAP	27	96	1
NMTAP	27	144	0
NMTAP	27	144	7
NMTAP	27	192	6
NMTAP	27	288	3
NMTAP	27	288	5
NMTAP	28	48	0
NMSTR	28	48	7
NMSI_	28	48	7	96	48	3
NMTAP	28	96	6
NMTAP	28	144	0
NMTAP	28	144	7
NMTAP	28	192	1
NMTAP	28	240	0
NMSTR	28	240	7
NMSI_	28	240	7	96	48	3
NMTAP	28	288	6
NMTAP	28	336	0
NMTAP	28	336	7
NMTAP	29	0	1
NMTAP	29	48	0
NMSTR	29	48	7
NMSI_	29	48	7	96	48	3
NMTAP	29	96	6
NMTAP	29	144	0
NMTAP	29	144	7
NMTAP	29	192	1
NMTAP	29	288	2
NMTAP	29	288	4
NMTAP	30	0	2
NMTAP	30	0	4
NMTAP	30	96	3
NMTAP	30	96	5
NMTAP	30	192	3
NMTAP	30	192	5
NMTAP	30	288	2
NMTAP	30	288	6
NMTAP	31	0	1
NMSTR	31	48	0
NMSI_	31	48	0	96	48	4
NMTAP	31	48	7
NMTAP	31	96	1
NMTAP	31	144	0
NMTAP	31	144	7
NMTAP	31	192	6
NMSTR	31	240	0
NMSI_	31	240	0	96	48	4
NMTAP	31	240	7
NMTAP	31	288	1
NMTAP	31	336	0
NMSTR	31	336	7
NMSI_	31	336	7	96	48	3
NMTAP	32	0	6
NMSTR	32	48	0
NMSI_	32	48	0	96	48	4
NMTAP	32	48	7
NMTAP	32	96	1
NMTAP	32	144	0
NMTAP	32	144	7
NMTAP	32	192	6
NMTAP	32	288	3
NMTAP	32	288	5
NMTAP	33	0	1
NMSTR	33	48	0
NMSI_	33	48	0	96	48	4
NMTAP	33	48	7
NMTAP	33	96	1
NMTAP	33	144	0
NMTAP	33	144	7
NMTAP	33	192	6
NMSTR	33	240	0
NMSI_	33	240	0	96	48	4
NMTAP	33	240	7
NMTAP	33	288	1
NMTAP	33	336	0
NMSTR	33	336	7
NMSI_	33	336	7	96	48	3
NMTAP	34	0	6
NMSTR	34	48	0
NMSI_	34	48	0	96	48	4
NMTAP	34	48	7
NMTAP	34	96	1
NMTAP	34	144	0
NMTAP	34	144	7
NMTAP	34	192	6
NMTAP	34	288	3
NMTAP	34	288	5
NMTAP	35	0	6
NMTAP	35	48	0
NMSTR	35	48	7
NMSI_	35	48	7	96	48	3
NMTAP	35	96	6
NMTAP	35	144	0
NMTAP	35	144	7
NMTAP	35	192	1
NMTAP	35	240	0
NMSTR	35	240	7
NMSI_	35	240	7	96	48	3
NMTAP	35	288	6
NMSTR	35	336	0
NMSI_	35	336	0	96	48	4
NMTAP	35	336	7
NMTAP	36	0	1
NMTAP	36	48	0
NMSTR	36	48	7
NMSI_	36	48	7	96	48	3
NMTAP	36	96	6
NMTAP	36	144	0
NMTAP	36	144	7
NMTAP	36	192	1
NMTAP	36	288	2
NMTAP	36	288	4
NMTAP	37	0	6
NMTAP	37	48	0
NMSTR	37	48	7
NMSI_	37	48	7	96	48	3
NMTAP	37	96	6
NMTAP	37	144	0
NMTAP	37	144	7
NMTAP	37	192	1
NMTAP	37	240	0
NMSTR	37	240	7
NMSI_	37	240	7	96	48	3
NMTAP	37	288	6
NMSTR	37	336	0
NMSI_	37	336	0	96	48	4
NMTAP	37	336	7
NMTAP	38	0	1
NMTAP	38	48	0
NMSTR	38	48	7
NMSI_	38	48	7	96	48	3
NMTAP	38	96	6
NMTAP	38	144	0
NMTAP	38	144	7
NMTAP	38	192	1
NMTAP	38	288	2
NMTAP	38	288	4
NMTAP	39	0	1
NMSTR	39	48	0
NMSI_	39	48	0	96	48	4
NMTAP	39	48	7
NMTAP	39	96	1
NMTAP	39	144	0
NMSTR	39	144	7
NMSI_	39	144	7	96	48	3
NMTAP	39	192	6
NMSTR	39	240	0
NMSI_	39	240	0	96	48	4
NMTAP	39	240	7
NMTAP	39	288	1
NMTAP	39	336	0
NMSTR	39	336	7
NMSI_	39	336	7	96	48	3
NMTAP	40	0	6
NMSTR	40	48	0
NMSI_	40	48	0	96	48	4
NMTAP	40	48	7
NMTAP	40	96	1
NMTAP	40	144	0
NMTAP	40	144	7
NMTAP	40	192	6
NMTAP	40	288	3
NMTAP	40	288	5
NMTAP	41	0	6
NMTAP	41	48	0
NMSTR	41	48	7
NMSI_	41	48	7	96	48	3
NMTAP	41	96	6
NMSTR	41	144	0
NMSI_	41	144	0	96	48	4
NMTAP	41	144	7
NMTAP	41	192	1
NMTAP	41	240	0
NMSTR	41	240	7
NMSI_	41	240	7	96	48	3
NMTAP	41	288	6
NMSTR	41	336	0
NMSI_	41	336	0	96	48	4
NMTAP	41	336	7
NMTAP	42	0	1
NMTAP	42	48	0
NMSTR	42	48	7
NMSI_	42	48	7	96	48	3
NMTAP	42	96	6
NMTAP	42	144	0
NMTAP	42	144	7
NMTAP	42	192	1
NMTAP	42	288	2
NMTAP	42	288	4
NMSTR	43	48	0
NMSCR	43	48	0	96	48	3
NMTAP	43	48	7
NMTAP	43	96	1
NMTAP	43	144	0
NMTAP	43	144	7
NMSTR	44	48	0
NMSCR	44	48	0	96	48	3
NMTAP	44	48	7
NMTAP	44	96	1
NMTAP	44	144	0
NMTAP	44	144	7
NMTAP	44	288	3
NMTAP	44	288	5
NMTAP	45	48	0
NMSTR	45	48	7
NMSCL	45	48	7	96	48	4
NMTAP	45	96	6
NMTAP	45	144	0
NMTAP	45	144	7
NMTAP	46	48	0
NMSTR	46	48	7
NMSCL	46	48	7	96	48	4
NMTAP	46	96	6
NMTAP	46	144	0
NMTAP	46	144	7
NMTAP	46	288	2
NMTAP	46	288	4
NMSTR	47	48	0
NMSCR	47	48	0	96	48	3
NMTAP	47	48	7
NMTAP	47	96	1
NMTAP	47	144	0
NMTAP	47	144	7
NMSTR	47	240	0
NMSCR	47	240	0	96	48	3
NMTAP	47	240	7
NMTAP	47	288	1
NMTAP	47	336	0
NMTAP	47	336	7
NMSTR	48	48	0
NMSCR	48	48	0	96	48	3
NMTAP	48	48	7
NMTAP	48	96	1
NMTAP	48	144	0
NMTAP	48	144	7
NMTAP	48	288	3
NMTAP	48	288	5
NMTAP	49	48	0
NMSTR	49	48	7
NMSCL	49	48	7	96	48	4
NMTAP	49	96	6
NMTAP	49	144	0
NMTAP	49	144	7
NMTAP	49	240	0
NMSTR	49	240	7
NMSCL	49	240	7	96	48	4
NMTAP	49	288	6
NMTAP	49	336	0
NMTAP	49	336	7
NMTAP	50	48	0
NMSTR	50	48	7
NMSCL	50	48	7	96	48	4
NMTAP	50	96	6
NMTAP	50	144	0
NMTAP	50	144	7
NMTAP	50	288	2
NMTAP	50	288	4
NMTAP	51	0	2
NMTAP	51	0	4
NMTAP	51	96	3
NMTAP	51	96	5
NMTAP	51	192	3
NMTAP	51	192	5
NMTAP	51	288	2
NMTAP	51	288	6
NMHLD	52	0	2	288
NMHLD	52	0	6	288
NMTAP	53	0	1
NMTAP	53	48	0
NMSTR	53	48	7
NMSCL	53	48	7	96	48	4
NMTAP	53	96	6
NMTAP	53	144	0
NMTAP	53	144	7
NMTAP	53	192	1
NMTAP	53	240	0
NMSTR	53	240	7
NMSCL	53	240	7	96	48	4
NMTAP	53	288	6
NMTAP	53	336	0
NMTAP	53	336	7
NMTAP	54	0	1
NMTAP	54	48	0
NMSTR	54	48	7
NMSCL	54	48	7	96	48	4
NMTAP	54	96	6
NMTAP	54	144	0
NMTAP	54	144	7
NMTAP	54	192	1
NMTAP	54	288	2
NMTAP	54	288	4
NMTAP	55	0	6
NMSTR	55	48	0
NMSCR	55	48	0	96	48	3
NMTAP	55	48	7
NMTAP	55	96	1
NMTAP	55	144	0
NMTAP	55	144	7
NMTAP	55	192	6
NMSTR	55	240	0
NMSCR	55	240	0	96	48	3
NMTAP	55	240	7
NMTAP	55	288	1
NMTAP	55	336	0
NMTAP	55	336	7
NMTAP	56	0	6
NMSTR	56	48	0
NMSCR	56	48	0	96	48	3
NMTAP	56	48	7
NMTAP	56	96	1
NMTAP	56	144	0
NMTAP	56	144	7
NMTAP	56	192	6
NMTAP	56	288	3
NMTAP	56	288	5
NMTAP	57	0	1
NMTAP	57	48	0
NMSTR	57	48	7
NMSCL	57	48	7	96	48	4
NMTAP	57	96	6
NMTAP	57	144	0
NMTAP	57	144	7
NMTAP	57	192	1
NMTAP	57	240	0
NMSTR	57	240	7
NMSCL	57	240	7	96	48	4
NMTAP	57	288	6
NMSTR	57	336	0
NMSCR	57	336	0	96	48	3
NMTAP	57	336	7
NMTAP	58	0	1
NMTAP	58	48	0
NMSTR	58	48	7
NMSCL	58	48	7	96	48	4
NMTAP	58	96	6
NMTAP	58	144	0
NMTAP	58	144	7
NMTAP	58	192	1
NMTAP	58	288	2
NMTAP	58	288	4
NMTAP	59	0	6
NMSTR	59	48	0
NMSCR	59	48	0	96	48	3
NMTAP	59	48	7
NMTAP	59	96	1
NMTAP	59	144	0
NMTAP	59	144	7
NMTAP	59	192	6
NMSTR	59	240	0
NMSCR	59	240	0	96	48	3
NMTAP	59	240	7
NMTAP	59	288	1
NMTAP	59	336	0
NMSTR	59	336	7
NMSCL	59	336	7	96	48	4
NMTAP	60	0	6
NMSTR	60	48	0
NMSCR	60	48	0	96	48	3
NMTAP	60	48	7
NMTAP	60	96	1
NMTAP	60	144	0
NMTAP	60	144	7
NMTAP	60	192	6
NMTAP	60	288	6
NMSTR	60	336	0
NMSCR	60	336	0	96	48	3
NMTAP	60	336	7
NMTAP	61	0	1
NMTAP	61	48	0
NMSTR	61	48	7
NMSCL	61	48	7	96	48	4
NMTAP	61	96	6
NMSTR	61	144	0
NMSCR	61	144	0	96	48	3
NMTAP	61	144	7
NMTAP	61	192	1
NMTAP	61	240	0
NMSTR	61	240	7
NMSCL	61	240	7	96	48	4
NMTAP	61	288	6
NMSTR	61	336	0
NMSCR	61	336	0	96	48	3
NMTAP	61	336	7
NMTAP	62	0	1
NMTAP	62	48	0
NMSTR	62	48	7
NMSCL	62	48	7	96	48	4
NMTAP	62	96	6
NMTAP	62	144	0
NMTAP	62	144	7
NMTAP	62	192	1
NMTAP	62	288	1
NMTAP	62	336	0
NMSTR	62	336	7
NMSCL	62	336	7	96	48	4
NMTAP	63	0	6
NMSTR	63	48	0
NMSCR	63	48	0	96	48	3
NMTAP	63	48	7
NMTAP	63	96	1
NMTAP	63	144	0
NMSTR	63	144	7
NMSCL	63	144	7	96	48	4
NMTAP	63	192	6
NMSTR	63	240	0
NMSCR	63	240	0	96	48	3
NMTAP	63	240	7
NMTAP	63	288	1
NMTAP	63	336	0
NMSTR	63	336	7
NMSCL	63	336	7	96	48	4
NMTAP	64	0	6
NMSTR	64	48	0
NMSCR	64	48	0	96	48	3
NMTAP	64	48	7
NMTAP	64	96	1
NMTAP	64	144	0
NMTAP	64	144	7
NMTAP	64	192	6
NMTAP	64	288	6
NMSTR	64	336	0
NMSCR	64	336	0	96	48	3
NMTAP	64	336	7
NMTAP	65	0	1
NMTAP	65	48	0
NMSTR	65	48	7
NMSCL	65	48	7	96	48	4
NMTAP	65	96	6
NMSTR	65	144	0
NMSI_	65	144	0	96	48	4
NMTAP	65	144	7
NMTAP	65	192	1
NMTAP	65	240	0
NMSTR	65	240	7
NMSI_	65	240	7	96	48	3
NMTAP	65	288	6
NMSTR	65	336	0
NMSCR	65	336	0	96	48	3
NMTAP	65	336	7
NMTAP	66	0	1
NMTAP	66	48	0
NMSTR	66	48	7
NMSCL	66	48	7	96	48	4
NMTAP	66	96	6
NMSTR	66	144	0
NMSI_	66	144	0	96	48	4
NMTAP	66	144	7
NMTAP	66	192	1
NMTAP	66	240	0
NMTAP	66	240	7
NMTAP	66	288	6

T_REC_TAP	440
T_REC_BRK	0
T_REC_XTP	0
T_REC_BXX	0
T_REC_HLD	7
T_REC_XHO	0
T_REC_BHO	1
T_REC_BXH	0
T_REC_STR	109
T_REC_BST	0
T_REC_XST	0
T_REC_XBS	0
T_REC_TTP	0
T_REC_THO	0
T_REC_SLD	109
T_REC_BSL	0
T_REC_ALL	666
T_NUM_TAP	549
T_NUM_BRK	1
T_NUM_HLD	7
T_NUM_SLD	109
T_NUM_ALL	666
T_JUDGE_TAP	549
T_JUDGE_HLD	112
T_JUDGE_SLD	109
T_JUDGE_ALL	770
TTM_EACHPAIRS	181
TTM_SCR_TAP	274500
TTM_SCR_BRK	2600
TTM_SCR_HLD	7000
TTM_SCR_SLD	163500
TTM_SCR_ALL	447600
TTM_SCR_S	434100
TTM_SCR_SS	447500
TTM_RAT_ACV	10002

