VERSION	0.00.00	1.04.00
FES_MODE	1
BPM_DEF	135.000	135.000	135.000	135.000
MET_DEF	4	4
RESOLUTION	384
CLK_DEF	384
COMPATIBLE_CODE	MA2

BPM	0	0	135.000
MET	0	0	4	4

NMSTR	1	0	0
NMSI_	1	0	0	96	192	4
NMSTR	1	0	4
NMSI_	1	0	4	96	192	0
NMSTR	2	0	1
NMSI_	2	0	1	96	192	6
NMSTR	2	0	5
NMSI_	2	0	5	96	192	2
NMSTR	3	0	1
NMSI_	3	0	1	96	192	6
NMSTR	3	0	5
NMSI_	3	0	5	96	192	2
NMSTR	4	0	3
NMSCL	4	0	3	96	480	4
NMSTR	4	0	7
NMSCL	4	0	7	96	480	0
BRTAP	6	0	0
BRTAP	6	0	3
BRTAP	6	0	4
BRTAP	6	0	7
NMTAP	6	192	1
NMTAP	6	192	5
NMTAP	6	288	2
NMTAP	6	288	6
NMTAP	7	0	0
NMTAP	7	0	3
NMTAP	7	0	4
NMTAP	7	0	7
NMTAP	7	192	1
NMTAP	7	192	5
NMTAP	7	288	2
NMTAP	7	288	6
NMTAP	8	0	0
NMTAP	8	0	3
NMTAP	8	0	4
NMTAP	8	0	7
NMTAP	8	192	1
NMTAP	8	192	5
NMTAP	8	288	2
NMTAP	8	288	6
NMTAP	9	0	1
NMTAP	9	0	2
NMTAP	9	0	5
NMTAP	9	0	6
NMTAP	9	192	0
NMTAP	9	192	4
NMTAP	9	288	3
NMTAP	9	288	7
NMTAP	10	0	1
NMTAP	10	0	2
NMTAP	10	0	5
NMTAP	10	0	6
NMTAP	10	192	1
NMTAP	10	192	5
NMTAP	10	288	2
NMTAP	10	288	6
NMTAP	11	0	0
NMTAP	11	0	3
NMTAP	11	0	4
NMTAP	11	0	7
NMTAP	11	192	2
NMTAP	11	192	6
NMTAP	11	288	1
NMTAP	11	288	5
NMTAP	12	0	0
NMTAP	12	0	3
NMTAP	12	0	4
NMTAP	12	0	7
NMTAP	12	192	2
NMTAP	12	192	6
NMTAP	12	288	1
NMTAP	12	288	5
NMTAP	13	0	0
NMTAP	13	0	3
NMTAP	13	0	4
NMTAP	13	0	7
NMTAP	13	192	1
NMTAP	13	192	2
NMTAP	13	192	5
NMTAP	13	192	6
NMSTR	13	288	0
NMSI_	13	288	0	96	144	3
NMSTR	13	288	3
NMSI_	13	288	3	96	144	0
NMSTR	13	288	4
NMSI_	13	288	4	96	144	7
NMSTR	13	288	7
NMSI_	13	288	7	96	144	4
BRTAP	14	288	1
BRTAP	14	288	2
BRTAP	14	288	5
BRTAP	14	288	6
NMTAP	15	0	0
NMTAP	15	0	3
NMTAP	15	0	4
NMTAP	15	0	7
NMTAP	15	96	2
NMTAP	15	96	3
NMTAP	15	96	6
NMTAP	15	96	7
NMTAP	15	192	1
NMTAP	15	192	5
NMTAP	15	240	1
NMTAP	15	240	5
NMTAP	15	288	1
NMTAP	15	288	5
NMTAP	16	0	0
NMTAP	16	0	3
NMTAP	16	0	4
NMTAP	16	0	7
NMTAP	16	96	0
NMTAP	16	96	1
NMTAP	16	96	4
NMTAP	16	96	5
NMTAP	16	192	2
NMTAP	16	192	6
NMTAP	16	240	2
NMTAP	16	240	6
NMTAP	16	288	2
NMTAP	16	288	6
NMTAP	17	0	0
NMTAP	17	0	3
NMTAP	17	0	4
NMTAP	17	0	7
NMTAP	17	96	0
NMTAP	17	96	1
NMTAP	17	96	4
NMTAP	17	96	5
NMTAP	17	192	2
NMTAP	17	192	6
NMTAP	17	240	2
NMTAP	17	240	6
NMTAP	17	288	2
NMTAP	17	288	6
NMTAP	18	0	0
NMTAP	18	0	3
NMTAP	18	0	4
NMTAP	18	0	7
NMTAP	18	96	2
NMTAP	18	96	3
NMTAP	18	96	6
NMTAP	18	96	7
NMTAP	18	192	1
NMTAP	18	192	5
NMTAP	18	240	1
NMTAP	18	240	5
NMTAP	18	288	1
NMTAP	18	288	5
NMTAP	19	0	2
NMTAP	19	0	3
NMTAP	19	0	6
NMTAP	19	0	7
NMTAP	19	96	0
NMTAP	19	96	1
NMTAP	19	96	4
NMTAP	19	96	5
NMTAP	19	192	2
NMTAP	19	192	6
NMTAP	19	240	2
NMTAP	19	240	6
NMTAP	19	288	2
NMTAP	19	288	6
NMTAP	20	0	0
NMTAP	20	0	1
NMTAP	20	0	4
NMTAP	20	0	5
NMTAP	20	96	2
NMTAP	20	96	3
NMTAP	20	96	6
NMTAP	20	96	7
NMTAP	20	192	1
NMTAP	20	192	5
NMTAP	20	240	1
NMTAP	20	240	5
NMTAP	20	288	1
NMTAP	20	288	5
NMTAP	21	0	0
NMTAP	21	0	3
NMTAP	21	0	4
NMTAP	21	0	7
NMTAP	21	96	0
NMTAP	21	96	1
NMTAP	21	96	4
NMTAP	21	96	5
NMTAP	21	192	2
NMTAP	21	192	6
NMTAP	21	240	2
NMTAP	21	240	6
NMTAP	21	288	2
NMTAP	21	288	6
NMTAP	22	0	0
NMTAP	22	0	3
NMTAP	22	0	4
NMTAP	22	0	7
NMTAP	22	96	2
NMTAP	22	96	3
NMTAP	22	96	6
NMTAP	22	96	7
NMTAP	22	192	1
NMTAP	22	192	5
NMTAP	22	240	1
NMTAP	22	240	5
NMTAP	22	288	1
NMTAP	22	288	5
NMTAP	23	0	2
NMTAP	23	0	3
NMTAP	23	0	6
NMTAP	23	0	7
NMTAP	23	96	0
NMTAP	23	96	1
NMTAP	23	96	4
NMTAP	23	96	5
NMTAP	23	192	2
NMTAP	23	192	3
NMTAP	23	192	6
NMTAP	23	192	7
NMTAP	23	288	0
NMTAP	23	288	1
NMTAP	23	288	4
NMTAP	23	288	5
NMTAP	24	0	2
NMTAP	24	0	3
NMTAP	24	0	6
NMTAP	24	0	7
NMTAP	24	96	0
NMTAP	24	96	1
NMTAP	24	96	4
NMTAP	24	96	5
NMTAP	24	192	2
NMTAP	24	192	3
NMTAP	24	192	6
NMTAP	24	192	7
NMTAP	24	288	0
NMTAP	24	288	1
NMTAP	24	288	4
NMTAP	24	288	5
NMHLD	25	0	2	144
NMHLD	25	0	6	144
NMTAP	25	144	3
NMTAP	25	144	7
NMTAP	25	192	3
NMTAP	25	192	7
NMHLD	26	0	1	144
NMHLD	26	0	5	144
NMTAP	26	144	0
NMTAP	26	144	4
NMTAP	26	192	0
NMTAP	26	192	4
NMTAP	27	0	2
NMTAP	27	0	3
NMTAP	27	0	6
NMTAP	27	0	7
NMTAP	27	96	0
NMTAP	27	96	1
NMTAP	27	96	4
NMTAP	27	96	5
NMTAP	27	192	2
NMTAP	27	192	3
NMTAP	27	192	6
NMTAP	27	192	7
NMTAP	27	288	0
NMTAP	27	288	1
NMTAP	27	288	4
NMTAP	27	288	5
NMTAP	28	0	2
NMTAP	28	0	3
NMTAP	28	0	6
NMTAP	28	0	7
NMTAP	28	96	0
NMTAP	28	96	1
NMTAP	28	96	4
NMTAP	28	96	5
NMTAP	28	192	2
NMTAP	28	192	3
NMTAP	28	192	6
NMTAP	28	192	7
NMTAP	28	288	0
NMTAP	28	288	1
NMTAP	28	288	4
NMTAP	28	288	5
NMTAP	29	0	3
NMTAP	29	0	7
NMTAP	29	48	3
NMTAP	29	48	7
NMTAP	29	96	3
NMTAP	29	96	7
NMTAP	29	192	0
NMTAP	29	192	4
NMTAP	29	240	0
NMTAP	29	240	4
NMTAP	29	288	0
NMTAP	29	288	4
NMTAP	30	0	2
NMTAP	30	0	6
NMTAP	30	48	2
NMTAP	30	48	6
NMTAP	30	96	2
NMTAP	30	96	6
NMTAP	30	192	1
NMTAP	30	192	5
NMTAP	30	240	1
NMTAP	30	240	5
NMTAP	30	288	1
NMTAP	30	288	5
NMTAP	31	0	3
NMTAP	31	0	7
NMTAP	31	96	0
NMTAP	31	96	2
NMTAP	31	96	4
NMTAP	31	96	6
NMTAP	31	192	1
NMTAP	31	192	5
NMTAP	31	240	1
NMTAP	31	240	5
NMTAP	31	288	1
NMTAP	31	288	5
NMTAP	32	0	0
NMTAP	32	0	4
NMTAP	32	96	1
NMTAP	32	96	3
NMTAP	32	96	5
NMTAP	32	96	7
NMTAP	32	192	2
NMTAP	32	192	6
NMTAP	32	240	2
NMTAP	32	240	6
NMTAP	32	288	2
NMTAP	32	288	6
NMHLD	33	0	0	96
NMHLD	33	0	3	96
NMHLD	33	0	4	96
NMHLD	33	0	7	96
NMTAP	33	192	1
NMTAP	33	192	5
NMTAP	33	240	0
NMTAP	33	240	4
NMTAP	33	288	1
NMTAP	33	288	5
NMHLD	34	0	0	96
NMHLD	34	0	3	96
NMHLD	34	0	4	96
NMHLD	34	0	7	96
NMTAP	34	192	2
NMTAP	34	192	6
NMTAP	34	240	3
NMTAP	34	240	7
NMTAP	34	288	2
NMTAP	34	288	6
NMHLD	35	0	1	96
NMHLD	35	0	2	96
NMHLD	35	0	5	96
NMHLD	35	0	6	96
NMTAP	35	192	1
NMTAP	35	192	5
NMTAP	35	240	0
NMTAP	35	240	4
NMTAP	35	288	3
NMTAP	35	288	7
NMHLD	36	0	1	96
NMHLD	36	0	2	96
NMHLD	36	0	5	96
NMHLD	36	0	6	96
NMTAP	36	192	0
NMTAP	36	192	3
NMTAP	36	192	4
NMTAP	36	192	7
NMTAP	36	288	1
NMTAP	36	288	2
NMTAP	36	288	5
NMTAP	36	288	6
NMHLD	37	0	0	96
NMHLD	37	0	3	96
NMHLD	37	0	4	96
NMHLD	37	0	7	96
NMTAP	37	192	1
NMTAP	37	192	5
NMTAP	37	240	3
NMTAP	37	240	7
NMTAP	37	288	1
NMTAP	37	288	5
NMHLD	38	0	0	96
NMHLD	38	0	3	96
NMHLD	38	0	4	96
NMHLD	38	0	7	96
NMTAP	38	192	2
NMTAP	38	192	6
NMTAP	38	240	0
NMTAP	38	240	4
NMTAP	38	288	2
NMTAP	38	288	6
NMHLD	39	0	0	96
NMHLD	39	0	3	96
NMHLD	39	0	4	96
NMHLD	39	0	7	96
NMTAP	39	192	1
NMTAP	39	192	5
NMTAP	39	240	0
NMTAP	39	240	4
NMTAP	39	288	3
NMTAP	39	288	7
NMHLD	40	0	1	96
NMHLD	40	0	2	96
NMHLD	40	0	5	96
NMHLD	40	0	6	96
NMTAP	40	192	0
NMTAP	40	192	1
NMTAP	40	192	4
NMTAP	40	192	5
NMTAP	40	288	2
NMTAP	40	288	3
NMTAP	40	288	6
NMTAP	40	288	7
BRTAP	41	0	0
BRTAP	41	0	3
BRTAP	41	0	4
BRTAP	41	0	7
NMTAP	41	192	2
NMTAP	41	192	6
NMTAP	41	240	1
NMTAP	41	240	5
NMTAP	41	288	0
NMTAP	41	288	4
NMTAP	42	0	2
NMTAP	42	0	6
NMTAP	42	96	2
NMTAP	42	96	3
NMTAP	42	96	6
NMTAP	42	96	7
NMTAP	42	192	1
NMTAP	42	192	5
NMTAP	42	240	2
NMTAP	42	240	6
NMTAP	42	288	3
NMTAP	42	288	7
NMTAP	43	0	1
NMTAP	43	0	5
NMTAP	43	96	0
NMTAP	43	96	1
NMTAP	43	96	4
NMTAP	43	96	5
NMTAP	43	192	2
NMTAP	43	192	6
NMTAP	43	240	3
NMTAP	43	240	7
NMTAP	43	288	0
NMTAP	43	288	4
NMTAP	44	0	1
NMTAP	44	0	2
NMTAP	44	0	5
NMTAP	44	0	6
NMTAP	44	96	0
NMTAP	44	96	3
NMTAP	44	96	4
NMTAP	44	96	7
NMTAP	44	192	2
NMTAP	44	192	6
NMTAP	44	240	1
NMTAP	44	240	5
NMTAP	44	288	0
NMTAP	44	288	4
NMTAP	44	336	3
NMTAP	44	336	7
NMTAP	45	0	2
NMTAP	45	0	6
NMTAP	45	96	0
NMTAP	45	96	3
NMTAP	45	96	4
NMTAP	45	96	7
NMTAP	45	192	1
NMTAP	45	192	5
NMTAP	45	240	2
NMTAP	45	240	6
NMTAP	45	288	3
NMTAP	45	288	7
NMTAP	45	336	0
NMTAP	45	336	4
NMTAP	46	0	1
NMTAP	46	0	5
NMTAP	46	96	0
NMTAP	46	96	3
NMTAP	46	96	4
NMTAP	46	96	7
NMTAP	46	192	2
NMTAP	46	192	6
NMTAP	46	240	1
NMTAP	46	240	5
NMTAP	46	288	0
NMTAP	46	288	4
NMTAP	46	336	3
NMTAP	46	336	7
NMTAP	47	0	2
NMTAP	47	0	6
NMTAP	47	96	1
NMTAP	47	96	2
NMTAP	47	96	5
NMTAP	47	96	6
NMTAP	47	192	0
NMTAP	47	192	4
NMTAP	47	240	3
NMTAP	47	240	7
NMTAP	47	288	0
NMTAP	47	288	4
NMTAP	48	0	1
NMTAP	48	0	3
NMTAP	48	0	5
NMTAP	48	0	7
NMTAP	48	96	0
NMTAP	48	96	2
NMTAP	48	96	4
NMTAP	48	96	6
NMTAP	48	192	1
NMTAP	48	192	3
NMTAP	48	192	5
NMTAP	48	192	7
NMTAP	48	288	0
NMTAP	48	288	2
NMTAP	48	288	4
NMTAP	48	288	6
BRTAP	49	0	0
BRTAP	49	0	3
BRTAP	49	0	4
BRTAP	49	0	7
NMHLD	49	192	1	72
NMHLD	49	192	2	72
NMHLD	49	192	5	72
NMHLD	49	192	6	72
NMTAP	49	336	1
NMTAP	49	336	2
NMTAP	49	336	5
NMTAP	49	336	6
NMTAP	50	96	2
NMTAP	50	96	6
NMTAP	50	192	3
NMTAP	50	192	7
NMTAP	50	288	0
NMTAP	50	288	4
NMTAP	51	0	1
NMTAP	51	0	5
NMTAP	51	96	0
NMTAP	51	96	4
NMTAP	51	192	3
NMTAP	51	192	7
NMTAP	51	288	2
NMTAP	51	288	6
NMSTR	52	0	1
NMSI_	52	0	1	96	48	4
NMSTR	52	0	5
NMSI_	52	0	5	96	48	0
NMTAP	52	192	1
NMTAP	52	192	5
NMTAP	52	288	1
NMTAP	52	288	5
NMSTR	53	0	2
NMSI_	53	0	2	96	48	7
NMSTR	53	0	6
NMSI_	53	0	6	96	48	3
NMTAP	53	192	2
NMTAP	53	192	6
NMTAP	53	288	2
NMTAP	53	288	6
NMTAP	54	0	1
NMTAP	54	0	2
NMTAP	54	0	5
NMTAP	54	0	6
NMTAP	54	96	1
NMTAP	54	96	5
NMTAP	54	192	0
NMTAP	54	192	4
NMTAP	54	288	3
NMTAP	54	288	7
NMTAP	55	0	2
NMTAP	55	0	6
NMTAP	55	96	3
NMTAP	55	96	7
NMTAP	55	192	0
NMTAP	55	192	4
NMTAP	55	288	1
NMTAP	55	288	5
NMSTR	56	0	2
NMSI_	56	0	2	96	48	7
NMSTR	56	0	6
NMSI_	56	0	6	96	48	3
NMTAP	56	192	2
NMTAP	56	192	6
NMTAP	56	288	2
NMTAP	56	288	3
NMTAP	56	288	6
NMTAP	56	288	7
NMSTR	57	0	1
NMSI_	57	0	1	96	48	4
NMSTR	57	0	5
NMSI_	57	0	5	96	48	0
NMTAP	57	192	1
NMTAP	57	192	5
NMTAP	57	288	0
NMTAP	57	288	1
NMTAP	57	288	4
NMTAP	57	288	5
NMTAP	58	0	2
NMTAP	58	0	6
NMTAP	58	96	1
NMTAP	58	96	5
NMTAP	58	192	2
NMTAP	58	192	6
NMTAP	58	288	3
NMTAP	58	288	7
NMTAP	59	0	0
NMTAP	59	0	4
NMTAP	59	96	3
NMTAP	59	96	7
NMTAP	59	192	2
NMTAP	59	192	6
NMTAP	59	288	1
NMTAP	59	288	5
NMSTR	60	0	0
NMSI_	60	0	0	96	48	4
NMSTR	60	0	4
NMSI_	60	0	4	96	48	0
NMTAP	60	192	1
NMTAP	60	192	5
NMTAP	60	288	0
NMTAP	60	288	1
NMTAP	60	288	4
NMTAP	60	288	5
NMSTR	61	0	3
NMSI_	61	0	3	96	48	7
NMSTR	61	0	7
NMSI_	61	0	7	96	48	3
NMTAP	61	192	2
NMTAP	61	192	6
NMTAP	61	288	2
NMTAP	61	288	3
NMTAP	61	288	6
NMTAP	61	288	7
NMTAP	62	0	1
NMTAP	62	0	5
NMTAP	62	96	2
NMTAP	62	96	6
NMTAP	62	192	1
NMTAP	62	192	5
NMTAP	62	288	0
NMTAP	62	288	4
NMTAP	63	0	3
NMTAP	63	0	7
NMTAP	63	96	0
NMTAP	63	96	4
NMTAP	63	192	1
NMTAP	63	192	5
NMTAP	63	288	2
NMTAP	63	288	6
NMSTR	64	0	3
NMSI_	64	0	3	96	48	7
NMSTR	64	0	7
NMSI_	64	0	7	96	48	3
NMTAP	64	192	2
NMTAP	64	192	6
NMTAP	64	288	1
NMTAP	64	288	3
NMTAP	64	288	5
NMTAP	64	288	7
NMSTR	65	0	0
NMSI_	65	0	0	96	48	4
NMSTR	65	0	4
NMSI_	65	0	4	96	48	0
NMTAP	65	192	1
NMTAP	65	192	5
NMTAP	65	288	0
NMTAP	65	288	2
NMTAP	65	288	4
NMTAP	65	288	6
NMTAP	66	0	3
NMTAP	66	0	7
NMTAP	66	96	0
NMTAP	66	96	2
NMTAP	66	96	4
NMTAP	66	96	6
NMTAP	66	192	1
NMTAP	66	192	5
NMTAP	66	240	0
NMTAP	66	240	4
NMTAP	66	288	3
NMTAP	66	288	7
NMTAP	66	336	2
NMTAP	66	336	6

T_REC_TAP	572
T_REC_BRK	16
T_REC_XTP	0
T_REC_BXX	0
T_REC_HLD	40
T_REC_XHO	0
T_REC_BHO	0
T_REC_BXH	0
T_REC_STR	28
T_REC_BST	0
T_REC_XST	0
T_REC_XBS	0
T_REC_TTP	0
T_REC_THO	0
T_REC_SLD	28
T_REC_BSL	0
T_REC_ALL	684
T_NUM_TAP	600
T_NUM_BRK	16
T_NUM_HLD	40
T_NUM_SLD	28
T_NUM_ALL	684
T_JUDGE_TAP	616
T_JUDGE_HLD	84
T_JUDGE_SLD	28
T_JUDGE_ALL	728
TTM_EACHPAIRS	248
TTM_SCR_TAP	300000
TTM_SCR_BRK	41600
TTM_SCR_HLD	40000
TTM_SCR_SLD	42000
TTM_SCR_ALL	423600
TTM_SCR_S	409350
TTM_SCR_SS	422000
TTM_RAT_ACV	10037

