VERSION	0.00.00	1.05.00
FES_MODE	1
BPM_DEF	102.000	102.000	102.000	102.000
MET_DEF	4	4
RESOLUTION	384
CLK_DEF	384
COMPATIBLE_CODE	MA2

BPM	0	0	102.000
MET	0	0	4	4

BRHLD	1	288	0	96
NMTAP	2	0	3
NMTAP	2	96	6
NMHLD	2	288	0	96
NMTAP	3	0	3
NMTAP	3	96	6
NMHLD	3	288	0	96
NMTAP	4	0	3
NMTAP	4	96	6
NMTAP	5	0	0
NMTAP	5	0	7
NMSTR	5	288	0
NMSI_	5	288	0	96	96	3
NMTAP	6	0	3
NMTAP	6	96	6
NMSTR	6	288	0
NMSI_	6	288	0	96	96	3
NMTAP	7	0	3
NMTAP	7	96	6
NMSTR	7	288	0
NMSI_	7	288	0	96	96	3
NMTAP	8	0	3
NMTAP	8	96	6
NMTAP	9	0	0
NMTAP	9	0	7
NMSTR	9	288	0
NMSI_	9	288	0	96	96	3
NMTAP	10	0	3
CNSI_	10	96	3	0	96	6
NMTAP	10	96	6
NMSTR	10	288	0
NMSI_	10	288	0	96	96	3
NMTAP	11	0	3
CNSI_	11	96	3	0	96	6
NMTAP	11	96	6
NMSTR	11	288	0
NMSI_	11	288	0	96	96	3
NMTAP	12	0	3
CNSI_	12	96	3	0	96	6
NMTAP	12	96	6
NMTAP	13	0	0
NMTAP	13	0	7
NMSTR	13	288	0
NMSI_	13	288	0	96	96	3
NMSTR	14	0	3
NMSI_	14	0	3	96	96	6
NMTAP	14	96	6
NMSTR	14	288	0
NMSI_	14	288	0	96	96	3
NMSTR	15	0	3
NMSI_	15	0	3	96	96	6
NMTAP	15	96	6
NMSTR	15	288	0
NMSI_	15	288	0	96	96	3
NMSTR	16	0	3
NMSI_	16	0	3	96	96	6
NMTAP	16	96	6
NMTAP	17	0	0
NMTAP	17	0	7
NMSTR	17	288	7
NMSI_	17	288	7	96	96	4
NMSTR	18	0	4
NMSI_	18	0	4	96	96	1
NMTAP	18	96	1
NMSTR	18	288	7
NMSI_	18	288	7	96	96	4
NMSTR	19	0	4
NMSI_	19	0	4	96	96	1
NMTAP	19	96	1
NMSTR	19	288	7
NMSI_	19	288	7	96	96	4
NMSTR	20	0	4
NMSI_	20	0	4	96	96	1
NMTAP	20	96	1
NMTAP	21	0	0
NMTAP	21	0	7
NMSTR	21	288	0
NMSI_	21	288	0	96	96	3
NMSTR	22	0	3
NMSI_	22	0	3	96	96	6
NMSTR	22	96	6
NMSI_	22	96	6	96	96	1
NMHLD	22	192	7	192
NMSTR	23	288	0
NMSI_	23	288	0	96	96	3
NMSTR	24	0	3
NMSI_	24	0	3	96	96	6
NMSTR	24	96	6
NMSI_	24	96	6	96	96	1
NMHLD	24	192	7	192
NMSTR	25	288	7
NMSI_	25	288	7	96	96	4
NMSTR	26	0	4
NMSI_	26	0	4	96	96	1
NMSTR	26	96	1
NMSI_	26	96	1	96	96	6
NMHLD	26	192	0	192
NMSTR	27	288	7
NMSI_	27	288	7	96	96	4
NMSTR	28	0	4
NMSI_	28	0	4	96	96	1
NMSTR	28	96	1
NMSI_	28	96	1	96	96	6
NMHLD	28	192	0	192
NMSTR	29	288	0
NMSI_	29	288	0	96	96	4
NMSTR	30	0	4
NMSI_	30	0	4	96	96	7
NMSTR	30	96	7
NMSI_	30	96	7	96	96	3
NMSTR	30	192	3
NMSI_	30	192	3	96	96	0
NMHLD	30	288	5	96
NMSTR	31	288	0
NMSI_	31	288	0	96	96	4
NMSTR	32	0	4
NMSI_	32	0	4	96	96	7
NMSTR	32	96	7
NMSI_	32	96	7	96	96	3
NMSTR	32	192	3
NMSI_	32	192	3	96	96	0
NMHLD	32	288	5	96
NMSTR	33	288	7
NMSI_	33	288	7	96	96	3
NMSTR	34	0	3
NMSI_	34	0	3	96	96	0
NMSTR	34	96	0
NMSI_	34	96	0	96	96	4
NMSTR	34	192	4
NMSI_	34	192	4	96	96	7
NMHLD	34	288	2	96
NMSTR	35	288	7
NMSI_	35	288	7	96	96	3
NMSTR	36	0	3
NMSI_	36	0	3	96	96	0
NMSTR	36	96	0
NMSI_	36	96	0	96	96	4
NMSTR	36	192	4
NMSI_	36	192	4	96	96	7
NMHLD	36	288	2	96
NMSTR	37	288	0
NMSCR	37	288	0	96	96	3
NMSTR	38	0	3
NMSI_	38	0	3	96	96	7
NMSTR	38	96	7
NMSCL	38	96	7	96	96	4
NMSTR	38	192	4
NMSI_	38	192	4	96	96	0
NMHLD	38	288	3	96
NMSTR	39	288	7
NMSCL	39	288	7	96	96	4
NMSTR	40	0	4
NMSI_	40	0	4	96	96	0
NMSTR	40	96	0
NMSCR	40	96	0	96	96	3
NMSTR	40	192	3
NMSI_	40	192	3	96	96	7
NMHLD	40	288	4	96
NMSTR	41	288	0
NMSCR	41	288	0	96	96	3
NMSTR	42	0	3
NMSCR	42	0	3	96	96	6
NMSTR	42	96	6
NMSCR	42	96	6	96	96	1
NMTAP	42	192	1
NMHLD	42	288	4	96
NMSTR	43	288	7
NMSCL	43	288	7	96	96	4
NMSTR	44	0	4
NMSCL	44	0	4	96	96	1
NMSTR	44	96	1
NMSCL	44	96	1	96	96	6
NMTAP	44	192	6
NMHLD	44	288	3	96
NMSTR	45	288	0
NMSCR	45	288	0	96	96	4
NMSTR	46	0	4
NMSCR	46	0	4	96	96	0
NMSTR	46	96	0
NMSCR	46	96	0	96	96	4
NMSTR	46	192	4
NMSCR	46	192	4	96	96	0
NMTAP	46	288	0
NMTAP	47	0	4
NMSTR	47	288	7
NMSCL	47	288	7	96	96	3
NMSTR	48	0	3
NMSCL	48	0	3	96	96	7
NMSTR	48	96	7
NMSCL	48	96	7	96	96	3
NMSTR	48	192	3
NMSCL	48	192	3	96	96	7
NMTAP	48	288	7
NMTAP	49	0	3
NMTAP	49	192	1
NMTAP	49	192	5

T_REC_TAP	42
T_REC_BRK	0
T_REC_XTP	0
T_REC_BXX	0
T_REC_HLD	14
T_REC_XHO	0
T_REC_BHO	1
T_REC_BXH	0
T_REC_STR	68
T_REC_BST	0
T_REC_XST	0
T_REC_XBS	0
T_REC_TTP	0
T_REC_THO	0
T_REC_SLD	68
T_REC_BSL	0
T_REC_ALL	193
T_NUM_TAP	110
T_NUM_BRK	1
T_NUM_HLD	14
T_NUM_SLD	68
T_NUM_ALL	193
T_JUDGE_TAP	110
T_JUDGE_HLD	76
T_JUDGE_SLD	68
T_JUDGE_ALL	254
TTM_EACHPAIRS	6
TTM_SCR_TAP	55000
TTM_SCR_BRK	2600
TTM_SCR_HLD	14000
TTM_SCR_SLD	102000
TTM_SCR_ALL	173600
TTM_SCR_S	168300
TTM_SCR_SS	173500
TTM_RAT_ACV	10005

